osu file format v14

[General]
AudioFilename: GHOSTGRADUATION(monet).mp3
AudioLeadIn: 2000
PreviewTime: 84115
Countdown: 0
SampleSet: Soft
StackLeniency: 0.7
Mode: 0
LetterboxInBreaks: 0
WidescreenStoryboard: 0

[Editor]
Bookmarks: 85670,112011,123718,150060,173474,197075,220794,241411,251654,283850
DistanceSpacing: 1.2
BeatDivisor: 4
GridSize: 4
TimelineZoom: 1.4

[Metadata]
Title:GHOST x GRADUATION
TitleUnicode:GHOST × GRADUATION
Artist:monet
ArtistUnicode:monet
Creator:Garden
Version:Unfading Memories
Source:はつゆきさくら
Tags:Left Hatsuyuki Sakura ending Visual Art's SAGA PLANETS galgame eroge visual novel collaboration marathon
BeatmapID:1532072
BeatmapSetID:725613

[Difficulty]
HPDrainRate:6
CircleSize:4
OverallDifficulty:7
ApproachRate:9
SliderMultiplier:2
SliderTickRate:1

[Events]
//Background and Video events
0,0,"sakura.jpg",0,0
//Break Periods
//Storyboard Layer 0 (Background)
//Storyboard Layer 1 (Fail)
//Storyboard Layer 2 (Pass)
//Storyboard Layer 3 (Foreground)
//Storyboard Sound Samples

[TimingPoints]
792,731.707317073171,4,2,1,15,1,0
792,-125,4,2,1,15,0,0
26035,-125,4,2,1,5,0,0
26218,-125,4,2,1,15,0,0
28962,-125,4,2,1,5,0,0
29145,-125,4,2,1,15,0,0
31889,-125,4,2,1,5,0,0
32072,-125,4,2,1,15,0,0
35913,-100,4,2,1,25,0,0
59328,-83.3333333333333,4,2,1,40,0,0
61798,-83.3333333333333,4,2,1,5,0,0
61889,-83.3333333333333,4,2,1,40,0,0
62072,-83.3333333333333,4,2,1,25,0,0
62255,-83.3333333333333,4,2,1,40,0,0
63170,-83.3333333333333,4,2,1,25,0,0
63352,-83.3333333333333,4,2,1,40,0,0
63535,-83.3333333333333,4,2,1,25,0,0
63718,-83.3333333333333,4,2,1,40,0,0
64724,-83.3333333333333,4,2,1,5,0,0
64816,-83.3333333333333,4,2,1,40,0,0
64999,-83.3333333333333,4,2,1,25,0,0
65182,-83.3333333333333,4,2,1,40,0,0
66828,-83.3333333333333,4,2,1,25,0,0
67011,-83.3333333333333,4,2,1,40,0,0
67194,-83.3333333333333,4,2,1,25,0,0
67377,-83.3333333333333,4,2,1,40,0,0
67651,-83.3333333333333,4,2,1,5,0,0
67743,-83.3333333333333,4,2,1,40,0,0
67926,-83.3333333333333,4,2,1,25,0,0
68109,-83.3333333333333,4,2,1,40,0,0
70578,-83.3333333333333,4,2,1,5,0,0
70670,-83.3333333333333,4,2,1,40,0,0
75700,-83.3333333333333,4,2,1,5,0,0
75792,-83.3333333333333,4,2,1,40,0,0
76066,-83.3333333333333,4,2,1,5,0,0
76157,-83.3333333333333,4,2,1,40,0,0
76432,-83.3333333333333,4,2,1,5,0,0
76523,-83.3333333333333,4,2,1,40,0,0
76706,-83.3333333333333,4,2,1,20,0,0
76889,-83.3333333333333,4,2,1,40,0,0
77895,-83.3333333333333,4,2,1,5,0,0
77987,-83.3333333333333,4,2,1,40,0,0
78627,-83.3333333333333,4,2,1,5,0,0
78718,-83.3333333333333,4,2,1,40,0,0
81554,-83.3333333333333,4,2,1,5,0,0
81645,-83.3333333333333,4,2,1,40,0,0
84206,-68.9655172413793,4,2,1,50,0,0
84481,-68.9655172413793,4,2,1,5,0,0
84572,-68.9655172413793,4,2,1,50,0,0
85670,-52.6315789473684,4,2,1,60,0,1
85761,-52.6315789473684,4,2,1,60,0,0
86218,-58.8235294117647,4,2,1,60,0,0
88139,-58.8235294117647,4,2,1,5,0,0
88231,-52.6315789473684,4,2,1,60,0,0
89145,-58.8235294117647,4,2,1,60,0,0
91523,-52.6315789473684,4,2,1,60,0,0
92072,-58.8235294117647,4,2,1,60,0,0
94450,-52.6315789473684,4,2,1,60,0,0
94816,-58.8235294117647,4,2,1,60,0,0
96645,-50,4,2,1,60,0,0
96920,-50,4,2,1,5,0,0
97011,-50,4,2,1,60,0,0
97377,-58.8235294117647,4,2,1,60,0,0
99481,-58.8235294117647,4,2,1,5,0,0
99572,-58.8235294117647,4,2,1,60,0,0
108627,-58.8235294117647,4,2,1,5,0,0
108718,-58.8235294117647,4,2,1,60,0,0
108901,-58.8235294117647,4,2,1,40,0,0
109084,-50,4,2,1,60,0,0
109359,-50,4,2,1,5,0,0
109450,-50,4,2,1,60,0,0
109724,-50,4,2,1,5,0,0
109816,-200,4,2,1,60,0,0
110090,-200,4,2,1,5,0,0
110182,-200,4,2,1,60,0,0
110365,-50,4,2,1,5,0,0
110548,-50,4,2,1,60,0,0
110822,-50,4,2,1,5,0,0
110913,-50,4,2,1,60,0,0
112011,-66.6666666666667,4,2,1,50,0,0
112743,-80,4,2,1,50,0,0
113292,-66.6666666666667,4,2,1,50,0,0
114481,-66.6666666666667,4,2,1,5,0,0
114572,-66.6666666666667,4,2,1,50,0,0
120792,-66.6666666666667,4,2,1,30,0,0
121889,-66.6666666666667,4,2,1,40,0,0
122529,-66.6666666666667,4,2,1,5,0,0
122621,-66.6666666666667,4,2,1,40,0,0
123627,-66.6666666666667,4,2,1,5,0,0
123718,-74.0740740740741,4,2,1,45,0,0
126188,-74.0740740740741,4,2,1,5,0,0
126279,-74.0740740740741,4,2,1,45,0,0
127651,-74.0740740740741,4,2,1,5,0,0
127743,-74.0740740740741,4,2,1,45,0,0
132042,-74.0740740740741,4,2,1,5,0,0
132133,-74.0740740740741,4,2,1,45,0,0
144846,-74.0740740740741,4,2,1,5,0,0
144938,-74.0740740740741,4,2,1,45,0,0
145212,-74.0740740740741,4,2,1,5,0,0
145304,-74.0740740740741,4,2,1,45,0,0
145578,-74.0740740740741,4,2,1,5,0,0
145670,-74.0740740740741,4,2,1,45,0,0
145944,-74.0740740740741,4,2,1,5,0,0
146035,-74.0740740740741,4,2,1,45,0,0
146310,-74.0740740740741,4,2,1,5,0,0
146401,-74.0740740740741,4,2,1,45,0,0
146676,-74.0740740740741,4,2,1,5,0,0
146767,-74.0740740740741,4,2,1,45,0,0
148231,-200,4,2,1,45,0,0
148596,-200,4,2,1,30,0,0
148779,-68.9655172413793,4,2,1,45,0,0
149694,-200,4,2,1,45,0,0
150060,-58.8235294117647,4,2,1,60,0,1
150151,-58.8235294117647,4,2,1,60,0,0
170090,-58.8235294117647,4,2,1,5,0,0
170182,-58.8235294117647,4,2,1,60,0,0
170548,-50,4,2,1,60,0,0
170822,-50,4,2,1,5,0,0
170913,-66.6666666666667,4,2,1,50,0,0
171096,-66.6666666666667,4,2,1,30,0,0
171279,-66.6666666666667,4,2,1,50,0,0
171462,-66.6666666666667,4,2,1,30,0,0
171645,-66.6666666666667,4,2,1,50,0,0
172011,-100,4,2,1,40,0,0
172194,-100,4,2,1,25,0,0
172377,-100,4,2,1,40,0,0
172560,-100,4,2,1,25,0,0
172743,-133.333333333333,4,2,1,40,0,0
173109,-133.333333333333,4,2,1,25,0,0
173474,-125,4,2,1,35,0,0
174206,-125,4,2,1,25,0,0
175304,-125,4,2,1,15,0,0
175670,-125,4,2,1,18,0,0
176035,-125,4,2,1,21,0,0
176401,-125,4,2,1,25,0,0
177499,-125,4,2,1,20,0,0
177865,-125,4,2,1,25,0,0
178596,-125,4,2,1,20,0,0
178962,-125,4,2,1,15,0,0
179328,-125,4,2,1,20,0,0
179694,-125,4,2,1,25,0,0
180974,-125,4,2,1,20,0,0
181523,-83.3333333333333,4,2,1,25,0,0
181889,-62.5,4,2,1,20,0,0
182255,-62.5,4,2,1,25,0,0
183352,-62.5,4,2,1,20,0,0
183718,-62.5,4,2,1,25,0,0
184450,-62.5,4,2,1,20,0,0
184816,-200,4,2,1,25,0,0
185182,733.94495412844,4,2,1,20,1,0
185182,-125,4,2,1,20,0,0
185732,-125,4,2,1,5,0,0
185915,-125,4,2,1,20,0,0
188484,-125,4,2,1,15,0,0
189585,-125,4,2,1,20,0,0
189952,743.034055727554,4,2,1,20,1,0
191066,740.740740740741,4,2,1,20,1,0
192177,-100,4,2,1,15,0,0
192547,750,4,2,1,20,1,0
192547,-153.846153846154,4,2,1,20,0,0
193297,-153.846153846154,4,2,1,10,0,0
193672,-153.846153846154,4,2,1,5,0,0
193859,-153.846153846154,4,2,1,20,0,0
194047,757.097791798107,4,2,1,20,1,0
194047,-500,4,2,1,20,0,0
194804,-500,4,2,1,10,0,0
196318,-500,4,2,1,5,0,0
196696,-500,4,2,1,20,0,0
197075,740.740740740741,4,2,1,20,1,0
197075,-125,4,2,1,20,0,0
197445,-125,4,2,1,15,0,0
198186,-125,4,2,1,20,0,0
198926,-125,4,2,1,15,0,0
199667,-125,4,2,1,20,0,0
200408,-125,4,2,1,15,0,0
200778,-125,4,2,1,18,0,0
201149,-125,4,2,1,21,0,0
201519,-125,4,2,1,18,0,0
201889,-125,4,2,1,15,0,0
202630,-125,4,2,1,18,0,0
203000,-125,4,2,1,20,0,0
203371,-125,4,2,1,15,0,0
204482,-125,4,2,1,20,0,0
204852,-125,4,2,1,15,0,0
205593,-125,4,2,1,20,0,0
206334,-125,4,2,1,15,0,0
207075,-125,4,2,1,20,0,0
208186,750,4,2,1,15,1,0
208936,740.740740740741,4,2,1,15,1,0
208936,-125,4,2,1,15,0,0
209676,-125,4,2,1,20,0,0
210047,-125,4,2,1,15,0,0
211528,-125,4,2,1,20,0,0
212269,-125,4,2,1,15,0,0
212639,-125,4,2,1,20,0,0
213380,750,4,2,1,20,1,0
213380,-125,4,2,1,20,0,0
214130,731.707317073171,4,2,1,15,1,0
214312,-125,4,2,1,15,0,0
214861,731.707317073171,4,2,1,20,1,0
214861,-125,4,2,1,20,0,0
215592,-125,4,2,1,15,0,0
216324,-125,4,2,1,20,0,0
216690,-153.846153846154,4,2,1,20,0,0
217421,-153.846153846154,4,2,1,10,0,0
217604,-153.846153846154,4,2,1,15,0,0
217787,-153.846153846154,4,2,1,20,0,0
218153,769.230769230769,4,2,1,20,1,0
218153,-500,4,2,1,20,0,0
218922,-500,4,2,1,10,0,0
219691,-500,4,2,1,5,0,0
219883,729.483282674772,4,2,1,15,1,0
220065,-100,4,2,1,20,0,0
220247,-100,4,2,1,15,0,0
220794,731.707317073171,4,2,1,20,1,0
220794,-125,4,2,1,20,0,0
221891,-125,4,2,1,10,0,0
222257,-125,4,2,1,20,0,0
223354,-125,4,2,1,10,0,0
223720,-125,4,2,1,20,0,0
224818,-125,4,2,1,10,0,0
225184,-125,4,2,1,13,0,0
225550,-125,4,2,1,16,0,0
225915,-125,4,2,1,20,0,0
226647,736.196319018405,4,2,1,20,1,0
226647,-125,4,2,1,20,0,0
227383,-125,4,2,1,10,0,0
228119,747.663551401869,4,2,1,17,1,0
228119,-181.818181818182,4,2,1,17,0,0
228866,740.740740740741,4,2,1,10,1,0
229606,714.285714285714,4,2,1,15,1,0
229606,-400,4,2,1,15,0,0
230320,789.473684210526,4,2,1,10,1,0
230714,740.740740740741,4,2,1,15,1,0
231825,-100,4,2,1,20,0,0
232195,-100,4,2,1,15,0,0
232565,736.196319018405,4,2,1,20,1,0
233301,-100,4,2,1,15,0,0
234037,-125,4,2,1,20,0,0
234405,-125,4,2,1,10,0,0
234773,-125,4,2,1,20,0,0
235141,-125,4,2,1,10,0,0
235509,-125,4,2,1,20,0,0
235877,-125,4,2,1,15,0,0
236245,-125,4,2,1,17,0,0
236614,-125,4,2,1,13,0,0
236982,-125,4,2,1,15,0,0
237350,-125,4,2,1,10,0,0
238454,740.740740740741,4,2,1,20,1,0
239935,-100,4,2,1,18,0,0
240676,-200,4,2,1,15,0,0
241411,731.707317073171,4,2,1,20,1,0
241411,-125,4,2,1,20,0,0
242508,-125,4,2,1,15,0,0
242874,-100,4,2,1,20,0,0
244337,-100,4,2,1,30,0,0
246441,-100,4,2,1,5,0,0
246532,-100,4,2,1,30,0,0
248728,-100,4,2,1,35,0,0
249093,-100,4,2,1,40,0,0
249459,-100,4,2,1,45,0,0
249825,-100,4,2,1,50,0,0
251654,731.707317073171,4,2,1,25,1,0
253849,-172.413793103448,4,2,1,60,0,0
254489,-172.413793103448,4,2,1,5,0,0
254580,-58.8235294117647,4,2,1,60,0,0
275800,-76.9230769230769,4,2,1,60,0,0
276349,-111.111111111111,4,2,1,60,0,0
277995,-58.8235294117647,4,2,1,50,0,0
283849,-66.6666666666667,4,2,1,50,0,0
284855,-66.6666666666667,4,2,1,5,0,0
284946,-66.6666666666667,4,2,1,50,0,0
287782,-66.6666666666667,4,2,1,5,0,0
287873,-66.6666666666667,4,2,1,50,0,0
289245,-66.6666666666667,4,2,1,5,0,0
289336,-66.6666666666667,4,2,1,50,0,0
292172,-66.6666666666667,4,2,1,5,0,0
292263,-66.6666666666667,4,2,1,50,0,0
299489,-66.6666666666667,4,2,1,5,0,0
299580,-66.6666666666667,4,2,1,50,0,0
305343,-66.6666666666667,4,2,1,5,0,0
305434,-66.6666666666667,4,2,1,50,0,0
307269,722.89156626506,4,2,1,25,1,0
309076,-100,4,2,1,15,0,0
309437,705.882352941176,4,2,1,20,1,0
309437,-133.333333333333,4,2,1,20,0,0
309789,769.230769230769,4,2,1,20,1,0
310173,736.196319018405,4,2,1,20,1,0
312381,-100,4,2,1,15,0,0
313117,769.230769230769,4,2,1,20,1,0
313117,-133.333333333333,4,2,1,20,0,0
313886,-133.333333333333,4,2,1,5,0,0
314655,1379.31034482759,4,2,1,20,1,0
316034,1726.61870503597,4,2,1,15,1,0
317868,-100,4,2,1,5,0,0

[Colours]
Combo1 : 176,255,255
Combo2 : 255,172,255
Combo3 : 221,221,221
Combo4 : 206,174,255

[HitObjects]
102,268,426,5,2,0:0:0:0:
102,268,609,1,0,0:0:0:0:
102,268,792,2,0,P|144:249|191:254,1,80,2|0,0:0|0:0,0:0:0:0:
329,252,1523,1,2,0:0:0:0:
234,169,1889,1,2,0:0:0:0:
281,331,2255,2,0,P|357:343|412:289,1,160,2|2,0:0|0:0,0:0:0:0:
447,183,3352,1,0,0:0:0:0:
333,92,3718,6,0,L|328:276,1,160,2|2,0:0|0:0,0:0:0:0:
447,183,4816,1,0,0:0:0:0:
378,23,5182,2,0,P|335:9|287:18,1,80,2|0,0:0|0:0,0:0:0:0:
213,129,5913,1,2,0:0:0:0:
333,92,6279,1,2,0:0:0:0:
185,214,6645,6,0,P|178:139|168:54,1,160,2|0,0:0|0:0,0:0:0:0:
262,264,7743,1,2,0:0:0:0:
262,264,9206,1,0,0:0:0:0:
158,326,9572,6,0,P|117:325|80:294,1,80,2|0,0:0|0:0,0:0:0:0:
262,264,10304,1,2,0:0:0:0:
238,384,10670,1,2,0:0:0:0:
86,303,11035,2,0,L|96:141,1,160,2|0,0:0|0:0,0:0:0:0:
178,191,11950,1,0,0:0:0:0:
178,191,12133,2,0,P|204:190|227:183,1,40,2|0,0:0|0:0,0:0:0:0:
281,127,12499,6,0,P|325:128|366:135,1,80,2|0,0:0|0:0,0:0:0:0:
468,17,13231,2,0,P|459:86|452:179,1,160,2|2,0:0|0:0,0:0:0:0:
452,176,14694,1,0,0:0:0:0:
509,279,15060,2,0,P|510:259|506:239,1,40,2|0,0:0|0:0,0:0:0:0:
452,176,15426,6,0,P|420:190|372:186,1,80,2|0,0:0|0:0,0:0:0:0:
506,99,16157,1,0,0:0:0:0:
294,245,16523,1,2,0:0:0:0:
506,99,16889,1,2,0:0:0:0:
508,263,17255,1,0,0:0:0:0:
324,84,17621,1,2,0:0:0:0:
294,245,17987,1,0,0:0:0:0:
452,176,18352,5,2,0:0:0:0:
452,176,19999,1,0,0:0:0:0:
452,176,20182,2,0,L|389:168,1,40,2|0,0:0|0:0,0:0:0:0:
331,84,20548,2,0,P|339:102|345:121,1,40
336,204,20913,2,0,P|321:222|312:238,1,40,2|0,0:0|0:0,0:0:0:0:
290,313,21279,6,0,P|249:298|204:305,1,80,2|0,0:0|0:0,0:0:0:0:
10,380,22011,2,0,P|49:382|86:368,1,80,2|0,0:0|0:0,0:0:0:0:
133,303,22560,1,2,0:0:0:0:
99,230,22743,1,0,0:0:0:0:
99,230,23840,1,0,0:0:0:0:
204,199,24206,6,0,P|210:241|197:285,1,80,2|0,0:0|0:0,0:0:0:0:
99,230,24938,1,0,0:0:0:0:
167,106,25304,2,0,B|249:80|243:144|345:106,2,160,2|2|0,0:0|0:0|0:0,0:0:0:0:
30,199,27133,6,0,P|75:200|118:174,1,80,2|0,0:0|0:0,0:0:0:0:
292,24,27865,1,0,0:0:0:0:
194,39,28231,2,0,L|203:198,2,160,2|2|0,0:0|0:0|0:0,0:0:0:0:
300,117,30060,6,0,L|307:213,1,80,2|0,0:0|0:0,0:0:0:0:
412,123,30792,1,0,0:0:0:0:
246,271,31157,2,0,P|314:226|396:242,2,160,2|2|0,0:0|0:0|0:0,0:0:0:0:
337,326,32987,5,2,0:0:0:0:
434,141,33352,1,0,0:0:0:0:
499,247,33718,1,0,0:0:0:0:
374,42,34084,1,2,0:0:0:0:
374,42,35182,2,0,P|351:80|352:125,1,80
349,114,35913,6,0,L|454:106,1,100,2|0,0:0|0:0,0:0:0:0:
264,174,36645,2,0,L|159:166,1,100
95,131,37194,1,0,0:0:0:0:
95,131,37377,2,0,P|116:86|110:37,1,100,2|0,0:0|0:0,0:0:0:0:
0,223,38109,2,0,L|9:336,1,100
228,358,38840,6,0,P|174:361|130:326,1,100,2|0,0:0|0:0,0:0:0:0:
91,272,39389,1,0,0:0:0:0:
128,202,39572,1,2,0:0:0:0:
332,358,39938,1,0,0:0:0:0:
332,358,40670,1,0,0:0:0:0:
512,299,41035,2,0,P|462:284|411:297,1,100,2|0,0:0|0:0,0:0:0:0:
416,294,41767,6,0,L|424:194,1,100,2|0,0:0|0:0,0:0:0:0:
347,30,42499,2,0,L|338:129,1,100
286,192,43048,1,0,0:0:0:0:
286,192,43231,2,0,P|233:196|187:165,1,100,2|0,0:0|0:0,0:0:0:0:
424,194,43962,1,0,0:0:0:0:
253,94,44328,1,0,0:0:0:0:
443,0,44694,6,0,L|433:110,1,100,2|0,0:0|0:0,0:0:0:0:
285,191,45426,2,0,P|236:188|192:214,1,100,2|0,0:0|0:0,0:0:0:0:
136,268,45974,1,0,0:0:0:0:
68,226,46157,1,2,0:0:0:0:
263,290,46523,1,2,0:0:0:0:
128,164,46889,1,2,0:0:0:0:
58,377,47255,2,0,P|85:372|104:354,1,50
133,269,47621,6,0,P|104:307|101:359,1,100,2|0,0:0|0:0,0:0:0:0:
306,223,48352,1,2,0:0:0:0:
194,338,48718,2,0,L|253:333,1,50
319,370,49084,2,0,L|444:360,1,100,2|0,0:0|0:0,0:0:0:0:
512,254,49816,1,0,0:0:0:0:
350,156,50182,2,0,L|342:210,1,50
420,239,50548,6,0,P|434:191|428:129,1,100,2|0,0:0|0:0,0:0:0:0:
382,78,51096,1,0,0:0:0:0:
382,78,51279,2,0,P|328:75|279:108,1,100,2|0,0:0|0:0,0:0:0:0:
215,147,51828,1,0,0:0:0:0:
215,147,52011,2,0,L|95:131,1,100,2|0,0:0|0:0,0:0:0:0:
382,78,52743,1,0,0:0:0:0:
250,228,53109,2,0,P|241:262|249:300,1,50
316,327,53474,6,0,P|363:305|410:308,1,100,2|0,0:0|0:0,0:0:0:0:
210,360,54206,1,2,0:0:0:0:
288,177,54572,2,0,P|301:197|307:223,1,50
241,276,54938,2,0,B|139:245|154:343|45:314,1,200,2|0,0:0|0:0,0:0:0:0:
88,181,56035,2,0,L|84:230,1,50
210,360,56401,5,2,0:0:0:0:
88,181,57682,2,0,L|86:212,3,16.6666666666667,0|0|0|2,0:0|0:0|0:0|0:0,0:0:0:0:
210,360,58413,2,0,L|214:322,2,25
127,359,58779,1,0,0:0:0:0:
127,359,58962,2,0,L|132:305,1,50,2|0,0:3|0:0,0:0:0:0:
49,264,59328,6,0,L|41:384,1,119.999996337891,12|0,0:0|0:0,0:0:0:0:
3,181,60060,2,0,P|77:171|118:199,1,119.999996337891,2|0,0:3|0:0,0:0:0:0:
163,274,60609,1,0,0:0:0:0:
163,274,60792,2,0,L|296:257,1,119.999996337891,8|8,0:0|0:0,0:0:0:0:
349,94,61523,2,0,L|342:197,1,89.9999972534181,2|0,0:3|0:0,0:0:0:0:
342,183,61889,2,0,P|368:217|376:253,1,59.9999981689454,8|0,0:0|0:0,0:0:0:0:
256,365,62255,6,0,P|247:313|284:257,1,119.999996337891,8|0,0:0|0:0,0:0:0:0:
397,321,62804,1,0,0:0:0:0:
397,321,62987,2,0,L|333:326,1,59.9999981689454,2|0,0:3|0:0,0:0:0:0:
373,232,63352,2,0,L|441:226,1,59.9999981689454
465,134,63718,1,8,0:0:0:0:
337,325,64084,1,8,0:0:0:0:
469,138,64450,2,0,L|467:40,1,89.9999972534181,2|0,0:3|0:0,0:0:0:0:
467,48,64816,2,0,P|439:60|410:65,1,59.9999981689454,8|0,0:0|0:0,0:0:0:0:
328,108,65182,6,0,P|273:90|207:101,1,119.999996337891,8|0,0:0|0:0,0:0:0:0:
32,199,65913,2,0,L|20:65,1,119.999996337891,2|0,0:3|0:0,0:0:0:0:
118,105,66462,1,0,0:0:0:0:
118,105,66645,2,0,L|125:184,1,59.9999981689454,8|0,0:0|0:0,0:0:0:0:
189,231,67011,2,0,P|189:263|176:298,1,59.9999981689454,8|0,0:0|0:0,0:0:0:0:
26,360,67377,2,0,L|132:351,1,89.9999972534181,2|0,0:3|0:0,0:0:0:0:
115,352,67743,2,0,P|147:375|180:377,1,59.9999981689454,8|0,0:0|0:0,0:0:0:0:
252,345,68109,6,0,P|310:321|376:337,1,119.999996337891,8|0,0:0|0:0,0:0:0:0:
483,148,68840,2,0,L|473:267,1,119.999996337891,2|0,0:3|0:0,0:0:0:0:
381,248,69389,1,0,0:0:0:0:
381,248,69572,2,0,L|303:240,1,59.9999981689454,8|2,0:0|0:3,0:0:0:0:
243,148,69938,2,0,L|328:158,1,59.9999981689454,8|0,0:0|0:0,0:0:0:0:
261,305,70304,2,0,L|171:295,1,89.9999972534181,2|0,0:3|0:0,0:0:0:0:
171,295,70670,2,0,P|169:258|160:221,1,59.9999981689454,8|0,0:0|0:0,0:0:0:0:
74,125,71035,6,0,L|67:255,1,119.999996337891,8|0,0:0|0:0,0:0:0:0:
325,375,71767,2,0,L|332:237,1,119.999996337891,2|0,0:3|0:0,0:0:0:0:
419,213,72316,1,0,0:0:0:0:
419,213,72499,2,0,P|451:166|437:85,1,119.999996337891,8|0,0:0|0:0,0:0:0:0:
303,145,73048,1,0,0:0:0:0:
303,145,73231,2,0,L|374:141,1,59.9999981689454,2|0,0:3|0:0,0:0:0:0:
376,46,73596,2,0,L|297:50,1,59.9999981689454
123,106,73962,6,0,P|187:116|240:77,1,119.999996337891,8|0,0:0|0:0,0:0:0:0:
16,16,74694,2,0,L|29:157,1,119.999996337891,2|0,0:3|0:0,0:0:0:0:
16,238,75243,1,0,0:0:0:0:
16,238,75426,2,0,P|69:232|106:202,1,89.9999972534181,10|0,0:0|0:0,0:0:0:0:
117,192,75792,2,0,P|94:246|113:296,1,89.9999972534181,10|0,0:0|0:0,0:0:0:0:
129,289,76157,2,0,P|169:273|233:291,1,89.9999972534181,10|0,0:0|0:0,0:0:0:0:
242,297,76523,2,0,L|337:286,1,89.9999972534181,10|0,0:0|0:0,0:0:0:0:
365,294,76889,6,0,P|335:251|341:174,1,119.999996337891,10|0,0:0|0:0,0:0:0:0:
450,42,77621,2,0,P|482:75|491:125,1,89.9999972534181,2|0,0:3|0:0,0:0:0:0:
492,117,77987,2,0,L|481:185,1,59.9999981689454,2|0,0:0|0:0,0:0:0:0:
390,121,78352,2,0,P|352:104|282:123,1,89.9999972534181,8|0,0:0|0:0,0:0:0:0:
305,109,78718,2,0,L|239:101,1,59.9999981689454,10|0,0:0|0:0,0:0:0:0:
134,89,79084,1,2,0:3:0:0:
178,0,79267,1,0,0:0:0:0:
134,89,79450,2,0,P|149:119|159:155,1,59.9999981689454,10|0,0:0|0:0,0:0:0:0:
60,206,79816,6,0,P|137:172|150:294,1,239.999992675781,10|8,0:0|0:1,0:0:0:0:
0,309,80913,2,0,P|33:298|62:300,1,59.9999981689454,2|0,0:0|0:0,0:0:0:0:
201,371,81279,2,0,P|246:373|295:343,1,89.9999972534181,8|0,0:0|0:0,0:0:0:0:
285,353,81645,2,0,L|278:282,1,59.9999981689454,10|0,0:0|0:0,0:0:0:0:
363,191,82011,6,0,L|376:317,1,119.999996337891,8|0,0:1|0:0,0:0:0:0:
274,151,82560,1,2,0:0:0:0:
454,227,82743,1,12,0:0:0:0:
274,151,83474,5,2,0:0:0:0:
363,191,83657,1,0,0:0:0:0:
454,227,83840,2,0,P|486:227|516:211,1,59.9999981689454
370,82,84206,6,0,L|361:205,1,108.750003318787,8|0,0:1|0:0,0:0:0:0:
356,262,84572,2,0,L|362:184,1,72.5000022125245,8|0,0:1|0:0,0:0:0:0:
261,297,84938,5,8,0:1:0:0:
454,227,85121,1,8,0:1:0:0:
274,151,85304,1,12,0:3:0:0:
274,151,85670,6,0,B|228:136|189:171|189:171|142:211|93:192,1,189.999994926453,4|0,0:0|0:0,0:0:0:0:
150,36,86218,1,8,0:0:0:0:
38,138,86401,2,0,P|76:113|139:124,1,85.0000016212464,8|0,1:0|0:0,0:0:0:0:
86,273,86767,2,0,P|81:228|107:185,1,85.0000016212464,2|0,0:0|0:0,0:0:0:0:
99,194,87042,1,0,0:0:0:0:
99,194,87133,1,2,0:0:0:0:
344,116,87316,5,8,0:1:0:0:
300,296,87499,1,8,0:0:0:0:
174,168,87682,1,8,0:0:0:0:
324,207,87865,5,8,1:1:0:0:
237,233,88231,1,8,0:0:0:0:
261,145,88596,2,0,L|309:359,1,189.999994926453,10|0,0:0|0:0,0:0:0:0:
204,254,89145,1,8,0:0:0:0:
357,215,89328,2,0,P|405:221|453:260,1,85.0000016212464,8|0,1:0|0:0,0:0:0:0:
276,298,89694,5,2,0:0:0:0:
130,208,89877,1,2,0:0:0:0:
98,220,89969,1,0,0:0:0:0:
74,247,90060,1,8,0:0:0:0:
70,111,90243,5,8,0:1:0:0:
148,289,90426,1,8,0:0:0:0:
291,155,90609,1,10,0:0:0:0:
161,205,90792,5,8,1:0:0:0:
161,205,91157,2,0,L|147:293,1,85.0000016212464,2|0,0:0|0:0,0:0:0:0:
85,338,91432,1,0,0:0:0:0:
85,338,91523,6,0,P|153:310|278:319,1,189.999994926453,12|0,0:0|0:0,0:0:0:0:
169,273,92072,1,8,0:0:0:0:
267,315,92255,1,8,1:0:0:0:
169,273,92438,2,0,P|169:229|191:175,1,85.0000016212464,2|0,0:0|0:0,0:0:0:0:
351,60,92804,2,0,P|362:89|364:128,1,42.5000008106232,2|0,0:0|0:0,0:0:0:0:
333,180,92987,1,8,0:0:0:0:
281,114,93170,5,8,0:1:0:0:
379,246,93352,1,8,0:0:0:0:
414,175,93535,5,10,0:0:0:0:
337,314,93718,2,0,P|257:306|211:282,1,127.50000243187,8|0,1:0|0:0,0:0:0:0:
207,296,94084,1,2,0:0:0:0:
64,236,94267,1,0,0:0:0:0:
64,236,94359,1,0,0:0:0:0:
64,236,94450,6,0,B|111:253|154:224|154:224|199:185|258:210,1,189.999994926453,10|0,0:0|0:0,0:0:0:0:
299,265,94999,1,8,0:0:0:0:
99,159,95182,2,0,P|108:107|124:69,1,85.0000016212464,8|0,1:0|0:0,0:0:0:0:
185,136,95548,5,0,0:0:0:0:
15,190,95731,2,0,P|3:165|-2:141,2,42.5000008106232,2|0|8,0:0|0:0|0:0,0:0:0:0:
81,244,96096,5,8,0:1:0:0:
180,258,96279,1,8,0:0:0:0:
288,207,96462,1,10,0:0:0:0:
332,73,96645,1,8,1:1:0:0:
332,73,97011,5,10,0:1:0:0:
386,305,97194,1,10,0:1:0:0:
468,142,97377,6,0,P|398:186|284:181,1,170.000003242493,12|0,0:0|0:0,0:0:0:0:
259,126,97926,1,8,0:0:0:0:
397,236,98109,2,0,P|353:157|309:201,1,170.000003242493,8|0,1:1|0:0,0:0:0:0:
232,205,98657,1,10,0:0:0:0:
232,205,98749,1,0,0:0:0:0:
232,205,98840,1,0,0:0:0:0:
286,46,99023,1,8,0:1:0:0:
232,205,99206,2,0,P|184:200|146:183,1,85.0000016212464,8|0,0:0|0:0,0:0:0:0:
62,69,99572,6,0,L|75:164,1,85.0000016212464,8|0,1:0|0:0,0:0:0:0:
96,318,99938,2,0,L|82:217,1,85.0000016212464,2|0,0:0|0:0,0:0:0:0:
10,203,100212,1,0,0:0:0:0:
10,203,100304,6,0,B|54:188|92:209|92:209|136:235|196:206,1,170.000003242493,10|0,0:0|0:0,0:0:0:0:
237,158,100852,1,8,0:0:0:0:
305,350,101035,5,8,1:1:0:0:
305,350,101401,1,2,0:0:0:0:
351,103,101584,1,8,0:1:0:0:
263,280,101767,5,10,0:0:0:0:
388,175,101950,1,8,0:1:0:0:
293,210,102133,5,8,0:0:0:0:
361,246,102316,1,10,0:0:0:0:
293,210,102499,2,0,L|191:225,1,85.0000016212464,0|0,1:0|0:0,0:0:0:0:
61,248,102865,1,8,0:0:0:0:
142,278,103048,1,2,0:0:0:0:
221,308,103231,5,12,0:0:0:0:
61,248,103413,1,0,0:0:0:0:
208,222,103596,1,8,0:0:0:0:
74,331,103779,1,0,0:0:0:0:
130,196,103962,5,8,1:1:0:0:
142,278,104145,1,0,0:0:0:0:
154,357,104328,1,2,0:0:0:0:
365,260,104511,6,0,P|299:222|203:223,1,170.000003242493,2|8,0:0|1:0,0:0:0:0:
357,157,105060,2,0,P|403:156|420:114,1,85.0000016212464,10|0,0:0|0:0,0:0:0:0:
207,221,105426,5,8,1:0:0:0:
269,160,105609,2,0,P|287:212|287:275,1,85.0000016212464,0|0,1:0|0:0,0:0:0:0:
81,333,105974,1,2,0:0:0:0:
81,333,106066,1,0,0:0:0:0:
81,333,106157,2,0,P|44:219|51:144,1,170.000003242493,12|0,0:0|0:0,0:0:0:0:
4,243,106706,1,8,0:0:0:0:
90,100,106889,2,0,P|104:60|97:-13,1,85.0000016212464,8|0,1:1|0:0,1:0:0:0:
285,108,107255,6,0,P|223:87|187:182,1,170.000003242493,2|10,0:0|0:0,0:0:0:0:
272,227,107804,1,8,0:1:0:0:
191,57,107987,1,8,0:0:0:0:
83,195,108170,1,10,0:0:0:0:
191,57,108352,2,0,L|174:207,1,127.50000243187,8|0,1:0|0:0,0:0:0:0:
176,183,108718,2,0,P|214:156|275:174,1,85.0000016212464,2|0,0:0|0:0,0:0:0:0:
501,323,109084,6,0,P|447:370|363:353,1,150,4|0,1:2|0:0,0:0:0:0:
322,184,109450,2,0,P|378:134|468:165,1,150,8|0,0:1|0:0,0:0:0:0:
381,283,109816,6,0,L|370:242,1,37.5,8|0,0:1|0:0,0:0:0:0:
442,224,110182,2,0,L|455:269,1,37.5,8|0,0:1|0:0,0:0:0:0:
277,328,110548,6,0,L|308:156,1,150,4|0,1:2|0:0,0:0:0:0:
317,192,110913,1,8,0:1:0:0:
218,203,111096,1,8,0:1:0:0:
382,251,111279,5,10,0:0:0:0:
154,143,111462,1,8,0:0:0:0:
365,117,111645,5,8,0:1:0:0:
171,276,111828,1,8,0:0:0:0:
133,41,112011,5,14,0:0:0:0:
133,41,112560,5,8,0:0:0:0:
231,104,112743,2,0,P|139:84|40:67,1,187.5,2|8,1:2|0:0,0:0:0:0:
180,183,113474,1,2,0:0:0:0:
102,290,113657,2,0,P|96:251|89:213,1,75.0000028610231,8|10,0:1|0:0,0:0:0:0:
29,349,114023,1,8,0:0:0:0:
204,291,114206,2,0,L|346:269,1,112.500004291535,8|0,0:1|0:0,0:0:0:0:
315,273,114572,2,0,P|293:242|287:206,1,75.0000028610231,2|0,0:0|0:0,0:0:0:0:
421,136,114938,5,8,0:0:0:0:
397,311,115121,1,2,0:0:0:0:
287,206,115304,1,0,0:0:0:0:
466,246,115487,1,2,0:0:0:0:
387,59,115670,2,0,L|377:208,2,150.000005722046,2|0|10,1:2|0:0|0:0,0:0:0:0:
466,246,116584,5,8,0:1:0:0:
287,206,116767,1,8,0:0:0:0:
287,206,116950,1,8,0:0:0:0:
485,161,117133,1,8,0:1:0:0:
485,161,117499,5,2,0:0:0:0:
497,74,117682,1,0,0:0:0:0:
394,187,117865,2,0,P|348:192|263:134,1,150.000005722046,12|0,0:0|0:0,0:0:0:0:
353,98,118413,1,8,0:0:0:0:
437,273,118596,1,8,1:0:0:0:
437,273,118962,2,0,P|480:262|522:265,1,75.0000028610231,2|0,0:0|0:0,0:0:0:0:
361,340,119328,5,10,0:0:0:0:
394,187,119511,1,8,0:1:0:0:
361,340,119694,2,0,P|322:346|280:329,1,75.0000028610231,8|0,0:0|0:0,0:0:0:0:
135,278,120060,1,8,0:1:0:0:
288,335,120243,1,8,0:1:0:0:
267,175,120426,1,10,0:0:0:0:
135,278,120792,5,2,0:0:0:0:
233,266,121157,1,2,0:0:0:0:
267,175,121523,1,2,0:0:0:0:
201,101,121889,1,2,0:0:0:0:
47,328,122255,6,0,P|87:292|171:284,1,112.500004291535,6|0,0:3|0:0,0:0:0:0:
143,279,122621,2,0,P|186:290|229:284,1,75.0000028610231,8|0,0:3|0:0,0:0:0:0:
230,281,122895,1,8,0:1:0:0:
240,271,122987,1,8,0:1:0:0:
129,367,123170,1,8,0:1:0:0:
334,297,123352,2,0,L|327:184,1,112.500004291535,4|0,0:3|0:0,0:0:0:0:
291,112,123718,6,0,P|326:160|400:155,1,135.000000514984,12|0,0:0|0:0,0:0:0:0:
237,187,124450,2,0,P|192:159|91:164,1,135.000000514984,8|0,0:1|0:0,0:0:0:0:
33,156,124999,1,0,0:0:0:0:
33,156,125182,2,0,L|48:228,1,67.5000002574921,8|0,0:0|0:0,0:0:0:0:
127,259,125548,1,10,0:0:0:0:
63,122,125913,6,0,L|43:240,1,101.250000386238,8|0,0:1|0:0,0:0:0:0:
45,221,126279,2,0,P|68:203|115:205,1,67.5000002574921,10|0,0:0|0:0,0:0:0:0:
183,242,126645,6,0,P|245:273|327:268,1,135.000000514984,8|0,0:0|0:0,0:0:0:0:
377,227,127194,1,2,0:0:0:0:
230,300,127377,2,0,P|272:261|318:282,1,101.250000386238,8|0,0:1|0:0,0:0:0:0:
318,288,127743,2,0,L|329:362,1,67.5000002574921,2|0,0:0|0:0,0:0:0:0:
377,227,128109,1,10,0:0:0:0:
377,227,128292,1,2,1:2:0:0:
377,227,128474,1,10,0:0:0:0:
357,381,128840,5,8,0:1:0:0:
367,303,129206,1,2,0:0:0:0:
377,227,129572,2,0,P|441:219|474:283,1,135.000000514984,8|0,0:0|0:0,0:0:0:0:
370,135,130304,2,0,P|317:166|240:169,1,135.000000514984,8|0,0:1|0:0,0:0:0:0:
161,130,130852,1,0,0:0:0:0:
161,130,131035,2,0,L|174:215,1,67.5000002574921,8|8,0:0|0:1,0:0:0:0:
233,250,131401,1,10,0:0:0:0:
182,96,131767,6,0,L|171:196,1,101.250000386238,8|0,0:1|0:0,0:0:0:0:
170,196,132133,2,0,P|149:177|106:170,1,67.5000002574921,10|0,0:0|0:0,0:0:0:0:
120,261,132499,6,0,P|194:230|263:238,1,135.000000514984,8|0,0:0|0:0,0:0:0:0:
391,301,133231,2,0,P|425:363|480:334,1,135.000000514984,8|0,0:1|0:0,0:0:0:0:
391,220,133779,1,0,0:0:0:0:
322,258,133962,2,0,P|279:272|233:268,1,67.5000002574921,8|0,0:0|0:0,0:0:0:0:
146,169,134328,2,0,P|222:195|287:189,1,135.000000514984,8|8,0:0|0:1,0:0:0:0:
275,191,135060,2,0,L|264:109,1,67.5000002574921,2|0,0:0|0:0,0:0:0:0:
82,75,135426,5,8,0:0:0:0:
161,77,135609,1,0,0:0:0:0:
233,55,135792,1,2,0:0:0:0:
82,75,135974,5,0,0:0:0:0:
134,92,136157,1,8,0:1:0:0:
187,83,136340,1,2,0:0:0:0:
82,75,136523,5,0,0:0:0:0:
115,97,136706,1,0,0:0:0:0:
152,98,136889,1,10,0:0:0:0:
82,75,137072,5,0,0:0:0:0:
105,96,137255,1,8,0:0:0:0:
134,103,137438,1,2,0:0:0:0:
82,75,137621,5,8,0:1:0:0:
93,84,137804,1,0,0:0:0:0:
107,87,137987,1,10,0:0:0:0:
172,299,138352,5,8,0:0:0:0:
197,293,138535,1,0,0:0:0:0:
207,274,138718,1,2,0:0:0:0:
172,299,138901,5,0,0:0:0:0:
207,274,139084,1,8,0:1:0:0:
248,281,139267,1,8,0:0:0:0:
172,299,139450,5,2,0:0:0:0:
248,281,139633,1,0,0:0:0:0:
296,213,139816,1,0,0:0:0:0:
172,299,139999,5,10,0:0:0:0:
296,213,140182,1,8,0:0:0:0:
434,261,140365,1,2,0:0:0:0:
366,305,140548,5,8,0:1:0:0:
366,305,140731,1,0,0:0:0:0:
366,305,140913,1,2,0:0:0:0:
507,273,141279,5,8,0:0:0:0:
434,261,141462,1,0,0:0:0:0:
383,205,141645,1,2,0:0:0:0:
315,236,141828,1,0,0:0:0:0:
243,213,142011,1,8,0:1:0:0:
216,140,142194,1,2,0:0:0:0:
166,198,142377,1,0,0:0:0:0:
92,212,142560,1,0,0:0:0:0:
25,174,142743,2,0,P|48:108|56:35,1,135.000000514984,10|8,0:0|0:0,0:0:0:0:
37,166,143474,6,0,P|47:217|42:261,1,67.5000002574921,8|0,0:1|0:0,0:0:0:0:
179,273,143840,2,0,P|149:262|101:340,1,135.000000514984,10|8,0:0|0:0,0:0:0:0:
321,28,144572,6,0,P|300:76|317:131,1,101.250000386238,10|0,0:0|0:0,0:0:0:0:
300,139,144938,2,0,L|404:129,1,101.250000386238,14|0,0:0|0:0,0:0:0:0:
418,141,145304,2,0,P|439:189|422:244,1,101.250000386238,10|0,0:0|0:0,0:0:0:0:
414,248,145670,2,0,P|393:296|410:351,1,101.250000386238,10|0,0:0|0:0,0:0:0:0:
421,335,146035,2,0,L|301:326,1,101.250000386238,10|0,0:0|0:0,0:0:0:0:
309,311,146401,2,0,L|189:302,1,101.250000386238,14|0,0:0|0:0,0:0:0:0:
208,303,146767,2,0,L|222:371,1,67.5000002574921,10|0,0:0|0:0,0:0:0:0:
292,165,147133,5,12,0:0:0:0:
259,277,147316,1,2,0:0:0:0:
163,296,147499,1,8,0:1:0:0:
117,225,147682,1,2,0:0:0:0:
136,178,147865,1,8,0:3:0:0:
159,169,148048,1,2,0:0:0:0:
172,173,148231,6,0,L|181:222,1,50,14|0,0:0|0:0,0:0:0:0:
181,222,148779,1,8,0:0:0:0:
245,57,148962,6,0,P|246:103|239:144,1,72.5000022125245,8|0,0:1|0:0,0:0:0:0:
172,173,149237,1,8,0:0:0:0:
172,173,149328,2,0,P|126:165|97:151,1,72.5000022125245,8|0,0:1|0:0,0:0:0:0:
377,287,149694,6,0,L|370:255,1,25,8|0,0:3|0:0,0:0:0:0:
396,189,149968,1,8,0:0:0:0:
396,189,150060,6,0,L|383:369,1,170.000003242493,4|0,0:0|0:0,0:0:0:0:
482,253,150609,1,8,0:0:0:0:
299,366,150792,2,0,L|391:357,1,85.0000016212464,8|0,1:0|0:0,0:0:0:0:
185,329,151157,2,0,P|165:297|169:234,1,85.0000016212464,2|0,0:0|0:0,0:0:0:0:
170,236,151432,1,0,0:0:0:0:
180,224,151523,1,2,0:0:0:0:
299,366,151706,5,8,0:1:0:0:
81,316,151889,1,8,0:0:0:0:
264,268,152072,1,8,0:0:0:0:
81,316,152255,5,8,1:0:0:0:
185,329,152621,1,8,0:0:0:0:
264,268,152987,2,0,B|272:211|287:145|287:145|267:163|231:163,1,170.000003242493,10|0,0:0|0:0,0:0:0:0:
233,72,153535,1,8,0:0:0:0:
368,220,153718,2,0,P|448:230|516:164,1,170.000003242493,8|2,1:0|0:0,0:0:0:0:
287,145,154267,1,2,0:0:0:0:
281,160,154359,1,0,0:0:0:0:
281,176,154450,1,10,0:0:0:0:
368,220,154633,5,8,0:1:0:0:
379,129,154816,1,8,0:0:0:0:
321,59,154999,1,8,0:0:0:0:
233,72,155182,1,8,1:0:0:0:
232,71,155548,2,0,P|190:70|143:45,1,85.0000016212464,2|0,0:0|0:0,0:0:0:0:
76,8,155822,1,0,0:0:0:0:
91,0,155913,6,0,P|140:67|120:174,1,170.000003242493,12|0,0:0|0:0,0:0:0:0:
0,234,156462,1,8,0:0:0:0:
54,94,156645,1,8,1:0:0:0:
218,141,156828,2,0,L|134:150,1,85.0000016212464,2|0,0:0|0:0,0:0:0:0:
292,240,157194,5,2,0:0:0:0:
295,224,157285,1,0,0:0:0:0:
298,208,157377,1,8,0:0:0:0:
200,295,157560,5,8,0:1:0:0:
388,238,157743,1,8,0:0:0:0:
218,141,157926,1,8,0:0:0:0:
280,353,158109,1,8,1:0:0:0:
280,353,158474,1,2,0:0:0:0:
442,301,158657,1,0,0:0:0:0:
442,301,158749,1,0,0:0:0:0:
442,301,158840,6,0,B|387:285|328:276|328:276|361:290|372:338,1,170.000003242493,10|0,0:0|0:0,0:0:0:0:
280,353,159389,1,8,0:0:0:0:
329,161,159572,2,0,B|351:176|362:195|362:195|366:237|337:279,1,127.50000243187,4|0,1:2|0:0,0:0:0:0:
328,277,159938,1,2,0:0:0:0:
249,119,160121,5,2,0:0:0:0:
256,104,160212,1,0,0:0:0:0:
268,92,160304,1,10,0:0:0:0:
251,208,160487,5,8,0:1:0:0:
181,47,160670,1,10,0:0:0:0:
361,76,160852,1,8,0:0:0:0:
101,170,161035,1,2,1:2:0:0:
402,275,161401,5,10,0:1:0:0:
329,161,161584,1,10,0:1:0:0:
241,311,161767,6,0,L|421:293,1,170.000003242493,12|0,0:0|0:0,0:0:0:0:
232,331,162316,1,8,0:0:0:0:
471,350,162499,2,0,B|444:302|444:302|464:181,1,170.000003242493,4|0,1:2|0:0,0:0:0:0:
478,102,163048,5,10,0:0:0:0:
494,104,163139,1,0,0:0:0:0:
507,113,163231,1,0,0:0:0:0:
362,8,163413,1,8,0:1:0:0:
275,108,163596,2,0,L|364:93,1,85.0000016212464,8|0,0:0|0:0,0:0:0:0:
507,113,163962,6,0,P|503:76|518:17,1,85.0000016212464,8|0,1:0|0:0,0:0:0:0:
357,178,164328,2,0,P|376:210|380:259,1,85.0000016212464,2|0,0:0|0:0,0:0:0:0:
313,297,164602,1,0,0:0:0:0:
313,297,164694,6,0,P|397:284|496:271,1,170.000003242493,10|0,0:0|0:0,0:0:0:0:
240,241,165243,1,8,0:0:0:0:
337,384,165426,1,8,1:0:0:0:
337,384,165792,2,0,P|381:377|425:373,1,85.0000016212464,2|0,0:0|0:0,0:0:0:0:
240,241,166157,5,10,0:0:0:0:
155,325,166340,2,0,P|201:328|253:334,1,85.0000016212464,8|0,0:1|0:0,0:0:0:0:
337,384,166706,5,10,0:0:0:0:
83,357,166889,2,0,P|168:345|257:334,1,170.000003242493,8|0,1:1|0:0,0:0:0:0:
337,384,167438,1,2,0:0:0:0:
415,160,167621,5,12,0:0:0:0:
427,244,167804,1,0,0:0:0:0:
440,327,167987,1,0,0:0:0:0:
349,212,168170,1,8,0:0:0:0:
494,191,168352,5,8,1:0:0:0:
427,244,168535,1,0,0:0:0:0:
360,296,168718,1,2,0:0:0:0:
196,274,168901,6,0,L|281:263,1,85.0000016212464,0|10,0:0|0:0,0:0:0:0:
427,244,169267,1,0,0:1:0:0:
372,380,169450,2,0,L|360:296,1,85.0000016212464,10|8,0:0|0:0,0:0:0:0:
494,191,169816,6,0,P|510:121|465:55,1,127.50000243187,8|0,1:0|0:0,0:0:0:0:
469,53,170182,2,0,L|384:58,1,85.0000016212464,2|0,0:0|0:0,0:0:0:0:
202,176,170548,6,0,B|254:176|289:124|289:124|299:144|322:152,1,150,12|0,0:0|0:0,0:0:0:0:
413,142,170913,6,0,L|316:147,1,75.0000028610231,4|8,0:3|0:0,0:0:0:0:
205,86,171279,2,0,L|201:11,1,75.0000028610231,4|8,0:3|0:0,0:0:0:0:
306,237,171645,1,12,0:0:0:0:
306,237,172011,6,0,L|246:241,1,50,4|8,0:3|0:0,0:0:0:0:
194,300,172377,2,0,L|144:294,1,50,4|8,0:3|0:0,0:0:0:0:
51,237,172743,6,0,P|56:274|60:311,1,75.0000028610231,12|4,0:3|0:3,0:0:0:0:
411,97,173474,5,12,0:0:0:0:
411,97,174206,1,2,0:0:0:0:
411,97,174938,5,2,0:0:0:0:
352,152,175304,1,0,0:0:0:0:
274,160,175670,1,0,0:0:0:0:
204,124,176035,1,0,0:0:0:0:
184,47,176401,1,2,0:0:0:0:
184,47,177133,5,2,0:0:0:0:
169,195,177499,1,0,0:0:0:0:
155,345,177865,1,2,0:0:0:0:
155,345,178596,5,0,0:0:0:0:
163,267,178962,1,0,0:0:0:0:
169,195,179328,1,0,0:0:0:0:
158,200,179694,5,2,0:0:0:0:
158,200,180974,5,0,0:0:0:0:
218,283,181157,2,0,P|222:258|224:234,1,40
299,141,181523,6,0,P|300:181|311:215,1,59.9999981689454,2|0,0:0|0:0,0:0:0:0:
392,347,181889,6,0,P|407:295|407:251,1,80
331,288,182255,5,2,0:0:0:0:
331,288,182987,1,2,0:0:0:0:
405,306,183352,1,0,0:0:0:0:
331,288,183718,1,2,0:0:0:0:
134,67,184450,6,0,L|117:182,1,80
122,146,184816,6,0,L|116:117,1,25,2|0,0:0|0:0,0:0:0:0:
41,235,185182,6,0,P|95:230|106:292,1,120,2|0,0:0|0:0,0:0:0:0:
194,209,185915,1,2,0:0:0:0:
41,235,186649,2,0,P|125:238|203:204,1,160,2|0,0:0|0:0,0:0:0:0:
194,209,187750,2,0,L|188:156,1,40,2|0,0:0|0:0,0:0:0:0:
214,51,188117,5,2,0:0:0:0:
290,35,188484,1,0,0:0:0:0:
362,58,188851,1,0,0:0:0:0:
409,119,189218,1,2,0:0:0:0:
408,197,189585,1,0,0:0:0:0:
408,197,190323,1,2,0:0:0:0:
408,197,191066,2,0,B|363:241|286:223|270:174|270:174|313:181,1,200,2|0,0:0|0:0,0:0:0:0:
235,256,192177,1,0,0:0:0:0:
408,197,192547,6,0,P|351:191|230:265,1,194.999991073609,2|0,0:0|0:0,0:0:0:0:
235,256,193859,1,0,0:0:0:0:
259,178,194047,6,0,L|241:57,1,120,2|0,0:0|0:0,0:0:0:0:
241,59,196696,1,0,0:0:0:0:
168,139,197075,6,0,L|75:132,1,80,2|0,0:0|0:0,0:0:0:0:
259,178,197815,1,0,0:0:0:0:
125,221,198186,2,0,L|121:273,1,40,2|0,0:0|0:0,0:0:0:0:
176,323,198556,2,0,P|218:311|261:316,2,80,2|0|0,0:0|0:0|0:0,0:0:0:0:
316,372,199667,2,0,P|341:371|371:362,1,40,2|0,0:0|0:0,0:0:0:0:
424,320,200037,5,2,0:0:0:0:
440,241,200408,1,0,0:0:0:0:
389,179,200778,1,0,0:0:0:0:
370,101,201149,1,0,0:0:0:0:
405,29,201519,5,0,0:0:0:0:
370,101,201889,1,0,0:0:0:0:
389,179,202260,1,0,0:0:0:0:
351,249,202630,1,0,0:0:0:0:
272,263,203000,6,0,L|177:257,1,80,2|0,0:0|0:0,0:0:0:0:
51,308,203741,2,0,L|136:314,1,80
272,263,204482,5,2,0:0:0:0:
192,257,204852,1,0,0:0:0:0:
130,313,205223,1,0,0:0:0:0:
51,308,205593,2,0,P|30:301|12:287,1,40,2|0,0:0|0:0,0:0:0:0:
5,210,205963,5,2,0:0:0:0:
57,149,206334,1,0,0:0:0:0:
57,149,207075,1,0,0:0:0:0:
134,166,207445,2,0,B|233:179|194:114|297:133,1,160,2|0,0:0|0:0,0:0:0:0:
284,130,208561,1,0,0:0:0:0:
355,178,208936,6,0,L|451:168,1,80
465,254,209676,2,0,L|370:263,1,80,2|0,0:0|0:0,0:0:0:0:
286,324,210417,2,0,P|285:284|303:249,2,80,2|0|0,0:0|0:0|0:0,0:0:0:0:
385,261,211528,2,0,P|385:237|375:210,1,40,2|0,0:0|0:0,0:0:0:0:
320,167,211898,6,0,L|324:70,1,80,2|0,0:0|0:0,0:0:0:0:
434,2,212639,1,2,0:0:0:0:
402,75,213010,1,0,0:0:0:0:
323,87,213380,2,0,P|259:56|169:78,1,160,2|0,0:0|0:0,0:0:0:0:
174,73,214495,6,0,L|165:131,1,40
107,166,214861,2,0,L|114:222,1,40,2|0,0:0|0:0,0:0:0:0:
176,254,215226,2,0,L|165:339,1,80
165,333,216141,5,0,0:0:0:0:
238,366,216324,2,0,L|287:360,1,40,2|0,0:0|0:0,0:0:0:0:
353,384,216690,6,0,P|305:343|327:256,1,162.499992561341
406,230,217787,2,0,L|409:274,1,32.4999985122681,2|0,0:0|0:0,0:0:0:0:
490,278,218153,6,0,L|482:196,1,80
482,198,219883,1,0,0:0:0:0:
440,135,220065,6,0,P|411:135|380:149,1,50,2|0,0:0|0:0,0:0:0:0:
334,200,220430,2,0,P|304:198|275:187,1,50
220,138,220794,6,0,B|185:128|149:157|149:157|84:210|30:147|64:95|94:94,1,240,2|0,0:0|0:0,0:0:0:0:
205,214,222257,6,0,B|235:216|255:233|255:233|284:202|327:205|354:229|354:229|384:253|427:239,1,240,2|0,0:0|0:0,0:0:0:0:
204,293,223720,6,0,P|139:351|145:247,1,240,2|0,0:0|0:0,0:0:0:0:
282,322,225184,5,0,0:0:0:0:
283,309,225550,1,0,0:0:0:0:
284,297,225915,1,2,0:0:0:0:
109,47,226647,6,0,L|120:221,1,160,2|0,0:0|0:0,0:0:0:0:
142,98,228119,6,0,L|118:214,1,110.000003356934,2|0,0:0|0:0,0:0:0:0:
154,170,229606,6,0,L|118:209,1,50,2|0,0:0|0:0,0:0:0:0:
146,204,231084,5,0,0:0:0:0:
133,205,231454,1,0,0:0:0:0:
121,206,231825,1,2,0:0:0:0:
46,184,232195,5,2,0:0:0:0:
103,129,232380,1,0,0:0:0:0:
177,151,232565,1,2,0:0:0:0:
177,151,233301,1,0,0:0:0:0:
412,320,234037,6,0,P|430:280|418:236,1,80,2|0,0:0|0:0,0:0:0:0:
338,330,234773,2,0,P|381:325|413:293,1,80,2|0,0:0|0:0,0:0:0:0:
289,270,235509,5,2,0:0:0:0:
338,330,235877,1,0,0:0:0:0:
408,302,236245,1,0,0:0:0:0:
405,225,236614,1,0,0:0:0:0:
332,208,236982,1,2,0:0:0:0:
289,270,237350,1,0,0:0:0:0:
33,71,238454,5,2,0:0:0:0:
97,332,239935,5,2,0:0:0:0:
97,332,240676,2,0,L|102:276,1,50
68,210,241231,1,2,0:0:0:0:
116,143,241411,6,0,L|223:153,1,80
359,171,242142,1,2,0:0:0:0:
236,72,242508,1,0,0:0:0:0:
328,3,242874,2,0,L|319:114,1,100,2|0,0:0|0:0,0:0:0:0:
359,171,243423,1,8,0:3:0:0:
436,149,243606,1,12,0:3:0:0:
236,72,243971,1,8,0:3:0:0:
245,370,244337,6,0,P|323:315|425:334,1,200,12|0,0:0|0:0,0:0:0:0:
421,331,245252,1,0,0:0:0:0:
486,275,245435,2,0,L|491:220,1,50,2|0,0:0|0:0,0:0:0:0:
441,156,245801,1,2,0:0:0:0:
440,155,246167,2,0,P|407:171|361:168,1,75,12|0,0:0|0:0,0:0:0:0:
369,171,246532,2,0,P|360:140|352:119,1,50,2|12,0:0|0:3,0:0:0:0:
285,44,246898,2,0,P|277:73|265:102,1,50,2|0,0:0|0:0,0:0:0:0:
193,130,247264,5,12,0:0:0:0:
120,96,247630,1,8,0:0:0:0:
51,136,247996,1,8,0:0:0:0:
47,215,248362,1,8,0:0:0:0:
193,130,248728,5,8,0:1:0:0:
51,136,249093,1,8,0:1:0:0:
234,225,249459,1,8,0:1:0:0:
290,30,249825,1,8,0:1:0:0:
57,209,250191,6,0,P|28:297|80:201,1,400,12|2,0:0|0:0,0:0:0:0:
91,269,252385,6,0,L|105:163,1,100,2|0,0:0|0:0,0:0:0:0:
104,169,252934,1,0,0:0:0:0:
171,126,253117,2,0,L|156:18,1,100,2|0,0:0|0:0,0:0:0:0:
91,269,253666,5,8,0:0:0:0:
91,269,253757,1,8,0:0:0:0:
91,269,253849,2,0,L|105:163,1,101.500003097534,6|0,0:0|0:0,0:0:0:0:
18,212,254580,6,0,B|59:200|95:221|95:221|143:253|191:225,1,170.000003242493,12|0,0:0|0:0,0:0:0:0:
48,287,255129,1,8,0:0:0:0:
206,118,255312,2,0,P|156:152|110:132,1,85.0000016212464,8|0,0:1|0:0,0:0:0:0:
80,87,255678,1,2,0:0:0:0:
98,223,255861,1,2,0:0:0:0:
62,202,255952,1,0,0:0:0:0:
53,163,256044,1,0,0:0:0:0:
264,84,256227,5,8,0:1:0:0:
188,293,256410,1,2,0:1:0:0:
134,148,256593,1,0,0:0:0:0:
370,274,256775,5,10,0:1:0:0:
158,220,256958,1,0,0:0:0:0:
322,132,257141,5,2,0:1:0:0:
82,207,257324,1,2,0:0:0:0:
265,337,257507,6,0,P|243:277|248:161,1,170.000003242493,14|0,0:0|0:0,0:0:0:0:
282,102,258056,1,8,0:0:0:0:
265,337,258239,1,8,0:1:0:0:
265,337,258422,2,0,P|277:304|279:238,1,85.0000016212464,2|0,0:0|0:0,0:0:0:0:
234,33,258788,5,2,0:0:0:0:
234,33,258879,1,0,0:0:0:0:
234,33,258971,1,8,0:0:0:0:
437,108,259154,1,10,0:1:0:0:
250,143,259336,1,8,0:0:0:0:
408,9,259519,1,10,0:0:0:0:
351,162,259702,2,0,P|338:123|335:78,1,85.0000016212464,2|0,1:0|0:1,0:1:0:0:
423,105,260068,5,2,0:0:0:0:
255,137,260251,1,2,0:0:0:0:
460,327,260434,5,10,0:0:0:0:
381,344,260616,1,2,0:0:0:0:
318,294,260800,1,0,0:0:0:0:
318,213,260982,1,10,0:0:0:0:
381,163,261166,1,8,0:1:0:0:
460,181,261349,1,0,0:0:0:0:
495,254,261532,1,2,0:0:0:0:
204,317,261714,5,10,0:1:0:0:
204,317,262080,1,8,0:0:0:0:
403,253,262263,1,10,0:1:0:0:
217,146,262446,1,2,0:0:0:0:
310,382,262629,1,8,0:0:0:0:
494,253,262812,1,10,0:0:0:0:
476,199,262904,1,8,0:0:0:0:
431,167,262995,1,8,0:1:0:0:
375,167,263086,1,8,0:1:0:0:
330,199,263178,1,8,0:1:0:0:
313,252,263269,1,8,0:1:0:0:
329,305,263361,6,0,L|429:278,1,85.0000016212464,12|0,0:0|0:0,0:0:0:0:
162,143,263727,2,0,P|188:174|182:215,1,85.0000016212464,8|0,0:0|0:0,0:0:0:0:
252,357,264093,2,0,P|252:267|282:174,1,170.000003242493,8|2,0:1|0:0,0:0:0:0:
168,294,264641,1,2,0:0:0:0:
168,294,264733,1,0,0:0:0:0:
168,294,264824,1,8,0:0:0:0:
324,128,265007,2,0,P|316:75|300:39,1,85.0000016212464,8|0,0:1|0:0,0:0:0:0:
243,106,265373,1,10,0:0:0:0:
406,310,265556,6,0,P|441:311|467:252,1,85.0000016212464,8|0,0:1|0:0,0:0:0:0:
406,163,265922,1,2,0:0:0:0:
441,241,266105,1,0,0:0:0:0:
455,260,266196,1,0,0:0:0:0:
469,274,266288,2,0,P|381:239|296:250,1,170.000003242493,10|0,0:0|0:0,0:0:0:0:
380,110,266836,5,8,0:0:0:0:
430,170,267019,2,0,P|464:176|503:136,1,85.0000016212464,8|0,0:1|0:0,0:0:0:0:
303,224,267385,5,2,0:0:0:0:
500,145,267568,1,2,0:0:0:0:
229,125,267751,5,8,0:0:0:0:
464,222,267934,1,8,0:1:0:0:
187,238,268117,5,8,0:0:0:0:
418,154,268300,1,10,0:0:0:0:
187,238,268483,2,0,P|263:236|362:290,1,170.000003242493,8|0,0:1|0:0,0:0:0:0:
346,275,269032,1,0,0:0:0:0:
108,268,269214,5,12,0:0:0:0:
268,208,269396,1,0,0:0:0:0:
121,182,269579,1,8,0:0:0:0:
255,291,269762,1,0,0:0:0:0:
199,156,269945,5,8,1:1:0:0:
187,238,270128,1,0,0:0:0:0:
175,317,270311,1,2,0:0:0:0:
346,251,270495,6,0,P|316:177|318:58,1,170.000003242493,0|8,0:0|0:1,0:0:0:0:
200,249,271044,2,0,P|253:254|264:301,1,85.0000016212464,2|0,0:0|0:0,0:0:0:0:
131,305,271410,1,2,1:2:0:0:
131,305,271593,1,8,0:1:0:0:
265,278,271775,2,0,P|212:273|201:226,1,85.0000016212464,2|0,0:0|0:0,0:0:0:0:
277,84,272141,5,12,0:0:0:0:
327,148,272324,2,0,P|349:236|341:323,1,170.000003242493,8|0,0:1|0:0,0:0:0:0:
230,350,272873,5,8,0:1:0:0:
246,157,273056,1,8,0:1:0:0:
174,290,273239,5,2,0:0:0:0:
246,157,273422,1,8,0:1:0:0:
156,211,273605,5,2,0:0:0:0:
246,157,273788,1,8,0:1:0:0:
170,134,273971,5,2,0:0:0:0:
246,157,274154,1,8,0:1:0:0:
79,104,274336,5,8,0:1:0:0:
236,54,274519,1,8,0:1:0:0:
339,187,274702,1,10,0:0:0:0:
180,233,274885,1,0,0:0:0:0:
79,104,275068,6,0,P|166:150|267:149,1,170.000003242493,12|0,0:0|0:0,0:0:0:0:
236,154,275617,1,8,0:0:0:0:
210,236,275800,6,0,P|293:218|344:172,1,129.999994049073,8|0,1:0|0:0,0:0:0:0:
387,248,276349,6,0,P|409:188|405:142,1,89.9999972534181,14|0,0:0|0:0,0:0:0:0:
344,114,276897,1,8,0:1:0:0:
344,114,277080,1,0,0:0:0:0:
193,220,277263,5,8,1:0:0:0:
115,213,277446,1,8,0:0:0:0:
39,204,277629,1,12,0:3:0:0:
42,209,277995,6,0,P|123:181|68:278,1,255.000004863739,12|0,0:0|0:0,0:0:0:0:
81,283,278635,1,8,0:0:0:0:
81,283,278727,5,8,0:0:0:0:
163,291,278910,1,8,0:0:0:0:
238,321,279093,1,8,0:0:0:0:
302,369,279275,2,0,P|377:326|472:326,1,170.000003242493,4|0,0:0|0:0,0:0:0:0:
303,256,279824,2,0,P|250:289|248:204,2,170.000003242493,8|4|4,0:1|0:3|0:3,0:0:0:0:
50,74,280922,5,12,0:0:0:0:
126,88,281288,1,8,0:0:0:0:
152,160,281654,1,8,0:0:0:0:
103,218,282020,1,8,0:0:0:0:
27,205,282385,1,8,0:0:0:0:
1,133,282751,1,10,0:0:0:0:
313,182,282934,5,8,0:0:0:0:
313,182,283025,1,8,0:0:0:0:
313,182,283117,1,8,0:1:0:0:
218,213,283300,1,0,0:0:0:0:
218,313,283483,1,10,0:0:0:0:
313,343,283666,1,0,0:0:0:0:
370,262,283849,1,12,0:0:0:0:
68,354,284397,5,8,0:0:0:0:
136,297,284580,2,0,L|129:160,1,112.500004291535,8|0,1:1|0:0,0:0:0:0:
135,160,284946,2,0,P|166:189|217:188,1,75.0000028610231,2|0,0:0|0:0,0:0:0:0:
58,30,285312,5,10,0:0:0:0:
58,30,285495,2,0,L|59:116,1,75.0000028610231,8|8,0:1|0:0,0:0:0:0:
211,105,285861,1,8,0:0:0:0:
211,105,286044,2,0,P|250:99|280:79,1,75.0000028610231,10|0,1:1|0:0,0:0:0:0:
107,233,286410,2,0,P|69:235|35:249,1,75.0000028610231,2|0,0:0|0:0,0:0:0:0:
204,342,286775,6,0,L|197:193,1,150.000005722046,10|0,0:0|0:0,0:0:0:0:
196,192,287324,1,8,0:0:0:0:
308,319,287507,2,0,P|359:327|421:286,1,112.500004291535,10|0,1:1|0:0,0:0:0:0:
425,280,287873,2,0,P|468:270|507:282,1,75.0000028610231,2|0,0:0|0:0,0:0:0:0:
204,342,288239,5,10,0:0:0:0:
345,232,288422,1,8,0:1:0:0:
196,192,288605,1,8,0:0:0:0:
308,319,288788,1,8,0:0:0:0:
437,110,288971,2,0,L|432:226,1,112.500004291535,10|0,1:1|0:0,0:0:0:0:
416,234,289336,2,0,P|376:242|332:222,1,75.0000028610231,2|0,0:0|0:0,0:0:0:0:
115,164,289702,6,0,L|283:147,1,150.000005722046,12|0,0:0|0:0,0:0:0:0:
264,148,290251,1,8,0:0:0:0:
65,86,290434,2,0,P|23:141|46:232,2,150.000005722046,10|0|10,1:0|0:0|0:0,0:0:0:0:
240,225,291349,5,8,0:1:0:0:
115,164,291532,2,0,L|214:154,1,75.0000028610231,8|8,0:0|0:0,0:0:0:0:
430,209,291897,2,0,P|375:224|310:195,1,112.500004291535,10|0,1:0|0:0,0:0:0:0:
315,184,292263,2,0,L|321:105,1,75.0000028610231,2|0,0:0|0:0,0:0:0:0:
182,5,292629,5,2,0:0:0:0:
182,5,292995,5,2,0:0:0:0:
132,79,293178,1,0,0:0:0:0:
151,166,293361,1,10,1:0:0:0:
223,220,293544,1,2,0:0:0:0:
311,203,293727,1,2,0:0:0:0:
242,132,293910,1,0,0:0:0:0:
151,166,294093,5,10,0:0:0:0:
311,203,294275,1,8,0:1:0:0:
135,253,294458,1,10,0:0:0:0:
294,292,294641,1,10,0:0:0:0:
242,132,294824,1,10,1:0:0:0:
242,132,295190,5,8,0:1:0:0:
205,324,295373,1,8,0:1:0:0:
65,198,295556,6,0,P|60:128|49:36,1,150.000005722046,12|0,0:0|0:0,0:0:0:0:
50,48,296105,1,8,0:0:0:0:
0,268,296288,2,0,P|66:234|146:249,1,150.000005722046,10|0,1:0|0:0,0:0:0:0:
138,245,296836,1,8,0:0:0:0:
314,143,297019,5,10,0:0:0:0:
314,143,297202,2,0,P|272:143|235:128,1,75.0000028610231,8|0,0:1|0:0,0:0:0:0:
210,321,297568,1,8,0:0:0:0:
210,321,297751,2,0,P|233:280|235:232,1,75.0000028610231,10|0,1:0|0:0,0:0:0:0:
58,84,298117,2,0,P|100:100|149:97,1,75.0000028610231,2|0,0:0|0:0,0:0:0:0:
156,79,298391,1,8,0:0:0:0:
156,79,298483,6,0,P|215:43|308:68,1,150.000005722046,8|0,0:0|0:0,0:0:0:0:
472,121,299032,1,8,0:0:0:0:
364,225,299214,2,0,L|374:105,1,112.500004291535,10|0,1:0|0:0,0:0:0:0:
385,94,299580,2,0,P|390:49|379:13,1,75.0000028610231,2|0,0:0|0:0,0:0:0:0:
274,161,299946,5,8,0:0:0:0:
472,121,300129,1,8,0:1:0:0:
291,55,300312,1,8,0:0:0:0:
462,224,300495,1,8,0:0:0:0:
373,112,300678,2,0,B|334:231|434:212|373:345,1,225.000008583069,10|8,1:0|0:0,0:0:0:0:
143,276,301410,6,0,L|298:267,1,150.000005722046,12|0,0:0|0:0,0:0:0:0:
292,267,301958,1,8,0:0:0:0:
379,328,302141,2,0,P|471:337|514:305,2,150.000005722046,10|0|8,1:0|0:0|0:0,0:0:0:0:
219,204,303056,5,8,0:1:0:0:
282,341,303239,2,0,L|292:264,1,75.0000028610231,8|8,0:0|0:0,0:0:0:0:
259,109,303605,2,0,B|213:189|149:193|149:193|107:170|115:115,1,225.000008583069,10|0,1:0|0:0,0:0:0:0:
90,5,304336,6,0,P|14:29|36:94,1,150.000005722046,12|0,0:0|0:0,0:0:0:0:
23,84,304885,1,8,0:0:0:0:
206,29,305068,2,0,L|323:20,1,112.500004291535,10|0,1:0|0:0,0:0:0:0:
337,26,305434,2,0,P|315:67|317:110,1,75.0000028610231,2|0,0:0|0:0,0:0:0:0:
420,230,305800,5,8,0:0:0:0:
452,154,305983,1,8,0:1:0:0:
411,82,306166,1,8,0:0:0:0:
419,250,306532,5,8,0:1:0:0:
469,155,306714,1,8,0:1:0:0:
417,61,306897,1,8,0:0:0:0:
418,267,307269,5,2,0:0:0:0:
418,267,309076,1,0,0:0:0:0:
387,182,309437,2,0,P|390:145|399:108,1,75.0000028610231,2|0,0:0|0:0,0:0:0:0:
307,119,310173,5,2,0:0:0:0:
307,119,312381,1,0,0:0:0:0:
175,156,313117,6,0,P|250:162|308:116,1,150.000005722046,2|0,0:0|0:0,0:0:0:0:
306,118,314655,2,0,P|218:80|176:158,1,200,2|2,0:0|0:0,0:0:0:0:
256,192,317760,5,2,0:0:0:0:
256,192,317868,12,0,324667,0:0:0:0:
