osu file format v14

[General]
AudioFilename: audio.mp3
AudioLeadIn: 0
PreviewTime: 170428
Countdown: 0
SampleSet: Soft
StackLeniency: 0.2
Mode: 0
LetterboxInBreaks: 0
WidescreenStoryboard: 0

[Editor]
Bookmarks: 123352,123419,123486,127638,127705,127772
DistanceSpacing: 0.2
BeatDivisor: 4
GridSize: 32
TimelineZoom: 5.000003

[Metadata]
Title:Mermaid
TitleUnicode:マーメイド
Artist:monaca:factory feat. GEM
ArtistUnicode:monaca:factory feat. ジェム
Creator:cherrymeii
Version:kodoku's Umiyuri
Source:
Tags:anishina kodoku tatemae honne kyrian blastthekidd 0ppinosu yukic utaite cover vocaloid mars on the water planetary plate gumi japanese pop
BeatmapID:3338157
BeatmapSetID:1429665

[Difficulty]
HPDrainRate:5
CircleSize:4
OverallDifficulty:8
ApproachRate:9.6
SliderMultiplier:1.78
SliderTickRate:1

[Events]
//Background and Video events
0,0,"pgirl.jpg",0,0
//Break Periods
2,117124,122616
2,123686,127102
//Storyboard Layer 0 (Background)
//Storyboard Layer 1 (Fail)
//Storyboard Layer 2 (Pass)
//Storyboard Layer 3 (Foreground)
//Storyboard Layer 4 (Overlay)
//Storyboard Sound Samples

[TimingPoints]
1210,267.857142857143,4,2,0,60,1,0
9646,-100,4,2,1,60,0,0
11522,-200,4,2,2,60,0,0
11923,-100,4,2,1,60,0,0
13464,-40,4,2,1,60,0,0
13798,-100,4,2,1,60,0,0
15137,-100,4,2,2,60,0,0
15673,-55.5555555555556,4,2,1,60,0,0
15807,-200,4,2,1,60,0,0
15941,-66.6666666666667,4,2,1,60,0,0
16209,-100,4,2,1,60,0,0
17281,-1000,4,2,1,60,0,0
18352,-100,4,2,1,60,0,0
19825,-66.6666666666667,4,2,1,60,0,0
19892,-66.6666666666667,4,2,1,60,0,0
20093,-133.333333333333,4,2,1,60,0,0
20227,-100,4,2,1,60,0,0
22102,-50,4,2,1,60,0,0
22370,-100,4,2,1,60,0,0
23709,-1000,4,2,2,60,0,0
24781,-100,4,2,1,60,0,0
25316,-83.3333333333333,4,2,2,60,0,0
25717,-83.3333333333333,4,2,1,60,0,0
26120,-100,4,2,1,55,0,0
26923,-500,4,2,1,60,0,0
33352,-250,4,2,1,60,0,0
33888,-166.666666666667,4,2,1,60,0,0
34289,-125,4,2,1,60,0,0
35495,-500,4,2,1,60,0,0
36231,-66.6666666666667,4,2,1,60,0,0
36432,-200,4,2,1,60,0,0
36700,-66.6666666666667,4,2,1,60,0,0
36901,-66.6666666666667,4,2,1,60,0,0
37035,-500,4,2,1,60,0,0
39781,-250,4,2,1,60,0,0
41923,-500,4,2,1,40,0,0
42192,-500,4,2,1,30,0,0
42460,-500,4,2,1,25,0,0
42727,-500,4,2,1,20,0,0
42995,-1000,4,2,1,15,0,0
44066,-100,4,2,1,55,0,0
45138,-200,4,2,2,60,0,0
46209,-100,4,2,1,60,0,0
47281,-200,4,2,1,60,0,0
47816,-66.6666666666667,4,2,1,60,0,0
48352,-100,4,2,1,60,0,0
49423,-200,4,2,1,60,0,0
49959,-500,4,2,1,60,0,0
52102,-66.6666666666667,4,2,1,60,0,0
52638,-100,4,2,1,60,0,0
53843,-100,4,2,1,60,0,0
54111,-66.6666666666667,4,2,1,60,0,0
54379,-100,4,2,1,60,0,0
55852,-133.333333333333,4,2,2,60,0,0
56388,-100,4,2,1,60,0,0
59602,-200,4,2,1,60,0,0
62281,-66.6666666666667,4,2,1,70,0,0
63352,-83.3333333333333,4,2,1,80,0,0
66633,-83.3333333333333,4,2,1,5,0,0
66700,-83.3333333333333,4,2,1,80,0,0
67370,-62.5,4,2,1,80,0,0
67638,-83.3333333333333,4,2,1,80,0,0
68775,-83.3333333333333,4,2,1,5,0,0
68842,-83.3333333333333,4,2,1,80,0,0
78352,-83.3333333333333,4,2,1,80,0,0
80361,-83.3333333333333,4,2,1,70,0,0
83808,-83.3333333333333,4,2,1,5,0,0
83842,-83.3333333333333,4,2,1,70,0,0
86889,-83.3333333333333,4,2,1,5,0,0
86922,-83.3333333333333,4,2,1,70,0,0
92380,-83.3333333333333,4,2,1,5,0,0
92413,-83.3333333333333,4,2,1,70,0,0
95460,-83.3333333333333,4,2,1,5,0,0
95494,-83.3333333333333,4,2,1,70,0,0
97638,-333.333333333333,4,2,1,60,0,0
106209,-100,4,2,1,60,0,0
123352,-100,4,2,1,60,0,0
123486,-100,4,2,1,60,0,0
125762,-100,4,2,1,5,0,0
126030,-100,4,2,1,60,0,0
126298,-100,4,2,1,5,0,0
126566,-100,4,2,1,60,0,0
126834,-100,4,2,1,5,0,0
127101,-100,4,2,1,60,0,0
127369,-100,4,2,1,5,0,0
127638,-200,4,2,1,60,0,0
129379,-66.6666666666667,4,2,1,60,0,0
129513,-200,4,2,1,60,0,0
131522,-200,4,2,1,5,0,0
131589,-200,4,2,1,60,0,0
131924,-200,4,2,1,70,0,0
135673,-66.6666666666667,4,2,1,70,0,0
136209,-80,4,2,1,80,0,0
138317,-80,4,2,1,5,0,0
138351,-80,4,2,1,80,0,0
140996,-80,4,2,1,5,0,0
141030,-80,4,2,1,80,0,0
144344,-80,4,2,1,5,0,0
144378,-80,4,2,1,80,0,0
146889,-80,4,2,1,5,0,0
146922,-80,4,2,1,80,0,0
149567,-80,4,2,1,5,0,0
149601,-80,4,2,1,80,0,0
153352,-68.9655172413793,4,2,1,85,0,0
160817,-68.9655172413793,4,2,1,5,0,0
160851,-68.9655172413793,4,2,1,85,0,0
170495,-80,4,2,1,70,0,0
185495,-100,4,2,1,70,0,0
185762,-100,4,2,1,5,0,0
185896,-100,4,2,1,70,0,0
186164,-100,4,2,1,5,0,0
186298,-100,4,2,1,70,0,0
186432,-100,4,2,1,5,0,0
186565,-100,4,2,1,70,0,0
186901,-100,4,2,1,5,0,0
186968,-100,4,2,1,70,0,0
187303,-100,4,2,1,5,0,0
187370,-100,4,2,1,70,0,0

[Colours]
Combo1 : 225,218,248
Combo2 : 147,147,255
Combo3 : 220,177,252

[HitObjects]
34,85,9781,5,2,1:0:0:0:
34,89,9848,1,0,0:0:0:0:
34,93,9915,1,0,0:0:0:0:
35,98,9982,1,0,0:0:0:0:
36,102,10049,6,0,L|122:77,1,89
198,119,10317,5,0,0:0:0:0:
202,117,10451,1,0,0:0:0:0:
198,113,10585,1,0,0:0:0:0:
195,115,10718,1,0,0:0:0:0:
177,231,10852,5,2,0:0:0:0:
379,27,11522,6,0,L|377:42,1,11.125,2|0,0:0|0:0,0:0:0:0:
379,27,11656,2,0,L|379:42,1,11.125,2|0,0:0|0:0,0:0:0:0:
379,27,11790,2,0,L|382:41,1,11.125,2|0,0:0|0:0,0:0:0:0:
411,116,11924,5,2,1:0:0:0:
211,327,12192,5,0,0:0:0:0:
293,310,12326,1,0,0:0:0:0:
109,236,12593,5,0,0:0:0:0:
27,219,12727,1,0,0:0:0:0:
129,193,12861,1,0,0:0:0:0:
59,333,12995,5,2,0:0:0:0:
30,75,13464,6,0,B|25:87|25:87|54:77|54:77|32:60,10,55.625
32,64,14067,6,0,L|24:164,1,89,2|0,1:0|0:0,0:0:0:0:
145,260,14335,2,0,P|183:245|176:204,2,89
145,260,14870,2,0,L|157:369,1,89
102,189,15138,5,2,0:1:0:0:
429,123,15674,6,0,P|439:142|423:123,1,80.0999975555421
414,49,15808,1,0,0:0:0:0:
307,108,15942,6,0,B|286:109|282:129|282:129|297:112|315:120,2,66.7500025463105,2|0|0,0:0|0:0|0:0,0:0:0:0:
357,198,16210,6,0,P|272:165|167:162,1,178,2|0,1:2|0:0,0:0:0:0:
29,189,16745,1,0,0:0:0:0:
29,189,16879,1,0,0:0:0:0:
93,132,17013,2,0,P|111:193|112:227,1,89
26,376,17281,6,0,P|19:360|21:346,1,31.15,2|0,0:0|0:0,0:0:0:0:
104,376,17817,2,0,P|110:360|109:346,1,31.15,2|0,0:3|0:0,0:0:0:0:
66,282,18352,5,2,1:0:0:0:
248,335,18620,1,0,0:0:0:0:
248,335,18754,2,0,L|254:233,1,89
331,181,19022,5,0,0:0:0:0:
343,259,19156,1,0,0:0:0:0:
356,337,19290,1,0,0:0:0:0:
430,208,19424,5,0,0:0:0:0:
430,208,19558,2,0,L|417:104,1,89,2|0,0:0|0:0,0:0:0:0:
323,31,19826,6,0,L|316:106,1,66.7500025463105,2|0,0:0|0:0,0:0:0:0:
484,8,20093,6,0,L|491:85,1,66.7500025463105
502,162,20361,1,0,0:0:0:0:
404,9,20495,5,2,1:0:0:0:
156,59,20763,5,0,0:0:0:0:
238,76,20897,1,0,0:0:0:0:
83,180,21165,5,0,0:0:0:0:
1,197,21299,1,0,0:0:0:0:
103,223,21433,1,0,0:0:0:0:
33,83,21567,5,2,0:0:0:0:
40,348,22102,6,0,B|57:343|57:343|67:347|67:347|89:342,8,44.5
53,266,22504,1,0,0:0:0:0:
177,364,22638,5,2,1:0:0:0:
228,308,22772,1,0,0:0:0:0:
228,308,22839,1,0,0:0:0:0:
228,308,22906,1,0,0:0:0:0:
502,249,23040,2,0,P|457:264|419:316,1,89
392,379,23308,1,0,0:0:0:0:
392,379,23442,1,2,0:0:0:0:
392,379,23710,6,0,L|390:360,1,17.8,2|0,0:1|0:0,0:0:0:0:
483,20,24245,2,0,L|481:39,1,17.8,2|0,0:3|0:0,0:0:0:0:
394,18,24781,5,0,1:0:0:0:
44,249,25317,2,2,P|85:341|48:246,2,320.399990222168,2|2|2,0:1|1:1|1:1,0:1:0:0:
45,168,26388,5,2,0:3:0:0:
80,120,26477,5,0,0:0:0:0:
144,115,26567,5,0,0:0:0:0:
207,149,26656,5,0,0:0:0:0:
280,171,26745,5,0,0:0:0:0:
357,141,26835,5,0,0:0:0:0:
399,62,26924,6,0,P|370:53|336:56,1,62.3,2|0,1:2|0:0,0:0:0:0:
261,38,27460,2,0,P|266:21|278:7,1,35.6,8|0,0:0|0:0,0:0:0:0:
125,41,27861,2,0,P|136:54|142:65,1,26.7,2|0,1:2|0:0,0:0:0:0:
154,137,28129,5,0,0:0:0:0:
237,153,28263,1,2,1:2:0:0:
157,285,28397,1,0,0:0:0:0:
311,261,28531,5,10,2:0:0:0:
311,266,28665,1,2,2:3:0:0:
311,271,28799,1,2,2:3:0:0:
311,276,28933,1,2,2:3:0:0:
352,346,29067,6,0,P|323:355|289:352,1,62.3,2|0,1:2|0:0,0:0:0:0:
198,377,29602,2,0,P|186:363|182:346,1,35.6,8|0,0:0|0:0,0:0:0:0:
413,286,30004,2,0,P|424:272|430:262,1,26.7,2|0,1:2|0:0,0:0:0:0:
355,204,30272,5,0,0:0:0:0:
272,188,30406,1,2,1:2:0:0:
352,56,30540,1,0,0:0:0:0:
460,169,30674,1,8,0:0:0:0:
17,80,30942,5,0,0:0:0:0:
124,57,31076,1,0,0:0:0:0:
17,80,31210,6,0,L|20:145,1,62.3,2|0,1:2|0:0,0:0:0:0:
126,144,31745,2,0,L|135:178,1,35.6,8|0,0:0|0:0,0:0:0:0:
22,323,32147,2,0,L|22:296,1,26.7,2|0,1:2|0:0,0:0:0:0:
23,222,32415,5,0,0:0:0:0:
103,257,32549,1,2,1:2:0:0:
295,169,32683,1,0,0:0:0:0:
327,339,32817,1,10,0:2:0:0:
327,339,33085,6,0,L|314:342,1,8.9
403,325,33218,2,0,L|411:322,1,8.9
466,377,33352,6,0,P|460:319|443:245,1,124.6,2|0,1:2|0:0,0:0:0:0:
337,227,33888,2,0,P|326:174|321:121,1,106.799996740723,10|0,0:2|0:0,0:0:0:0:
466,27,34290,2,0,P|488:74|474:124,1,106.8,2|0,1:2|0:0,0:0:0:0:
416,178,34558,5,8,0:0:0:0:
466,27,34692,1,2,1:0:0:0:
511,318,34826,1,0,0:0:0:0:
511,318,34893,1,0,0:0:0:0:
511,318,34960,1,10,0:2:0:0:
431,351,35093,1,0,0:0:0:0:
403,270,35227,1,0,0:0:0:0:
483,241,35361,1,0,0:0:0:0:
330,320,35495,5,2,1:2:0:0:
300,208,35629,1,0,0:0:0:0:
300,208,35696,1,0,0:0:0:0:
300,208,35763,1,0,0:0:0:0:
116,172,35897,5,0,0:0:0:0:
116,172,36031,2,0,L|122:191,1,17.8,10|0,0:0|0:0,0:0:0:0:
181,255,36232,6,0,L|45:301,1,133.500005092621
53,291,36433,6,0,L|116:270,1,66.7500025463105,2|0,1:2|0:0,0:0:0:0:
311,138,36701,6,0,L|459:158,1,133.500005092621,0|2,0:0|1:2,0:0:0:0:
447,149,36901,2,0,L|380:139,1,66.7500025463105
276,213,37035,6,0,L|281:227,1,8.9,0|10,0:0|0:2,0:0:0:0:
392,312,37236,5,2,0:3:0:0:
392,307,37370,1,2,0:3:0:0:
392,302,37504,1,2,0:3:0:0:
433,232,37638,6,0,P|404:223|370:226,1,62.3,2|0,1:2|0:0,0:0:0:0:
298,282,38174,2,0,P|280:287|263:285,1,35.6,8|0,0:0|0:0,0:0:0:0:
164,42,38576,2,0,P|177:41|190:41,1,26.7,2|0,1:2|0:0,0:0:0:0:
258,82,38843,5,0,0:0:0:0:
213,162,38977,1,2,1:2:0:0:
132,11,39111,1,0,0:0:0:0:
117,196,39246,1,10,0:2:0:0:
478,151,39513,5,0,0:0:0:0:
371,128,39647,1,0,0:0:0:0:
478,151,39781,6,0,L|469:187,1,35.6,2|0,1:2|0:0,0:0:0:0:
512,38,40049,2,0,L|503:74,1,35.6
361,235,40317,6,0,L|370:271,1,35.6,10|0,0:0|0:0,0:0:0:0:
387,350,40518,2,0,L|418:341,2,17.8
316,371,40718,2,0,L|306:335,1,35.6,2|0,1:2|0:0,0:0:0:0:
278,253,40942,5,0,0:0:0:0:
0,177,41210,5,0,0:0:0:0:
109,145,41388,5,8,0:0:0:0:
107,159,41522,1,0,0:0:0:0:
106,172,41656,1,0,0:0:0:0:
105,180,41790,1,0,0:0:0:0:
104,187,41924,6,0,L|101:212,7,17.8,2|0|0|0|0|0|0|0,0:0|0:0|0:0|0:0|0:0|0:0|0:0|0:0,0:0:0:0:
92,281,42995,6,0,L|90:292,4,8.9,0|0|0|0|2,0:0|0:0|0:0|0:0|0:0,0:0:0:0:
469,168,44067,5,2,0:0:0:0:
469,172,44134,1,0,0:0:0:0:
469,176,44201,1,0,0:0:0:0:
470,181,44268,1,0,0:0:0:0:
470,185,44335,6,0,B|482:228|482:228|455:280,1,89
260,353,44602,1,0,0:0:0:0:
339,366,44736,2,0,L|323:253,1,89,2|0,0:0|0:0,0:0:0:0:
162,80,45004,5,0,0:0:0:0:
242,51,45138,2,0,L|216:232,1,178,2|0,0:1|0:0,0:0:0:0:
89,338,45808,6,0,L|70:334,1,11.125,2|0,0:3|0:0,0:0:0:0:
89,338,45942,2,0,L|82:319,1,11.125,2|0,0:3|0:0,0:0:0:0:
89,338,46076,2,0,L|101:323,1,11.125,2|0,0:3|0:0,0:0:0:0:
176,363,46210,6,0,P|235:334|351:325,1,178,2|0,1:0|0:0,0:0:0:0:
102,129,46745,1,0,0:0:0:0:
23,130,46879,2,0,P|4:185|1:226,1,89,0|0,1:0|0:0,0:0:0:0:
176,363,47148,5,0,0:0:0:0:
105,384,47282,2,0,P|39:354|56:275,1,155.75,10|0,0:0|0:0,0:0:0:0:
48,281,47817,6,0,B|56:295|56:295|41:364,1,66.7500025463105
416,313,48085,5,0,0:0:0:0:
405,317,48151,1,0,0:0:0:0:
412,305,48218,1,0,0:0:0:0:
401,309,48285,1,0,0:0:0:0:
407,299,48352,6,0,L|212:322,1,178,2|0,1:2|0:0,0:0:0:0:
365,124,48888,1,0,0:0:0:0:
439,117,49022,2,0,P|459:78|451:35,1,89
112,73,49290,5,0,0:0:0:0:
150,139,49424,2,0,P|228:136|288:85,1,155.75,2|0,0:0|0:0,0:0:0:0:
345,38,49960,6,2,P|361:63|362:94,1,62.3,2|0,0:0|0:0,0:0:0:0:
322,166,50495,5,2,1:2:0:0:
362,235,51031,5,2,0:3:0:0:
362,235,51165,1,0,1:3:0:0:
325,304,51433,5,2,0:3:0:0:
362,371,51567,1,10,0:0:0:0:
39,326,52102,6,0,B|15:330|-16:318|19:301|53:331,1,66.7500025463105,2|0,1:0|0:0,0:0:0:0:
117,339,52236,2,0,B|140:334|172:346|136:363|102:333,1,66.7500025463105,2|0,1:0|0:0,0:0:0:0:
70,379,52370,1,2,1:0:0:0:
87,264,52639,5,2,1:0:0:0:
73,243,52705,1,0,0:0:0:0:
66,220,52772,1,0,0:0:0:0:
66,195,52839,1,0,0:0:0:0:
72,172,52906,1,0,0:0:0:0:
148,211,53040,5,2,0:0:0:0:
34,86,53174,2,0,L|47:189,1,89
137,348,53442,5,0,0:0:0:0:
251,223,53576,2,0,L|238:326,1,89
55,376,53843,6,0,L|43:325,1,44.5,2|0,0:0|0:0,0:0:0:0:
69,310,54111,6,0,L|55:376,1,66.7500025463105,2|0,0:0|0:0,0:0:0:0:
159,150,54379,5,2,0:3:0:0:
159,150,54513,1,2,0:3:0:0:
159,150,54647,1,2,0:3:0:0:
170,67,54781,6,0,B|131:61|102:13|102:13|117:67|90:109,1,178,2|0,1:0|0:0,0:0:0:0:
401,211,55317,2,0,B|362:217|333:265|333:265|348:211|321:169,1,178
390,129,55718,1,0,0:0:0:0:
411,295,55852,6,0,P|342:244|205:237,1,200.250007638932,2|0,0:1|0:0,0:0:0:0:
134,195,56388,1,0,0:0:0:0:
163,313,56522,1,0,0:0:0:0:
134,195,56656,2,0,L|114:86,1,89,2|0,0:3|0:0,0:0:0:0:
24,368,56924,6,0,B|29:306|29:306|34:296|34:296|42:214,1,133.5,2|0,1:2|0:0,0:0:0:0:
40,237,57192,1,2,1:0:0:0:
474,177,57995,5,2,0:3:0:0:
10,27,59067,5,2,0:0:0:0:
31,116,59603,6,0,B|23:135|48:152|48:152|57:129|38:108,1,89,4|0,0:3|0:0,0:0:0:0:
256,192,59937,12,0,62013,0:0:0:0:
40,89,62281,6,2,B|106:96|106:96|68:81|68:81|55:91|55:91|55:91|55:91|55:91|55:91|55:91|55:91|56:91|56:91|48:91|48:91|51:91|51:91|53:91|53:91|47:91|47:91|51:91|51:91|53:92|53:92|53:91|53:91|179:104|179:104|247:170|245:281|245:281|193:224|193:224|188:271|188:271|171:234|171:234|169:267|169:267|154:240|154:240|152:265|152:265|139:243|139:243|135:263|135:263|125:247|125:247|125:262|125:262|116:250|116:250|115:260|115:260|105:254|105:254|100:258|100:258|95:255|95:255|90:258|90:258|84:255|84:255|54:225|54:225|72:177|72:177|121:174,1,1001.25003819466
128,177,63352,6,0,L|111:308,1,106.799996740723,2|2,1:2|1:0,0:0:0:0:
104,373,63553,1,2,1:0:0:0:
117,384,63620,2,0,L|130:278,1,106.799996740723,8|2,0:1|1:0,0:0:0:0:
123,84,63888,2,0,L|109:189,1,106.799996740723,2|0,0:2|0:0,0:0:0:0:
178,26,64156,1,8,0:1:0:0:
328,294,64290,2,0,P|229:284|196:185,2,213.599993481446,2|2|2,0:2|1:0|1:0,0:0:0:0:
443,235,64960,5,0,0:0:0:0:
443,235,65093,1,2,1:0:0:0:
366,196,65227,1,8,0:1:0:0:
492,117,65361,1,0,0:0:0:0:
171,104,65495,6,0,L|284:124,1,106.799996740723,2|2,1:2|1:0,0:0:0:0:
354,45,65696,1,2,1:0:0:0:
361,68,65763,2,0,L|255:86,1,106.799996740723,8|2,0:1|1:0,0:0:0:0:
61,158,66031,2,0,L|166:139,1,106.799996740723,2|2,0:2|1:0,0:0:0:0:
337,191,66299,1,8,0:1:0:0:
151,221,66433,6,0,P|132:280|127:339,1,106.799996740723,2|0,0:2|1:0,0:0:0:0:
23,330,66701,2,0,P|5:279|0:226,1,106.799996740723,2|8,1:0|0:1,0:0:0:0:
43,71,66968,5,2,1:0:0:0:
61,158,67102,1,0,0:0:0:0:
122,97,67236,1,2,1:0:0:0:
52,54,67370,6,0,B|60:37|60:37|87:192,1,142.4,8|0,0:1|0:0,0:0:0:0:
191,334,67638,6,0,L|205:228,1,106.799996740723,2|2,1:2|1:0,0:0:0:0:
306,55,67906,2,0,L|404:14,1,106.799996740723,8|2,0:1|1:0,0:0:0:0:
197,134,68174,2,0,L|211:28,1,106.799996740723,2|2,0:2|1:0,0:0:0:0:
279,152,68442,5,8,0:1:0:0:
379,258,68576,2,0,P|332:273|301:233,1,106.799996740723,2|2,0:2|1:0,0:0:0:0:
508,156,68843,2,0,P|470:119|418:117,1,106.799996740723,2|8,1:0|0:1,0:0:0:0:
379,219,69111,1,2,1:0:0:0:
341,46,69245,5,0,0:0:0:0:
326,125,69379,1,2,1:0:0:0:
202,86,69513,1,8,0:1:0:0:
189,182,69647,1,0,0:0:0:0:
50,118,69781,6,0,P|48:198|64:276,1,160.199995111084,2|0,1:2|0:0,0:0:0:0:
30,344,70049,2,0,P|78:365|130:357,1,106.799996740723,8|2,0:1|1:0,0:0:0:0:
211,313,70317,1,2,0:2:0:0:
211,313,70451,1,0,1:2:0:0:
141,262,70585,1,8,0:1:0:0:
130,357,70718,1,2,0:2:0:0:
287,384,70852,6,2,P|357:345|417:291,1,160.199995111084,2|0,1:0|0:0,0:0:0:0:
492,288,71120,2,0,P|486:235|453:194,1,106.799996740723,0|2,0:0|1:0,0:0:0:0:
300,78,71388,5,0,0:0:0:0:
298,173,71522,1,2,1:0:0:0:
292,269,71656,1,8,0:1:0:0:
306,59,71790,1,2,1:0:0:0:
306,59,71857,1,2,1:0:0:0:
306,59,71924,6,0,L|172:47,1,106.799996740723,2|2,1:2|1:0,0:0:0:0:
147,112,72125,1,0,0:0:0:0:
137,125,72192,2,0,P|87:87|91:40,1,106.799996740723,8|2,0:1|1:0,0:0:0:0:
259,3,72460,1,2,1:2:0:0:
271,19,72526,1,0,0:0:0:0:
278,40,72593,1,0,0:0:0:0:
279,60,72660,1,0,0:0:0:0:
273,81,72727,1,8,0:1:0:0:
199,49,72861,1,2,1:2:0:0:
234,234,72995,5,0,0:0:0:0:
234,234,73062,1,0,0:0:0:0:
234,234,73129,1,2,1:0:0:0:
234,234,73196,1,2,1:0:0:0:
234,234,73263,2,0,B|328:235|328:235|351:262,1,106.799996740723,8|2,0:1|1:0,0:0:0:0:
358,284,73464,1,0,0:0:0:0:
369,277,73531,1,0,0:0:0:0:
439,356,73665,5,2,1:0:0:0:
456,224,73799,2,0,L|440:351,1,106.799996740723,8|2,0:1|1:0,0:0:0:0:
224,356,74067,6,0,P|174:365|147:322,1,106.799996740723,2|2,1:2|1:0,0:0:0:0:
127,229,74268,1,2,1:0:0:0:
127,216,74335,2,0,P|77:206|50:249,1,106.799996740723,8|0,0:1|0:0,0:0:0:0:
131,350,74602,2,0,L|143:237,1,106.799996740723,2|0,1:2|1:0,0:0:0:0:
166,59,74870,1,8,0:1:0:0:
243,232,75004,6,0,L|231:96,1,106.799996740723,2|0,1:2|0:0,0:0:0:0:
63,9,75272,2,0,P|72:57|70:137,1,106.799996740723,2|8,1:0|0:1,0:0:0:0:
41,189,75540,1,2,1:0:0:0:
122,213,75674,1,0,0:0:0:0:
156,291,75808,1,2,1:0:0:0:
123,369,75942,1,8,0:1:0:0:
123,369,76076,1,0,0:0:0:0:
18,321,76210,6,0,P|24:275|33:202,1,106.799996740723,2|0,1:2|0:0,0:0:0:0:
260,241,76477,2,0,P|254:195|245:122,1,106.799996740723,8|0,0:1|0:0,0:0:0:0:
11,206,76745,2,0,P|17:160|26:87,1,106.799996740723,2|0,1:2|1:0,0:0:0:0:
256,113,77013,1,8,0:1:0:0:
10,87,77147,6,0,L|141:95,1,106.799996740723,2|2,0:2|1:0,0:0:0:0:
252,28,77415,1,2,1:0:0:0:
121,78,77549,1,8,0:1:0:0:
270,213,77683,5,2,1:0:0:0:
339,176,77817,1,0,0:0:0:0:
355,100,77951,1,2,1:0:0:0:
201,126,78085,2,0,P|186:177|188:230,1,106.799996740723,8|0,0:3|0:0,0:0:0:0:
325,316,78352,6,0,L|219:331,1,106.799996740723,2|0,1:2|0:0,0:0:0:0:
451,281,78620,2,0,L|345:296,1,106.799996740723,8|0,0:0|0:0,0:0:0:0:
327,124,78888,6,0,L|221:139,1,106.799996740723,2|0,1:2|1:0,0:0:0:0:
510,47,79156,2,0,L|404:62,1,106.799996740723,8|0,0:0|0:2,0:0:0:0:
127,112,79424,1,2,1:0:0:0:
119,100,79491,1,2,1:0:0:0:
114,87,79558,1,2,1:0:0:0:
111,74,79625,1,2,1:0:0:0:
112,58,79692,6,0,L|105:178,1,106.799996740723,8|2,0:2|1:0,0:0:0:0:
354,8,79960,2,0,L|347:128,1,106.799996740723,0|0,1:0|1:0,0:0:0:0:
250,20,80227,1,8,0:2:0:0:
254,165,80361,1,0,0:0:0:0:
254,165,80428,1,2,1:0:0:0:
254,165,80495,6,0,P|364:159|501:163,1,213.599993481446,2|8,1:2|0:0,0:0:0:0:
479,314,80897,1,0,0:0:0:0:
413,343,81031,2,0,P|346:346|295:344,1,106.799996740723,2|2,1:2|1:0,0:0:0:0:
23,236,81299,1,8,0:0:0:0:
89,265,81433,2,0,P|156:268|207:266,1,106.799996740723,2|0,0:2|1:0,0:0:0:0:
420,146,81701,5,2,1:0:0:0:
356,82,81835,1,10,0:2:0:0:
291,146,81968,1,2,1:0:0:0:
356,211,82102,5,2,0:2:0:0:
441,64,82236,1,0,1:0:0:0:
437,230,82370,5,10,0:2:0:0:
275,69,82504,1,0,1:0:0:0:
108,357,82638,6,0,P|203:309|168:204,1,213.599993481446,2|8,1:2|0:0,0:0:0:0:
114,95,83040,1,0,1:0:0:0:
49,257,83174,2,0,P|36:151|18:46,1,213.599993481446,2|8,1:2|0:0,0:0:0:0:
199,112,83576,2,0,B|250:133|250:133|294:107,1,106.799996740723,2|0,0:2|1:0,0:0:0:0:
351,40,83843,5,0,1:0:0:0:
274,24,83977,1,10,0:2:0:0:
393,171,84111,5,2,1:0:0:0:
470,155,84245,1,2,0:2:0:0:
303,138,84379,5,2,1:0:0:0:
292,308,84513,1,10,0:2:0:0:
447,233,84647,1,2,1:0:0:0:
245,224,84781,6,0,P|130:222|17:227,1,213.599993481446,2|8,1:2|0:0,0:0:0:0:
25,251,85116,1,0,0:0:0:0:
19,277,85183,1,2,1:0:0:0:
308,170,85317,2,0,P|392:170|429:169,1,106.799996740723,2|2,1:2|1:0,0:0:0:0:
207,95,85585,1,8,0:0:0:0:
136,98,85718,2,0,P|52:98|15:97,1,106.799996740723,2|2,0:2|1:0,0:0:0:0:
292,44,85986,5,2,1:0:0:0:
215,122,86120,1,10,0:2:0:0:
330,197,86254,1,2,1:0:0:0:
219,306,86388,5,2,0:2:0:0:
288,342,86522,1,0,1:0:0:0:
457,239,86656,5,10,0:2:0:0:
388,275,86790,1,0,0:0:0:0:
231,227,86924,6,0,P|222:177|216:111,1,106.799996740723,2|0,1:2|0:0,0:0:0:0:
351,23,87192,2,0,P|356:76|365:128,1,106.799996740723,8|2,0:0|1:0,0:0:0:0:
87,155,87460,2,0,P|78:105|72:39,1,106.799996740723,2|2,0:2|1:0,0:0:0:0:
257,46,87727,1,8,0:0:0:0:
118,261,87861,5,2,0:2:0:0:
190,230,88129,5,2,1:2:0:0:
262,280,88397,5,2,1:0:0:0:
262,280,88464,1,0,0:0:0:0:
262,280,88531,1,2,0:2:0:0:
261,196,88665,1,2,1:0:0:0:
182,308,88799,1,10,0:0:0:0:
333,238,88933,1,2,1:0:0:0:
191,149,89067,6,0,L|56:191,1,106.799996740723,2|0,1:2|0:0,0:0:0:0:
116,90,89335,1,8,0:0:0:0:
116,90,89468,1,2,1:0:0:0:
312,57,89602,2,0,L|413:88,1,106.799996740723,2|2,0:2|1:0,0:0:0:0:
389,0,89870,1,8,0:0:0:0:
347,246,90004,2,0,B|321:203|321:203|334:147,1,106.799996740723,2|0,0:2|1:0,0:0:0:0:
472,204,90272,5,2,1:0:0:0:
465,297,90406,1,10,0:2:0:0:
266,246,90540,5,2,1:0:0:0:
281,368,90674,1,2,0:2:0:0:
363,306,90808,1,0,0:0:0:0:
363,306,90875,1,2,1:0:0:0:
363,306,90942,2,0,L|234:331,1,106.799996740723,10|0,0:2|0:0,0:0:0:0:
29,126,91210,6,0,B|117:63|117:63|213:105,1,213.599993481446,2|8,1:2|0:0,0:0:0:0:
131,169,91611,1,2,1:0:0:0:
69,328,91745,2,0,L|64:195,1,106.799996740723,2|2,1:2|1:0,0:0:0:0:
243,31,92013,1,8,0:0:0:0:
305,190,92147,2,0,L|310:57,1,106.799996740723,2|2,0:2|1:0,0:0:0:0:
175,144,92415,5,2,1:0:0:0:
193,232,92549,1,10,0:0:0:0:
389,157,92683,5,2,1:0:0:0:
407,69,92817,1,2,0:0:0:0:
152,48,92951,5,2,1:0:0:0:
253,174,93085,1,10,0:0:0:0:
325,35,93218,1,2,1:0:0:0:
126,184,93352,6,0,P|123:240|128:299,1,106.799996740723,2|0,1:2|0:0,0:0:0:0:
119,169,93620,2,0,P|116:225|121:284,1,106.799996740723,8|2,0:0|1:0,0:0:0:0:
112,153,93888,2,0,P|109:209|114:268,1,106.799996740723,2|2,1:2|1:0,0:0:0:0:
105,140,94156,2,0,P|102:196|107:255,1,106.799996740723,8|2,0:0|0:2,0:0:0:0:
212,374,94424,6,0,P|208:320|211:267,1,106.799996740723,2|2,1:0|1:0,0:0:0:0:
366,235,94692,1,10,0:2:0:0:
281,220,94826,1,2,1:0:0:0:
478,133,94960,1,2,0:2:0:0:
394,146,95093,1,0,1:0:0:0:
208,61,95227,2,0,P|261:57|314:52,1,106.799996740723,10|0,0:2|0:0,0:0:0:0:
471,311,95495,2,0,P|417:316|364:319,1,106.799996740723,2|0,1:2|0:0,0:0:0:0:
257,265,95763,5,10,0:0:0:0:
182,306,96031,1,2,1:2:0:0:
98,290,96299,1,10,0:0:0:0:
62,212,96567,5,2,0:0:0:0:
173,350,96835,1,10,0:0:0:0:
266,110,97102,1,2,0:0:0:0:
351,373,97370,1,10,0:0:0:0:
451,31,97638,6,0,P|452:75|457:115,1,80.0999975555421,0|0,1:0|0:0,0:0:0:0:
376,153,98174,2,0,P|372:127|370:101,1,53.3999983703614,8|0,0:0|0:0,0:0:0:0:
298,40,98576,2,0,P|284:38|263:44,2,26.6999991851807
370,101,98977,5,0,1:0:0:0:
49,54,99245,1,8,0:0:0:0:
49,54,99513,5,0,0:0:0:0:
147,25,99781,2,0,P|155:61|151:109,1,80.0999975555421,0|0,1:0|0:0,0:0:0:0:
116,179,100317,1,8,0:0:0:0:
8,262,100852,6,0,L|39:266,1,26.6999991851807,0|2,1:0|0:2,0:0:0:0:
1,345,101120,2,0,L|32:349,1,26.6999991851807,2|2,0:2|0:2,0:0:0:0:
451,353,101924,6,0,P|452:308|457:269,1,80.0999975555421,0|0,1:0|0:0,0:0:0:0:
376,230,102460,2,0,P|372:256|370:283,1,53.3999983703614,8|0,0:0|0:0,0:0:0:0:
298,344,102861,2,0,P|284:345|263:339,2,26.6999991851807
370,283,103263,5,0,1:0:0:0:
49,330,103531,1,8,0:0:0:0:
49,330,103799,5,0,0:0:0:0:
147,359,104067,2,0,P|155:323|151:275,1,80.0999975555421,0|0,1:0|0:0,0:0:0:0:
116,205,104602,1,8,0:0:0:0:
8,122,105138,6,0,L|39:117,1,26.6999991851807,2|2,1:0|0:2,0:0:0:0:
1,39,105406,2,0,L|32:34,1,26.6999991851807,2|2,0:2|0:2,0:0:0:0:
447,68,106210,6,0,P|475:83|454:58,1,89,2|2,1:0|1:0,0:0:0:0:
351,122,106477,2,0,P|360:152|363:120,1,89
305,59,106745,2,0,P|246:41|207:54,1,89,10|0,0:0|0:0,0:0:0:0:
206,58,106946,1,0,0:0:0:0:
197,73,107013,1,0,0:0:0:0:
208,158,107147,6,0,P|212:204|222:279,1,89,2|0,1:0|0:0,0:0:0:0:
130,363,107415,2,0,P|111:355|113:317,1,44.5,2|0,1:0|0:0,0:0:0:0:
102,321,107549,2,0,L|95:246,2,44.5
220,372,107817,5,8,0:0:0:0:
303,328,107951,1,0,0:0:0:0:
333,224,108085,1,0,0:0:0:0:
306,122,108218,1,0,0:0:0:0:
224,44,108352,5,2,1:0:0:0:
216,48,108486,1,0,0:0:0:0:
208,52,108620,1,0,0:0:0:0:
200,56,108754,1,0,0:0:0:0:
122,15,108889,5,10,0:0:0:0:
122,107,109022,1,0,0:0:0:0:
122,107,109089,1,0,0:0:0:0:
122,107,109156,1,0,0:0:0:0:
200,56,109290,1,2,1:0:0:0:
14,130,109424,5,0,0:0:0:0:
28,209,109558,2,0,L|145:191,1,89,10|2,0:0|1:0,0:0:0:0:
319,208,109826,5,0,0:0:0:0:
305,287,109960,2,0,L|188:269,1,89,10|0,0:0|0:0,0:0:0:0:
200,155,110227,1,0,0:0:0:0:
200,150,110294,1,0,0:0:0:0:
201,146,110361,1,0,0:0:0:0:
202,141,110428,1,0,0:0:0:0:
202,136,110495,6,0,L|194:259,1,89,2|0,1:2|0:0,0:0:0:0:
345,117,110763,2,0,L|353:240,1,89
298,381,111031,2,0,P|302:319|280:284,1,89,8|0,0:0|0:0,0:0:0:0:
276,284,111232,1,0,0:0:0:0:
260,278,111299,1,2,0:0:0:0:
76,308,111433,6,0,P|120:311|164:315,1,89,2|0,1:2|0:0,0:0:0:0:
413,273,111701,2,0,P|431:265|430:227,1,44.5,2|0,1:0|0:0,0:0:0:0:
441,231,111835,2,0,L|448:156,2,44.5,0|0|0,0:0|0:0|1:0,0:0:0:0:
406,34,112102,5,8,0:0:0:0:
311,21,112236,1,0,0:0:0:0:
227,90,112370,1,0,0:0:0:0:
191,189,112504,1,0,0:0:0:0:
213,301,112638,5,2,1:2:0:0:
222,302,112772,1,0,0:0:0:0:
231,303,112906,1,0,0:0:0:0:
240,304,113040,1,0,0:0:0:0:
280,382,113174,5,10,0:0:0:0:
333,307,113308,1,0,0:0:0:0:
333,307,113375,1,0,0:0:0:0:
333,307,113442,1,0,0:0:0:0:
220,210,113576,1,2,1:0:0:0:
70,295,113710,5,0,0:0:0:0:
84,374,113843,2,0,L|201:356,1,89,10|2,0:0|1:0,0:0:0:0:
434,241,114111,5,0,0:0:0:0:
420,320,114245,2,0,L|303:302,1,89,10|0,0:0|0:0,0:0:0:0:
327,298,114446,1,0,0:0:0:0:
322,290,114513,1,0,0:0:0:0:
158,272,114647,1,2,0:0:0:0:
238,201,114781,6,0,P|238:157|236:113,1,89,2|2,1:0|1:0,0:0:0:0:
172,61,115049,1,0,0:0:0:0:
172,61,115183,1,0,0:0:0:0:
330,160,115317,1,8,0:0:0:0:
384,100,115451,1,0,0:0:0:0:
384,100,115518,1,0,0:0:0:0:
384,100,115585,1,0,0:0:0:0:
137,177,115718,1,2,1:0:0:0:
137,177,115785,1,0,0:0:0:0:
137,177,115852,6,0,P|135:251|138:280,1,89,0|2,0:0|1:0,0:0:0:0:
175,338,116120,1,0,0:0:0:0:
19,264,116254,1,2,1:0:0:0:
209,343,116388,2,0,L|101:365,1,89,8|0,0:0|0:0,0:0:0:0:
27,377,116656,1,0,0:0:0:0:
27,377,116790,1,0,0:0:0:0:
249,269,116924,5,2,1:0:0:0:
330,210,123352,5,0,0:0:0:0:
340,206,123419,1,0,0:0:0:0:
326,185,123486,1,2,0:0:0:0:
348,220,127638,5,0,0:0:0:0:
354,218,127705,1,0,0:0:0:0:
353,228,127772,1,2,0:0:0:0:
343,138,128174,2,0,P|306:111|255:125,1,89,2|0,0:3|0:0,0:0:0:0:
162,181,128576,1,0,0:0:0:0:
219,232,128710,2,0,P|182:259|131:245,1,89,2|0,0:3|0:0,0:0:0:0:
71,295,129111,2,0,P|68:262|57:231,1,66.75
48,220,129379,6,0,L|54:154,1,66.7500025463105
256,192,129781,12,0,131522,0:0:0:0:
202,49,131924,5,2,1:0:0:0:
263,338,132192,1,0,0:0:0:0:
289,255,132326,1,2,1:0:0:0:
289,255,132727,1,2,0:0:0:0:
4,355,132995,5,6,1:0:0:0:
214,345,134067,5,2,1:0:0:0:
307,68,134468,1,2,1:0:0:0:
333,151,134602,1,0,0:0:0:0:
333,151,134870,1,2,1:0:0:0:
48,51,135138,5,4,0:1:0:0:
93,341,135674,1,2,0:0:0:0:
77,329,135741,1,0,0:0:0:0:
66,312,135808,1,0,0:0:0:0:
61,293,135875,1,0,0:0:0:0:
64,274,135942,2,0,L|156:281,1,66.7500025463105
225,290,136076,2,0,L|317:297,1,66.7500025463105
369,295,136210,6,0,P|405:223|332:215,1,166.875,6|2,1:2|1:0,0:0:0:0:
255,200,136477,2,0,P|239:177|302:139,1,111.25,8|2,0:1|1:0,0:0:0:0:
469,124,136745,2,0,P|485:101|422:63,1,111.25,2|0,0:0|1:0,0:0:0:0:
441,215,137013,5,8,0:1:0:0:
311,55,137147,2,0,P|251:37|185:48,1,111.25,2|0,0:2|0:0,0:0:0:0:
26,200,137415,2,0,P|81:203|117:133,1,111.25,2|8,1:0|0:1,0:0:0:0:
106,88,137683,1,2,1:0:0:0:
49,29,137817,1,2,1:0:0:0:
37,288,137951,1,2,1:0:0:0:
37,288,138018,1,0,0:0:0:0:
37,288,138085,1,8,0:1:0:0:
123,315,138218,1,2,1:0:0:0:
205,271,138352,6,0,P|275:253|328:245,1,111.25,2|2,1:2|1:0,0:0:0:0:
324,249,138553,1,2,1:0:0:0:
334,253,138620,2,0,P|292:226|332:158,1,111.25,8|2,0:1|1:0,0:0:0:0:
454,199,138888,2,0,P|496:172|436:131,1,111.25,2|0,1:2|0:0,0:0:0:0:
361,51,139156,5,8,0:1:0:0:
357,231,139290,2,0,L|346:373,1,111.25,2|0,0:2|1:0,0:0:0:0:
418,369,139558,1,0,0:0:0:0:
357,199,139692,1,8,0:1:0:0:
320,273,139826,1,2,1:0:0:0:
278,89,139960,1,2,1:0:0:0:
274,191,140093,1,0,0:0:0:0:
152,63,140228,2,0,P|77:40|24:52,1,111.25,8|0,0:1|0:0,0:0:0:0:
174,181,140495,5,2,1:2:0:0:
216,1,140629,1,2,1:0:0:0:
216,1,140696,1,0,0:0:0:0:
216,1,140763,2,0,P|195:81|191:137,1,111.25,8|0,0:1|0:0,0:0:0:0:
33,169,141031,2,0,P|68:243|101:289,1,111.25,2|2,0:2|1:0,0:0:0:0:
217,317,141299,5,8,0:1:0:0:
19,378,141433,2,0,P|-22:347|0:300,1,111.25,2|2,0:2|1:0,0:0:0:0:
108,377,141701,1,2,1:0:0:0:
197,364,141835,1,8,0:1:0:0:
270,246,141968,1,2,1:0:0:0:
270,246,142035,1,0,0:0:0:0:
270,246,142102,1,0,0:0:0:0:
179,229,142236,1,2,1:0:0:0:
112,289,142370,1,8,0:1:0:0:
108,377,142504,1,0,0:0:0:0:
89,160,142638,6,0,L|57:23,1,111.25,2|0,1:2|0:0,0:0:0:0:
303,142,142906,2,0,L|429:126,1,111.25,8|2,0:1|1:0,0:0:0:0:
144,277,143174,6,0,L|112:140,1,111.25,2|2,0:2|1:0,0:0:0:0:
358,259,143442,2,0,L|484:243,1,111.25,8|2,0:1|1:1,0:0:0:0:
214,342,143710,6,2,L|-30:274,1,222.5,2|2,1:0|0:2,0:0:0:0:
205,257,144111,1,2,1:0:0:0:
68,342,144245,1,0,0:0:0:0:
315,317,144379,1,2,1:0:0:0:
315,317,144446,1,0,0:0:0:0:
315,317,144513,1,8,0:1:0:0:
83,195,144647,1,2,1:0:0:0:
83,195,144714,1,2,1:0:0:0:
83,195,144781,6,0,L|213:170,1,111.25,2|0,1:2|0:0,0:0:0:0:
281,208,144982,1,0,0:0:0:0:
296,224,145049,2,0,P|354:206|343:159,1,111.25,8|2,0:1|1:0,0:0:0:0:
270,52,145317,1,2,0:0:0:0:
245,46,145384,1,0,0:0:0:0:
221,52,145451,1,2,1:0:0:0:
202,68,145518,1,2,1:0:0:0:
192,90,145585,1,8,0:1:0:0:
261,133,145718,1,2,0:0:0:0:
103,50,145852,5,0,1:0:0:0:
103,50,145919,1,0,0:0:0:0:
103,50,145986,1,0,0:0:0:0:
106,146,146120,1,8,0:1:0:0:
192,90,146254,1,2,1:0:0:0:
12,137,146388,1,0,0:0:0:0:
65,299,146522,1,2,1:0:0:0:
65,299,146589,1,0,0:0:0:0:
65,299,146656,1,8,0:1:0:0:
119,240,146790,1,2,1:0:0:0:
178,371,146924,6,0,L|305:349,1,111.25,2|2,1:2|1:0,0:0:0:0:
345,299,147125,1,2,1:0:0:0:
353,284,147192,2,0,B|276:258|276:258|223:307,1,111.25,8|0,0:1|0:0,0:0:0:0:
88,374,147460,2,0,P|158:353|171:275,1,111.25,2|0,1:2|1:0,0:0:0:0:
330,175,147727,5,8,0:1:0:0:
240,280,147861,2,0,L|250:157,1,111.25,2|2,0:0|1:0,0:0:0:0:
136,46,148129,1,2,1:0:0:0:
171,119,148263,5,8,0:1:0:0:
314,16,148397,1,2,1:0:0:0:
250,170,148531,5,0,0:0:0:0:
46,38,148665,1,2,1:0:0:0:
185,243,148799,5,8,0:1:0:0:
325,4,148933,1,0,0:0:0:0:
162,355,149067,6,0,P|107:345|52:343,1,111.25,2|0,1:2|0:0,0:0:0:0:
349,340,149335,2,0,P|385:296|345:241,1,111.25,8|0,0:1|0:0,0:0:0:0:
163,226,149602,2,0,L|178:361,1,111.25,2|2,1:2|1:0,0:0:0:0:
187,135,149870,5,8,0:1:0:0:
262,384,150004,2,0,P|264:323|289:261,1,111.25,2|0,0:2|1:0,0:0:0:0:
349,217,150272,1,2,1:0:0:0:
432,229,150406,1,8,0:1:0:0:
289,88,150540,1,2,1:0:0:0:
187,135,150674,1,0,0:0:0:0:
405,145,150808,1,2,1:0:0:0:
188,57,150942,5,8,0:1:0:0:
244,204,151076,1,0,0:0:0:0:
368,35,151210,6,0,P|312:22|292:77,1,111.25,2|0,1:2|0:0,0:0:0:0:
257,293,151477,2,0,P|201:306|165:253,1,111.25,8|2,0:1|1:0,0:0:0:0:
433,259,151745,6,0,P|402:210|339:194,1,111.25,2|2,0:0|1:0,0:0:0:0:
69,338,152013,2,0,P|20:307|54:261,1,111.25,8|2,0:1|0:0,0:0:0:0:
200,99,152281,6,0,L|209:233,1,111.25,2|2,1:0|1:0,0:0:0:0:
293,53,152549,2,0,L|284:187,1,111.25,8|2,0:0|1:0,0:0:0:0:
39,36,152817,6,0,L|48:170,1,111.25,2|2,1:0|1:0,0:0:0:0:
493,0,153085,2,0,L|484:134,1,111.25,8|0,0:0|1:0,0:0:0:0:
490,355,153352,6,0,P|438:269|329:256,1,193.57500590744,2|0,1:2|0:0,0:0:0:0:
373,332,153620,2,0,P|349:386|293:369,1,129.050003938294,8|0,0:0|0:0,0:0:0:0:
132,366,153888,1,2,1:2:0:0:
108,356,153955,1,0,0:0:0:0:
95,334,154022,1,0,0:0:0:0:
97,309,154089,1,0,0:0:0:0:
115,291,154156,1,8,0:0:0:0:
174,237,154290,1,2,0:2:0:0:
179,153,154424,6,0,L|40:185,1,129.050003938294,0|2,0:0|1:0,0:0:0:0:
226,83,154692,1,8,0:0:0:0:
141,73,154826,1,2,1:0:0:0:
326,220,154960,1,0,0:0:0:0:
379,160,155093,1,2,1:0:0:0:
379,160,155160,1,0,0:0:0:0:
379,160,155227,2,0,L|522:137,1,129.050003938294,8|0,0:0|0:0,0:0:0:0:
297,125,155495,5,2,1:2:0:0:
488,227,155629,1,2,1:0:0:0:
488,227,155696,1,2,1:0:0:0:
488,227,155763,2,0,P|460:288|440:364,1,129.050003938294,8|2,0:0|1:0,0:0:0:0:
404,131,156031,2,0,P|386:69|359:10,1,129.050003938294,2|0,1:2|0:0,0:0:0:0:
300,202,156299,5,8,0:0:0:0:
244,43,156433,2,0,B|182:26|182:26|132:78,1,129.050003938294,2|0,0:2|1:0,0:0:0:0:
310,243,156701,2,0,L|181:258,1,129.050003938294,2|8,1:0|0:0,0:0:0:0:
108,231,156968,1,2,1:0:0:0:
288,265,157102,1,0,0:0:0:0:
246,337,157236,1,2,1:0:0:0:
461,357,157370,1,8,0:0:0:0:
380,375,157504,1,0,0:0:0:0:
494,203,157638,6,0,B|494:147|462:115|320:115,1,193.57500590744,2|0,1:2|0:0,0:0:0:0:
284,65,157906,2,0,P|313:153|311:216,1,129.050003938294,8|0,0:0|0:0,0:0:0:0:
119,373,158174,2,0,P|55:335|83:284,1,129.050003938294,2|2,0:0|1:0,0:0:0:0:
166,193,158442,1,8,0:0:0:0:
148,266,158576,1,2,0:0:0:0:
63,198,158710,6,0,L|43:56,1,129.050003938294,0|2,1:0|1:0,0:0:0:0:
43,222,158977,1,8,0:0:0:0:
76,3,159111,2,0,L|94:131,2,129.050003938294,2|0|2,1:0|0:0|1:0,0:0:0:0:
283,86,159513,1,8,0:0:0:0:
188,77,159647,1,0,0:0:0:0:
359,143,159781,6,0,P|364:78|374:15,1,129.050003938294,2|0,1:2|0:0,0:0:0:0:
224,312,160049,2,0,P|219:247|209:183,1,129.050003938294,8|2,0:0|1:0,0:0:0:0:
453,383,160317,2,0,P|457:318|467:254,1,129.050003938294,2|2,0:2|1:0,0:0:0:0:
346,116,160585,1,8,0:0:0:0:
447,94,160718,1,2,0:2:0:0:
145,62,160852,5,2,1:0:0:0:
230,44,160986,2,0,L|215:175,1,129.050003938294,2|2,1:0|1:0,0:0:0:0:
295,339,161254,1,2,1:0:0:0:
295,339,161321,1,2,1:0:0:0:
295,339,161388,1,2,1:0:0:0:
375,318,161522,1,2,1:0:0:0:
214,365,161656,1,8,0:0:0:0:
203,362,161723,1,0,0:0:0:0:
193,360,161790,1,0,0:0:0:0:
183,357,161857,1,0,0:0:0:0:
171,355,161924,6,0,L|302:322,1,129.050003938294,2|0,1:2|0:0,0:0:0:0:
512,201,162192,2,0,L|386:232,1,129.050003938294,8|0,0:0|0:0,0:0:0:0:
223,224,162460,1,2,0:2:0:0:
211,206,162526,1,0,0:0:0:0:
203,186,162593,1,2,1:0:0:0:
198,165,162660,1,0,0:0:0:0:
197,144,162727,1,8,0:0:0:0:
259,90,162861,1,2,0:2:0:0:
116,78,162995,5,0,0:0:0:0:
331,50,163129,2,0,B|365:110|365:110|349:168,1,129.050003938294,2|8,1:0|0:0,0:0:0:0:
151,325,163397,1,2,1:0:0:0:
123,254,163531,1,0,0:0:0:0:
294,362,163665,1,2,1:0:0:0:
316,266,163799,5,8,0:0:0:0:
68,320,163933,1,0,0:0:0:0:
376,350,164067,6,0,P|345:259|327:164,1,193.57500590744,2|0,1:2|0:0,0:0:0:0:
349,168,164335,2,0,P|298:237|218:204,1,129.050003938294,8|2,0:0|1:0,0:0:0:0:
155,136,164602,2,0,P|75:102|30:107,1,129.050003938294,2|2,0:2|1:0,0:0:0:0:
190,60,164870,5,8,0:0:0:0:
125,216,165004,2,0,P|118:284|115:362,1,129.050003938294,2|2,0:2|1:0,0:0:0:0:
193,316,165272,5,2,1:0:0:0:
79,360,165406,1,8,0:0:0:0:
296,370,165540,5,2,1:0:0:0:
471,289,165674,1,0,0:0:0:0:
395,245,165808,1,2,1:0:0:0:
164,213,165942,1,8,0:0:0:0:
244,180,166076,1,0,0:0:0:0:
297,289,166210,6,0,P|279:208|357:110,1,193.57500590744,2|0,1:2|0:0,0:0:0:0:
405,86,166477,2,0,P|396:26|287:71,1,193.57500590744,8|0,0:0|0:0,0:0:0:0:
174,137,166745,2,0,P|81:109|23:32,1,193.57500590744,2|0,1:2|0:0,0:0:0:0:
24,34,167013,5,8,0:0:0:0:
175,0,167147,2,0,P|142:75|144:159,1,129.050003938294,2|2,0:2|1:0,0:0:0:0:
179,223,167415,5,2,1:0:0:0:
274,185,167549,1,10,0:0:0:0:
139,308,167683,5,2,1:0:0:0:
48,222,167817,1,2,0:0:0:0:
192,377,167951,5,2,1:0:0:0:
341,259,168085,1,10,0:0:0:0:
381,333,168218,1,0,0:0:0:0:
403,140,168352,6,0,L|378:356,1,193.57500590744,2|0,1:2|0:0,0:0:0:0:
302,363,168620,2,0,L|210:241,1,129.050003938294,10|2,0:0|1:0,0:0:0:0:
232,151,168888,2,0,L|324:29,1,129.050003938294,2|2,0:2|1:0,0:0:0:0:
133,65,169156,2,0,L|4:49,1,129.050003938294,10|0,0:2|0:2,0:0:0:0:
354,149,169424,6,0,L|482:133,1,129.050003938294,2|2,1:2|1:0,0:0:0:0:
495,226,169625,1,2,1:0:0:0:
495,226,169692,2,0,L|367:242,1,129.050003938294,10|0,0:2|1:0,0:0:0:0:
210,165,169960,5,2,1:2:0:0:
210,165,170093,1,0,1:0:0:0:
185,258,170227,1,10,0:2:0:0:
113,197,170361,1,0,0:0:0:0:
113,197,170428,1,0,0:0:0:0:
113,197,170495,6,0,P|107:142|106:79,1,111.25,2|2,1:2|1:0,0:0:0:0:
293,326,170763,2,0,P|291:270|285:215,1,111.25,8|0,0:0|0:0,0:0:0:0:
253,42,171031,1,2,1:2:0:0:
181,64,171165,1,0,1:0:0:0:
181,64,171232,1,0,0:0:0:0:
181,64,171299,1,8,0:0:0:0:
292,133,171433,1,2,0:0:0:0:
113,197,171567,5,2,1:0:0:0:
195,175,171701,1,2,1:0:0:0:
121,342,171835,2,0,P|67:334|70:274,1,111.25,8|0,0:0|0:0,0:0:0:0:
71,275,172035,1,2,1:0:0:0:
81,269,172102,1,2,1:0:0:0:
185,266,172236,1,2,1:0:0:0:
251,374,172370,1,8,0:0:0:0:
335,187,172504,1,0,0:0:0:0:
335,187,172571,1,0,0:0:0:0:
335,187,172638,6,0,P|297:235|276:297,1,111.25,2|0,1:2|0:0,0:0:0:0:
420,226,172906,1,8,0:0:0:0:
491,260,173040,1,2,1:0:0:0:
412,379,173174,2,0,P|378:321|363:263,1,111.25,2|0,0:0|1:0,0:0:0:0:
399,132,173442,1,8,0:0:0:0:
280,282,173576,1,2,0:0:0:0:
214,46,173710,5,2,1:0:0:0:
248,184,173843,1,2,1:0:0:0:
298,77,173977,2,0,P|357:50|415:43,1,111.25,8|2,0:0|1:0,0:0:0:0:
175,126,174245,1,2,1:0:0:0:
101,69,174379,1,2,1:0:0:0:
6,189,174513,1,8,0:0:0:0:
85,168,174647,1,0,0:0:0:0:
223,307,174781,6,0,P|127:289|-8:271,1,222.5,2|8,1:2|0:0,0:0:0:0:
258,231,175183,1,2,1:0:0:0:
164,377,175317,1,2,0:0:0:0:
134,310,175451,1,2,1:0:0:0:
314,296,175585,2,0,P|369:304|423:314,2,111.25,8|2|2,0:0|0:2|1:0,0:0:0:0:
175,228,175986,5,2,1:0:0:0:
321,181,176120,1,8,0:0:0:0:
146,142,176254,2,0,P|105:86|130:39,1,111.25,2|0,1:0|0:0,0:0:0:0:
225,163,176522,1,2,1:0:0:0:
258,18,176656,2,0,P|227:91|222:138,1,111.25,8|0,0:0|0:0,0:0:0:0:
278,274,176924,6,0,B|321:194|329:189|494:193,1,222.5,2|8,1:2|0:0,0:0:0:0:
436,111,177326,1,2,1:0:0:0:
424,328,177460,2,0,P|391:276|382:218,1,111.25,2|2,0:0|1:0,0:0:0:0:
418,31,177727,1,8,0:0:0:0:
493,57,177861,1,2,0:0:0:0:
316,158,177995,5,2,1:0:0:0:
316,158,178129,1,2,1:0:0:0:
397,133,178263,1,10,0:2:0:0:
227,88,178397,1,2,1:0:0:0:
259,275,178531,2,0,P|327:287|377:300,1,111.25,2|2,1:2|1:0,0:0:0:0:
54,328,178799,2,0,P|122:316|172:303,1,111.25,10|2,0:2|1:0,0:0:0:0:
181,224,179000,1,2,1:0:0:0:
181,224,179067,6,0,B|113:216|50:274|-1:86,1,222.5,2|8,1:2|0:0,0:0:0:0:
22,49,179468,1,2,1:0:0:0:
173,50,179602,2,0,P|121:118|108:164,1,111.25,2|0,1:2|0:0,0:0:0:0:
112,141,179803,1,0,0:0:0:0:
112,141,179870,1,8,0:0:0:0:
326,71,180004,2,0,P|400:43|457:45,2,111.25,2|2|2,0:2|1:0|1:0,0:0:0:0:
256,208,180406,5,8,0:0:0:0:
331,222,180540,1,2,1:0:0:0:
190,322,180674,1,0,0:0:0:0:
402,275,180808,1,2,1:0:0:0:
402,275,180875,1,2,1:0:0:0:
402,275,180942,1,8,0:0:0:0:
376,351,181076,1,2,1:0:0:0:
228,142,181210,6,0,P|240:251|255:372,1,222.5,2|8,1:2|0:0,0:0:0:0:
155,264,181611,1,2,1:0:0:0:
325,201,181745,2,0,P|366:152|366:102,1,111.25,2|0,0:2|1:0,0:0:0:0:
214,16,182013,1,8,0:0:0:0:
158,74,182147,1,2,0:2:0:0:
293,88,182281,6,0,P|379:73|443:71,1,111.25,2|2,1:0|1:0,0:0:0:0:
215,137,182549,1,8,0:0:0:0:
230,208,182683,1,2,1:0:0:0:
75,313,182817,1,2,1:0:0:0:
102,243,182951,1,2,1:0:0:0:
202,373,183085,1,8,0:0:0:0:
7,270,183218,1,2,1:0:0:0:
279,293,183352,6,0,B|326:370|412:326|400:244|335:222,1,222.5,2|8,1:2|0:0,0:0:0:0:
283,134,183754,1,2,1:0:0:0:
283,134,183888,2,0,P|222:170|157:170,1,111.25,2|2,0:2|1:0,0:0:0:0:
37,120,184156,1,8,0:0:0:0:
19,46,184290,1,2,0:2:0:0:
229,50,184424,5,2,1:0:0:0:
113,234,184558,1,2,1:0:0:0:
279,360,184692,1,10,0:2:0:0:
309,284,184826,1,2,1:0:0:0:
194,328,184960,2,0,P|123:346|70:360,1,111.25,2|2,1:0|1:0,0:0:0:0:
387,273,185227,2,0,P|458:291|511:305,1,111.25,10|0,0:2|0:0,0:0:0:0:
221,232,185495,6,0,P|250:135|373:126,1,222.5,2|0,0:0|0:0,0:0:0:0:
84,27,185897,2,0,P|113:124|236:133,1,222.5
35,231,186299,2,0,P|105:188|169:178,1,133.5,2|0,0:0|0:0,0:0:0:0:
247,42,186567,6,0,P|351:79|433:167,1,222.5,2|0,0:0|0:0,0:0:0:0:
447,241,186968,2,0,P|342:225|362:130,1,222.5,2|0,0:0|0:0,0:0:0:0:
412,79,187370,1,2,0:0:0:0:
