osu file format v14

[General]
AudioFilename: audio.mp3
AudioLeadIn: 0
PreviewTime: 170428
Countdown: 0
SampleSet: Soft
StackLeniency: 0.3
Mode: 0
LetterboxInBreaks: 0
WidescreenStoryboard: 1

[Editor]
Bookmarks: 26877,44020,63352,80448,97591,106163,131857,136210,153285,185495
DistanceSpacing: 1
BeatDivisor: 4
GridSize: 32
TimelineZoom: 3.399999

[Metadata]
Title:Mermaid
TitleUnicode:マーメイド
Artist:monaca:factory feat. GEM
ArtistUnicode:monaca:factory feat. ジェム
Creator:cherrymeii
Version:Normal
Source:
Tags:anishina kodoku tatemae honne kyrian blastthekidd 0ppinosu yukic utaite cover vocaloid mars on the water planetary plate gumi japanese pop
BeatmapID:2992247
BeatmapSetID:1429665

[Difficulty]
HPDrainRate:4
CircleSize:3
OverallDifficulty:4
ApproachRate:5
SliderMultiplier:0.9
SliderTickRate:1

[Events]
//Background and Video events
0,0,"12.jpg",0,0
//Break Periods
2,97570,105010
2,123552,126438
//Storyboard Layer 0 (Background)
//Storyboard Layer 1 (Fail)
//Storyboard Layer 2 (Pass)
//Storyboard Layer 3 (Foreground)
//Storyboard Layer 4 (Overlay)
//Storyboard Sound Samples

[TimingPoints]
1210,267.857142857143,4,2,0,60,1,0
9647,-100,4,2,1,60,0,0
11522,-166.666666666667,4,2,2,60,0,0
11924,-100,4,2,1,60,0,0
15138,-100,4,2,2,60,0,0
15674,-100,4,2,1,60,0,0
23710,-100,4,2,2,60,0,0
24781,-100,4,2,1,60,0,0
25317,-100,4,2,2,60,0,0
25718,-100,4,2,1,60,0,0
26120,-100,4,2,1,55,0,0
26923,-100,4,2,1,60,0,0
40518,-100,4,2,1,60,0,0
40585,-100,4,2,1,60,0,0
44066,-100,4,2,1,55,0,0
45138,-100,4,2,2,60,0,0
46210,-100,4,2,1,60,0,0
55852,-100,4,2,2,60,0,0
56388,-100,4,2,1,60,0,0
57995,-100,4,2,1,60,0,0
59067,-100,4,2,1,60,0,0
62281,-100,4,2,1,70,0,0
63352,-100,4,2,1,80,0,0
66634,-100,4,2,1,5,0,0
66701,-100,4,2,1,80,0,0
68776,-100,4,2,1,5,0,0
68843,-100,4,2,1,80,0,0
80361,-100,4,2,1,70,0,0
83808,-100,4,2,1,5,0,0
83842,-100,4,2,1,70,0,0
86889,-100,4,2,1,5,0,0
86922,-100,4,2,1,70,0,0
92380,-100,4,2,1,5,0,0
92413,-100,4,2,1,70,0,0
95460,-100,4,2,1,5,0,0
95494,-100,4,2,1,70,0,0
97638,-100,4,2,1,60,0,0
121210,-142.857142857143,4,2,1,60,0,0
125763,-142.857142857143,4,2,1,5,0,0
126031,-142.857142857143,4,2,1,60,0,0
126299,-142.857142857143,4,2,1,5,0,0
126567,-142.857142857143,4,2,1,60,0,0
126835,-142.857142857143,4,2,1,5,0,0
127102,-142.857142857143,4,2,1,60,0,0
127370,-142.857142857143,4,2,1,5,0,0
127638,-142.857142857143,4,2,1,60,0,0
128710,-142.857142857143,4,2,1,60,0,0
129781,-142.857142857143,4,2,1,60,0,0
131924,-100,4,2,1,70,0,0
136209,-100,4,2,1,80,0,0
138317,-100,4,2,1,5,0,0
138351,-100,4,2,1,80,0,0
140996,-100,4,2,1,5,0,0
141030,-100,4,2,1,80,0,0
144344,-100,4,2,1,5,0,0
144378,-100,4,2,1,80,0,0
146889,-100,4,2,1,5,0,0
146922,-100,4,2,1,80,0,0
149567,-100,4,2,1,5,0,0
149601,-100,4,2,1,80,0,0
153352,-90.9090909090909,4,2,1,85,0,0
160817,-90.9090909090909,4,2,1,5,0,0
160851,-90.9090909090909,4,2,1,85,0,0
170495,-90.9090909090909,4,2,1,70,0,0
185763,-90.9090909090909,4,2,1,5,0,0
185897,-90.9090909090909,4,2,1,70,0,0
186165,-90.9090909090909,4,2,1,5,0,0
186299,-90.9090909090909,4,2,1,70,0,0
186433,-90.9090909090909,4,2,1,5,0,0
186567,-90.9090909090909,4,2,1,70,0,0

[Colours]
Combo1 : 250,152,240
Combo2 : 0,210,210

[HitObjects]
281,293,9781,6,0,P|211:319|157:366,1,135,2|0,1:0|0:0,0:0:0:0:
75,346,10451,2,0,B|50:309|50:309|66:260,1,90
105,247,10852,1,2,0:0:0:0:
51,122,11522,6,0,L|56:92,2,26.9999991760254,2|2|2,0:0|0:0|0:0,0:0:0:0:
17,138,11924,2,0,P|108:153|185:169,1,150,2|0,1:0|0:0,0:0:0:0:
231,103,12593,1,0,0:0:0:0:
231,103,12727,1,0,0:0:0:0:
312,147,12995,2,0,P|262:234|238:322,1,180,2|0,0:0|0:0,0:0:0:0:
61,336,14067,6,0,P|72:263|136:248,1,135,2|0,1:0|0:0,0:0:0:0:
191,303,14736,2,0,P|238:329|283:340,1,90
317,330,15138,1,2,0:1:0:0:
494,358,15674,2,0,P|468:319|455:260,1,90,0|2,0:0|0:0,0:0:0:0:
373,240,16210,6,0,P|409:170|421:109,1,135,2|0,1:2|0:0,0:0:0:0:
301,50,17013,1,0,0:0:0:0:
249,123,17281,1,2,0:0:0:0:
427,146,17817,1,2,0:3:0:0:
437,235,18352,6,0,P|434:312|380:334,1,135,2|0,1:0|0:0,0:0:0:0:
269,268,19156,1,0,0:0:0:0:
201,327,19424,2,0,P|138:344|73:375,1,135,0|2,0:0|0:0,0:0:0:0:
4,317,20093,1,0,0:0:0:0:
122,252,20495,6,0,P|137:183|177:121,1,135,2|0,1:0|0:0,0:0:0:0:
91,83,21165,2,0,P|73:38|47:4,1,90
3,13,21567,1,2,0:0:0:0:
180,40,22102,1,0,0:0:0:0:
114,207,22638,6,0,P|72:223|36:251,1,90,2|0,1:0|0:0,0:0:0:0:
1,279,23040,2,0,B|17:297|17:297|140:317,1,135,0|2,0:0|0:0,0:0:0:0:
198,369,23710,1,2,0:1:0:0:
327,244,24245,1,2,0:3:0:0:
391,322,24781,5,0,1:0:0:0:
512,183,25317,2,2,B|483:150|483:150|417:168|417:168|401:207,2,135,2|2|2,0:1|1:1|1:1,0:1:0:0:
286,300,26924,6,0,P|265:242|234:207,1,90,2|0,1:2|0:0,0:0:0:0:
163,188,27460,1,8,0:0:0:0:
35,232,27861,2,0,P|-10:212|18:141,1,135,2|2,1:2|1:2,0:0:0:0:
99,124,28531,2,0,L|89:76,2,45,10|2|2,2:0|2:3|2:3,0:0:0:0:
163,188,29067,6,0,P|143:280|149:370,1,180,2|8,1:2|0:0,0:0:0:0:
250,327,30004,2,0,P|263:284|290:249,1,90,2|0,1:2|0:0,0:0:0:0:
331,229,30406,1,2,1:2:0:0:
396,289,30674,2,0,P|439:302|487:336,1,90,8|0,0:0|0:0,0:0:0:0:
511,243,31210,6,0,B|491:181|491:181|510:153,1,90,2|0,1:2|0:0,0:0:0:0:
427,115,31745,1,8,0:0:0:0:
399,29,32013,1,0,0:0:0:0:
399,29,32147,2,0,P|343:41|277:74,1,90,2|0,1:2|0:0,0:0:0:0:
273,32,32549,1,2,1:2:0:0:
215,101,32817,1,10,0:2:0:0:
47,36,33352,6,0,P|115:106|142:188,1,180,2|10,1:2|0:2,0:0:0:0:
65,295,34290,2,0,P|100:325|150:319,1,90,2|8,1:2|0:0,0:0:0:0:
182,304,34692,1,2,1:0:0:0:
278,326,34960,6,0,L|257:208,1,90,10|0,0:2|0:0,0:0:0:0:
320,169,35495,2,0,P|405:146|440:218,1,180,2|10,1:2|0:0,0:0:0:0:
476,298,36299,1,0,0:0:0:0:
476,298,36433,2,0,P|418:319|391:339,1,90,2|0,1:2|0:0,0:0:0:0:
355,313,36835,1,2,1:2:0:0:
274,369,37102,6,0,L|253:263,1,90,10|2,0:2|0:3,0:0:0:0:
175,239,37638,2,0,P|208:173|221:64,1,180,2|8,1:2|0:0,0:0:0:0:
95,18,38576,2,0,P|133:66|158:144,1,135,2|2,1:2|1:2,0:0:0:0:
94,200,39245,2,0,P|46:215|6:247,1,90,10|0,0:2|0:0,0:0:0:0:
31,326,39781,6,0,P|126:322|206:358,1,180,2|10,1:2|0:0,0:0:0:0:
288,328,40585,1,0,0:0:0:0:
288,328,40718,2,0,L|307:213,1,90,2|0,1:2|0:0,0:0:0:0:
271,206,41120,1,0,0:0:0:0:
313,126,41388,6,0,P|362:116|434:109,1,90,8|0,0:0|0:0,0:0:0:0:
491,99,41924,1,2,0:0:0:0:
232,81,44067,6,0,P|245:39|268:0,2,90,2|0|0,0:0|0:0|0:0,0:0:0:0:
169,146,44870,1,0,0:0:0:0:
83,118,45138,1,2,0:1:0:0:
27,297,45942,5,2,0:3:0:0:
94,237,46210,2,0,P|128:269|179:283,1,90,2|0,1:0|0:0,0:0:0:0:
231,346,46745,1,0,0:0:0:0:
231,346,46879,2,0,P|281:314|340:314,1,90,0|0,1:0|0:0,0:0:0:0:
353,326,47281,1,10,0:0:0:0:
493,213,47817,6,0,P|501:158|510:122,1,90
438,68,48352,2,0,P|342:90|277:145,1,180,2|0,1:2|0:0,0:0:0:0:
208,195,49156,1,0,0:0:0:0:
121,169,49424,1,2,0:0:0:0:
251,271,49960,6,2,B|352:230|352:230|387:247,1,135,2|0,0:0|0:0,0:0:0:0:
405,275,50495,2,0,P|388:319|391:368,1,90,2|0,1:2|0:0,0:0:0:0:
478,378,51031,2,0,P|495:334|492:285,1,90,2|0,0:3|0:0,0:0:0:0:
465,205,51567,1,10,0:0:0:0:
346,70,52102,5,2,1:0:0:0:
264,107,52370,1,2,1:0:0:0:
294,191,52638,2,0,P|359:260|393:344,1,180,2|0,1:0|0:0,0:0:0:0:
480,322,53442,2,0,P|512:288|506:240,2,90
277,292,54513,5,2,0:3:0:0:
304,377,54781,2,0,P|248:322|132:319,1,180,2|0,1:0|0:0,0:0:0:0:
80,142,55852,2,0,B|43:149|43:149|21:253|21:253|53:273,1,180,2|0,0:1|0:0,0:0:0:0:
140,288,56656,5,2,0:3:0:0:
212,234,56924,2,0,P|231:187|260:152,1,90,2|2,1:2|1:0,0:0:0:0:
56,37,57995,1,2,0:3:0:0:
73,185,59067,1,2,0:0:0:0:
256,192,59602,12,0,61745,0:0:0:0:
75,68,62482,6,0,P|159:84|108:159,1,202.5
37,239,63352,6,0,L|158:256,1,90,2|8,1:2|0:1,0:0:0:0:
103,338,63888,2,0,L|224:355,1,90,2|8,0:2|0:1,0:0:0:0:
227,322,64290,1,2,0:2:0:0:
323,344,64558,2,0,P|320:297|299:248,1,90,2|2,1:0|1:0,0:0:0:0:
279,219,64960,2,0,L|291:171,2,45,0|2|8,0:0|1:0|0:1,0:0:0:0:
197,181,65495,6,0,P|151:215|84:227,1,90,2|8,1:2|0:1,0:0:0:0:
73,147,66031,2,0,P|37:99|58:54,1,90,2|8,0:2|0:1,0:0:0:0:
79,45,66433,1,2,0:2:0:0:
170,44,66701,2,0,P|207:77|260:92,1,90,2|2,1:0|1:0,0:0:0:0:
288,80,67102,2,0,L|301:37,2,45,0|2|8,0:0|1:0|0:1,0:0:0:0:
349,146,67638,6,0,P|398:125|450:129,1,90,2|8,1:2|0:1,0:0:0:0:
501,185,68174,2,0,L|480:291,1,90,2|8,0:2|0:1,0:0:0:0:
456,310,68576,1,2,0:2:0:0:
372,278,68843,2,0,P|347:248|289:231,1,90,2|2,1:0|1:0,0:0:0:0:
259,250,69245,2,0,L|247:310,2,45,0|2|8,0:0|1:0|0:1,0:0:0:0:
185,197,69781,6,0,P|128:222|75:227,1,90,2|8,1:2|0:1,0:0:0:0:
22,182,70317,2,0,P|19:137|62:108,1,90,2|8,0:2|0:1,0:0:0:0:
119,51,70852,2,2,B|216:76|216:76|234:111,1,135,2|0,1:0|0:0,0:0:0:0:
356,53,71656,1,0,0:0:0:0:
430,103,71924,6,0,L|413:224,1,90,2|8,1:2|0:1,0:0:0:0:
328,177,72460,2,0,L|311:298,1,90,2|8,1:2|0:1,0:0:0:0:
339,304,72861,1,2,1:2:0:0:
271,361,73129,2,0,P|228:341|176:349,1,90,2|2,1:0|1:0,0:0:0:0:
146,323,73531,2,0,L|86:333,2,45,0|2|8,0:0|1:0|0:1,0:0:0:0:
199,250,74067,6,0,P|209:202|215:150,1,90,2|8,1:2|0:1,0:0:0:0:
255,81,74602,2,0,P|219:45|154:39,1,90,2|8,1:2|0:1,0:0:0:0:
142,56,75004,1,2,1:2:0:0:
47,27,75272,2,0,L|61:126,1,90,2|2,1:0|1:0,0:0:0:0:
99,137,75674,2,0,L|89:182,2,45,0|2|8,0:0|1:0|0:1,0:0:0:0:
185,161,76210,6,0,P|222:140|276:135,1,90,2|8,1:2|0:1,0:0:0:0:
342,82,76745,1,2,1:2:0:0:
410,140,77013,1,8,0:1:0:0:
410,140,77147,2,0,P|397:185|385:260,2,90,2|2|2,0:2|1:0|1:0,0:0:0:0:
448,115,77817,2,0,P|446:63|415:29,1,90,0|8,0:0|0:3,0:0:0:0:
338,0,78352,6,0,L|209:34,1,90,2|8,1:2|0:0,0:0:0:0:
160,29,78888,2,0,P|172:77|194:133,1,90,2|8,1:2|0:0,0:0:0:0:
273,136,79424,2,0,P|261:184|239:240,1,90,2|8,1:0|0:2,0:0:0:0:
174,276,79960,2,0,P|203:315|225:356,1,90,0|8,1:0|0:2,0:0:0:0:
311,366,80495,6,0,P|365:337|331:230,1,180,2|2,1:2|1:2,0:0:0:0:
265,189,81299,1,8,0:0:0:0:
265,189,81433,2,0,P|264:138|302:110,1,90,2|2,0:2|1:0,0:0:0:0:
314,75,81835,2,0,B|378:58|378:58|419:91,2,90,10|2|10,0:2|0:2|0:2,0:0:0:0:
234,31,82638,6,0,P|153:91|55:105,1,180,2|2,1:2|1:2,0:0:0:0:
11,168,83442,1,8,0:0:0:0:
11,168,83576,2,0,B|-3:235|-3:235|29:268,1,90,2|0,0:2|1:0,0:0:0:0:
50,273,83977,1,10,0:2:0:0:
133,238,84245,2,0,P|168:270|233:290,1,90,2|10,0:2|0:2,0:0:0:0:
275,344,84781,6,0,P|324:322|385:323,2,90,2|8|2,1:2|0:0|1:2,0:0:0:0:
206,286,85585,1,8,0:0:0:0:
206,286,85718,2,0,B|229:176|229:176|253:163,1,135,2|10,0:2|0:2,0:0:0:0:
328,208,86388,2,0,P|371:219|411:240,1,90,2|10,0:2|0:2,0:0:0:0:
488,193,86924,6,0,L|472:104,1,90,2|8,1:2|0:0,0:0:0:0:
412,36,87460,2,0,P|369:50|325:85,1,90,2|8,0:2|0:0,0:0:0:0:
307,112,87861,2,0,P|252:105|215:67,2,90,2|2|2,0:2|1:2|1:0,0:0:0:0:
363,182,88665,1,2,1:0:0:0:
363,182,88799,1,10,0:0:0:0:
300,247,89067,6,0,P|251:257|222:218,1,90,2|8,1:2|0:0,0:0:0:0:
140,262,89602,2,0,B|81:284|81:284|56:273,1,90,2|8,0:2|0:0,0:0:0:0:
41,228,90004,2,0,P|60:195|76:129,1,90,2|2,0:2|1:0,0:0:0:0:
103,110,90406,2,0,L|85:9,2,90,10|2|10,0:2|0:2|0:2,0:0:0:0:
174,165,91210,1,2,1:2:0:0:
279,53,91745,6,0,P|310:83|365:98,1,90,2|8,1:2|0:0,0:0:0:0:
397,84,92147,1,2,0:2:0:0:
472,133,92415,1,2,1:0:0:0:
472,133,92549,2,0,L|456:191,1,45,10|2,0:0|1:0,0:0:0:0:
431,211,92817,2,0,P|449:259|449:324,1,90,2|10,0:0|0:0,0:0:0:0:
380,352,93352,5,2,1:2:0:0:
295,319,93620,1,8,0:0:0:0:
208,342,93888,2,0,L|216:252,1,90,2|8,1:2|0:0,0:0:0:0:
196,211,94290,2,0,P|242:202|292:177,1,90,2|2,0:2|1:0,0:0:0:0:
318,158,94692,1,10,0:2:0:0:
374,228,94960,2,0,P|412:205|456:192,1,90,2|10,0:2|0:2,0:0:0:0:
510,121,95495,5,2,1:2:0:0:
510,121,95763,1,10,0:0:0:0:
478,36,96031,1,2,1:2:0:0:
478,36,96299,1,10,0:0:0:0:
390,14,96567,1,2,0:0:0:0:
390,14,96835,1,10,0:0:0:0:
403,102,97102,5,2,0:0:0:0:
403,102,97370,1,10,0:0:0:0:
58,210,106210,6,0,P|56:158|26:103,1,90,2|0,1:0|0:0,0:0:0:0:
84,44,106745,2,0,P|134:47|167:93,1,90,10|0,0:0|0:0,0:0:0:0:
172,117,107147,1,2,1:0:0:0:
249,163,107415,1,2,1:0:0:0:
323,112,107683,1,0,0:0:0:0:
323,112,107817,2,0,P|341:65|394:28,1,90,8|0,0:0|0:0,0:0:0:0:
445,86,108352,6,0,P|427:174|414:286,1,180,2|10,1:0|0:0,0:0:0:0:
330,235,109156,1,0,0:0:0:0:
330,235,109290,1,2,1:0:0:0:
277,307,109558,2,0,L|200:326,1,45,10|2,0:0|1:0,0:0:0:0:
152,357,109960,6,0,P|91:316|110:225,1,135,10|0,0:0|0:0,0:0:0:0:
123,232,110495,2,0,P|138:177|142:125,1,90,2|0,1:2|0:0,0:0:0:0:
88,71,111031,1,8,0:0:0:0:
205,5,111433,5,2,1:2:0:0:
288,32,111701,1,2,1:0:0:0:
250,112,111968,1,0,1:0:0:0:
250,112,112102,2,0,P|241:150|235:235,1,90,8|0,0:0|0:0,0:0:0:0:
153,239,112638,6,0,P|250:265|323:341,1,180,2|10,1:2|0:0,0:0:0:0:
409,227,113576,2,0,P|451:286|423:334,1,135,2|2,1:0|1:0,0:0:0:0:
336,353,114245,2,0,P|316:268|268:208,1,135,10|2,0:0|0:0,0:0:0:0:
305,186,114781,5,2,1:0:0:0:
305,186,114915,1,2,1:0:0:0:
430,136,115317,2,0,P|372:119|346:86,1,90,8|0,0:0|0:0,0:0:0:0:
277,49,115852,2,0,P|204:65|141:120,1,135,0|2,0:0|1:0,0:0:0:0:
141,57,116388,1,8,0:0:0:0:
110,234,116924,1,2,1:0:0:0:
110,234,119067,6,0,P|97:167|79:102,2,135
51,302,120138,1,0,0:0:0:0:
441,328,121210,6,0,B|358:303|358:303|315:341|315:341|247:327,1,188.999994232178
214,359,122281,2,0,P|207:306|183:258,1,94.499997116089
125,125,123352,1,0,0:0:0:0:
400,81,127638,6,0,P|352:90|318:134,2,94.499997116089
475,130,128710,2,0,P|463:211|460:264,1,125.999996154785,2|0,0:3|0:0,0:0:0:0:
256,192,129781,12,0,131120,0:0:0:0:
82,60,131924,6,0,B|67:90|67:90|109:221,1,135,2|2,1:0|1:0,0:0:0:0:
174,298,132727,1,2,0:0:0:0:
108,359,132995,2,0,B|77:305|77:305|126:171,1,180,6|0,1:0|0:0,0:0:0:0:
241,63,134067,6,0,B|231:86|231:86|290:158|290:158|276:191,1,135,2|2,1:0|1:0,0:0:0:0:
422,281,134870,1,2,1:0:0:0:
415,191,135138,1,4,0:1:0:0:
512,22,135674,6,0,P|537:59|469:91,1,135,2|0,0:0|0:0,0:0:0:0:
470,105,136210,6,0,P|436:69|392:55,1,90,6|8,1:2|0:1,0:0:0:0:
317,94,136745,2,0,P|274:134|235:138,1,90,2|8,0:0|0:1,0:0:0:0:
207,113,137147,1,2,0:2:0:0:
113,80,137415,2,0,P|118:130|130:187,1,90,2|2,1:0|1:0,0:0:0:0:
92,200,137817,2,0,L|42:192,2,45,2|2|8,1:0|1:0|0:1,0:0:0:0:
159,259,138352,6,0,P|209:269|250:306,1,90,2|8,1:2|0:1,0:0:0:0:
294,363,138888,2,0,P|350:353|391:323,1,90,2|8,1:2|0:1,0:0:0:0:
422,342,139290,2,0,L|405:226,1,90,2|0,0:2|0:0,0:0:0:0:
475,192,139826,1,2,1:0:0:0:
475,192,139960,2,0,P|488:139|490:92,1,90,2|8,1:0|0:1,0:0:0:0:
416,51,140495,6,0,L|313:71,2,90,2|8|2,1:2|0:1|0:2,0:0:0:0:
381,146,141299,1,8,0:1:0:0:
381,146,141433,2,0,P|321:103|280:96,1,90,2|2,0:2|1:0,0:0:0:0:
222,131,141968,1,2,1:0:0:0:
222,131,142102,2,0,L|106:120,1,90,0|8,0:0|0:1,0:0:0:0:
56,172,142638,6,0,L|84:275,1,90,2|8,1:2|0:1,0:0:0:0:
28,333,143174,2,0,P|77:309|125:296,1,90,2|8,0:2|0:1,0:0:0:0:
186,231,143710,2,2,L|213:324,1,90,2|2,1:0|0:2,0:0:0:0:
200,361,144111,2,0,P|246:339|292:330,1,90,2|2,1:0|1:0,0:0:0:0:
322,355,144513,1,8,0:1:0:0:
411,345,144781,6,0,P|416:282|428:237,1,90,2|8,1:2|0:1,0:0:0:0:
495,203,145317,2,0,P|483:152|459:95,1,90,2|8,0:0|0:1,0:0:0:0:
483,73,145718,1,2,0:0:0:0:
402,32,145986,2,0,P|361:64|312:74,1,90,0|2,0:0|1:0,0:0:0:0:
302,112,146388,2,0,P|237:68|189:61,1,90,0|8,0:0|0:1,0:0:0:0:
146,106,146924,6,0,L|38:121,2,90,2|8|2,1:2|0:1|1:2,0:0:0:0:
221,155,147727,1,8,0:1:0:0:
191,189,147861,2,0,P|161:250|154:303,1,90,2|2,0:0|1:0,0:0:0:0:
221,334,148397,2,0,P|147:287|82:286,1,135,2|8,1:0|0:1,0:0:0:0:
29,228,149067,6,0,P|24:178|61:154,1,90,2|8,1:2|0:1,0:0:0:0:
104,82,149602,2,0,L|204:102,1,90,2|8,1:2|0:1,0:0:0:0:
235,86,150004,1,2,0:2:0:0:
281,163,150272,2,0,P|285:210|321:230,1,90,2|2,1:0|1:0,0:0:0:0:
358,206,150674,2,0,P|407:188|460:183,1,90,0|8,0:0|0:1,0:0:0:0:
507,246,151210,6,0,P|497:306|459:317,1,90,2|8,1:2|0:1,0:0:0:0:
388,294,151745,1,2,0:0:0:0:
308,335,152013,1,8,0:1:0:0:
230,289,152281,2,0,P|182:314|117:329,1,90,2|8,1:0|0:0,0:0:0:0:
68,280,152817,1,2,1:0:0:0:
68,280,152951,2,0,L|80:228,1,45,2|8,1:0|0:0,0:0:0:0:
6,167,153352,6,0,P|-17:114|11:73,1,99.0000030212403,2|8,1:2|0:0,0:0:0:0:
84,27,153888,1,2,1:2:0:0:
173,68,154156,1,8,0:0:0:0:
173,68,154290,2,0,L|281:50,1,99.0000030212403,2|2,0:2|1:0,0:0:0:0:
344,117,154826,1,2,1:0:0:0:
344,117,154960,2,0,P|284:157|264:192,1,99.0000030212403,0|8,0:0|0:0,0:0:0:0:
192,240,155495,5,2,1:2:0:0:
233,330,155763,1,8,0:0:0:0:
330,347,156031,2,0,L|439:315,1,99.0000030212403,2|8,1:2|0:0,0:0:0:0:
466,292,156433,2,0,P|491:248|469:189,1,99.0000030212403,2|2,0:2|1:0,0:0:0:0:
395,152,156968,1,2,1:0:0:0:
395,152,157102,2,0,P|387:88|376:42,1,99.0000030212403,0|8,0:0|0:0,0:0:0:0:
290,9,157638,6,0,P|216:52|177:54,1,99.0000030212403,2|8,1:2|0:0,0:0:0:0:
155,140,158174,2,0,P|94:96|48:92,1,99.0000030212403,2|8,0:0|0:0,0:0:0:0:
28,115,158576,1,2,0:0:0:0:
0,209,158843,2,0,L|20:324,1,99.0000030212403,2|2,1:0|1:0,0:0:0:0:
62,327,159245,2,0,P|100:295|167:277,1,99.0000030212403,0|8,0:0|0:0,0:0:0:0:
241,306,159781,2,0,P|287:340|344:351,1,99.0000030212403,2|8,1:2|0:0,0:0:0:0:
423,326,160317,5,2,0:2:0:0:
464,247,160585,1,8,0:0:0:0:
404,181,160852,2,0,P|385:115|373:33,1,148.50000453186,2|2,1:0|1:0,0:0:0:0:
294,96,161522,1,2,1:0:0:0:
294,96,161656,2,0,P|257:105|225:110,1,49.5000015106202,8|0,0:0|0:0,0:0:0:0:
211,143,161924,6,0,P|170:113|105:99,1,99.0000030212403,2|8,1:2|0:0,0:0:0:0:
29,129,162460,2,0,P|44:191|101:188,1,99.0000030212403,2|8,0:2|0:0,0:0:0:0:
120,207,162861,2,0,P|77:267|70:315,1,99.0000030212403,2|2,0:2|1:0,0:0:0:0:
157,339,163397,1,2,1:0:0:0:
157,339,163531,2,0,P|208:309|261:306,1,99.0000030212403,0|8,0:0|0:0,0:0:0:0:
335,348,164067,6,0,P|387:335|407:287,1,99.0000030212403,2|8,1:2|0:0,0:0:0:0:
444,204,164602,2,0,P|426:162|373:132,1,99.0000030212403,2|8,0:2|0:0,0:0:0:0:
332,130,165004,1,2,0:2:0:0:
261,180,165272,2,0,L|266:229,2,49.5000015106202,2|8|2,1:0|0:0|1:0,0:0:0:0:
213,165,165674,2,0,P|167:196|106:206,1,99.0000030212403,0|8,0:0|0:0,0:0:0:0:
40,169,166210,6,0,L|28:268,2,99.0000030212403,2|8|2,1:2|0:0|1:2,0:0:0:0:
52,71,167013,1,8,0:0:0:0:
52,71,167147,2,0,P|102:102|146:111,1,99.0000030212403,2|2,0:2|1:0,0:0:0:0:
232,73,167683,1,2,1:0:0:0:
232,73,167817,2,0,L|346:51,1,99.0000030212403,2|10,0:0|0:0,0:0:0:0:
422,88,168352,6,0,P|436:135|402:213,1,99.0000030212403,2|10,1:2|0:0,0:0:0:0:
365,261,168888,2,0,P|309:221|254:220,1,99.0000030212403,2|10,0:2|0:2,0:0:0:0:
217,294,169424,2,0,P|169:328|124:325,1,99.0000030212403,2|10,1:2|0:2,0:0:0:0:
88,300,169826,1,0,1:0:0:0:
88,300,169960,2,0,L|96:249,2,49.5000015106202,2|0|10,1:2|1:0|0:2,0:0:0:0:
5,245,170495,6,0,P|27:192|32:136,1,99.0000030212403,2|8,1:2|0:0,0:0:0:0:
27,51,171031,2,0,L|91:32,1,49.5000015106202,2|0,1:2|1:0,0:0:0:0:
121,19,171299,1,8,0:0:0:0:
121,19,171433,2,0,P|173:67|199:62,1,99.0000030212403,2|2,0:0|1:0,0:0:0:0:
243,50,171835,2,0,L|220:164,2,99.0000030212403,8|2|8,0:0|1:0|0:0,0:0:0:0:
335,15,172638,6,0,P|381:17|419:57,1,99.0000030212403,2|8,1:2|0:0,0:0:0:0:
480,129,173174,2,0,P|414:151|397:186,1,99.0000030212403,2|8,0:0|0:0,0:0:0:0:
351,166,173576,2,0,P|362:214|368:286,1,99.0000030212403,2|2,0:0|1:0,0:0:0:0:
403,296,173977,5,8,0:0:0:0:
321,352,174245,1,2,1:0:0:0:
242,291,174513,5,8,0:0:0:0:
165,360,174781,2,0,P|106:368|46:371,1,99.0000030212403,2|8,1:2|0:0,0:0:0:0:
0,295,175317,2,0,L|13:235,1,49.5000015106202,2|2,0:0|1:0,0:0:0:0:
54,223,175585,5,8,0:0:0:0:
54,223,175718,2,0,P|38:172|34:108,1,99.0000030212403,2|2,0:2|1:0,0:0:0:0:
50,79,176120,1,8,0:0:0:0:
141,41,176388,2,0,L|131:113,2,49.5000015106202,0|2|8,0:0|1:0|0:0,0:0:0:0:
175,134,176924,6,0,P|226:110|290:107,1,99.0000030212403,2|8,1:2|0:0,0:0:0:0:
303,227,177460,2,0,P|282:264|296:327,1,99.0000030212403,2|8,0:0|0:0,0:0:0:0:
334,340,177861,2,0,L|397:315,1,49.5000015106202,2|2,0:0|1:0,0:0:0:0:
427,337,178129,5,2,1:0:0:0:
427,337,178263,2,0,L|439:237,2,99.0000030212403,10|2|10,0:2|1:2|0:2,0:0:0:0:
332,366,179067,6,0,P|269:350|250:306,1,99.0000030212403,2|8,1:2|0:0,0:0:0:0:
176,262,179602,2,0,L|125:256,1,49.5000015106202,2|0,1:2|0:0,0:0:0:0:
81,270,179870,1,8,0:0:0:0:
81,270,180004,2,0,P|54:229|58:159,1,99.0000030212403,2|2,0:2|1:0,0:0:0:0:
84,143,180406,2,0,B|68:70|68:70|84:40,2,99.0000030212403,8|0|8,0:0|0:0|0:0,0:0:0:0:
181,164,181210,6,0,P|237:160|285:151,1,99.0000030212403,2|8,1:2|0:0,0:0:0:0:
299,55,181745,2,0,P|355:51|420:48,1,99.0000030212403,2|8,0:2|0:0,0:0:0:0:
434,83,182147,2,0,L|420:143,1,49.5000015106202,2|2,0:2|1:0,0:0:0:0:
383,161,182415,5,2,1:0:0:0:
383,161,182549,2,0,P|404:216|407:258,2,99.0000030212403,8|2|8,0:0|1:0|0:0,0:0:0:0:
325,88,183352,6,0,P|266:114|222:105,1,99.0000030212403,2|8,1:2|0:0,0:0:0:0:
149,56,183888,1,2,0:2:0:0:
106,81,184022,2,0,L|115:150,1,49.5000015106202,2|8,1:0|0:0,0:0:0:0:
143,169,184290,2,0,P|113:212|101:276,1,99.0000030212403,2|2,0:2|1:0,0:0:0:0:
56,277,184692,6,0,L|63:335,1,49.5000015106202,10|2,0:2|1:0,0:0:0:0:
46,373,184960,2,0,P|102:354|156:351,1,99.0000030212403,2|10,1:0|0:2,0:0:0:0:
204,273,185495,5,2,0:0:0:0:
303,383,185897,1,0,0:0:0:0:
351,242,186299,1,2,0:0:0:0:
423,308,186567,1,2,0:0:0:0:
493,177,186968,2,0,P|500:126|494:72,1,99.0000030212403,2|0,0:0|0:0,0:0:0:0:
458,45,187370,1,2,0:0:0:0:
