osu file format v14

[General]
AudioFilename: audio.mp3
AudioLeadIn: 0
PreviewTime: 170428
Countdown: 0
SampleSet: Soft
StackLeniency: 0.3
Mode: 0
LetterboxInBreaks: 0
WidescreenStoryboard: 0

[Editor]
Bookmarks: 26877,44020,63305,80448,97591,106163,131857,153285
DistanceSpacing: 1.6
BeatDivisor: 4
GridSize: 32
TimelineZoom: 4.799998

[Metadata]
Title:Mermaid
TitleUnicode:マーメイド
Artist:monaca:factory feat. GEM
ArtistUnicode:monaca:factory feat. ジェム
Creator:cherrymeii
Version:Expert
Source:
Tags:anishina kodoku tatemae honne kyrian blastthekidd 0ppinosu yukic utaite cover vocaloid mars on the water planetary plate gumi japanese pop
BeatmapID:2969532
BeatmapSetID:1429665

[Difficulty]
HPDrainRate:5
CircleSize:4
OverallDifficulty:8
ApproachRate:9.3
SliderMultiplier:1.8
SliderTickRate:1

[Events]
//Background and Video events
0,0,"12.jpg",0,0
//Break Periods
2,97838,105656
//Storyboard Layer 0 (Background)
//Storyboard Layer 1 (Fail)
//Storyboard Layer 2 (Pass)
//Storyboard Layer 3 (Foreground)
//Storyboard Layer 4 (Overlay)
//Storyboard Sound Samples

[TimingPoints]
1210,267.857142857143,4,2,0,60,1,0
9647,-100,4,2,1,60,0,0
9781,-125,4,2,1,60,0,0
10183,-166.666666666667,4,2,1,60,0,0
10852,-200,4,2,1,60,0,0
11522,-166.666666666667,4,2,2,60,0,0
11924,-111.111111111111,4,2,1,60,0,0
12326,-142.857142857143,4,2,1,60,0,0
12727,-111.111111111111,4,2,1,60,0,0
13464,-166.666666666667,4,2,1,60,0,0
14067,-125,4,2,1,60,0,0
15138,-200,4,2,2,60,0,0
15674,-166.666666666667,4,2,1,60,0,0
16210,-111.111111111111,4,2,1,60,0,0
17281,-166.666666666667,4,2,1,60,0,0
18352,-100,4,2,1,60,0,0
18754,-125,4,2,1,60,0,0
19558,-166.666666666667,4,2,1,60,0,0
20093,-100,4,2,1,60,0,0
21165,-166.666666666667,4,2,1,60,0,0
21567,-166.666666666667,4,2,1,60,0,0
23040,-125,4,2,1,60,0,0
23710,-166.666666666667,4,2,2,60,0,0
24781,-166.666666666667,4,2,1,60,0,0
25317,-166.666666666667,4,2,2,60,0,0
25718,-1000,4,2,1,60,0,0
26120,-1000,4,2,1,55,0,0
26924,-111.111111111111,4,2,1,60,0,0
27460,-142.857142857143,4,2,1,60,0,0
27861,-111.111111111111,4,2,1,60,0,0
28263,-166.666666666667,4,2,1,60,0,0
29067,-111.111111111111,4,2,1,60,0,0
31745,-142.857142857143,4,2,1,60,0,0
32147,-111.111111111111,4,2,1,60,0,0
32549,-166.666666666667,4,2,1,60,0,0
32817,-250,4,2,1,60,0,0
33352,-111.111111111111,4,2,1,60,0,0
33888,-142.857142857143,4,2,1,60,0,0
34290,-90.9090909090909,4,2,1,60,0,0
34960,-125,4,2,1,60,0,0
35495,-83.3333333333333,4,2,1,60,0,0
36031,-90.9090909090909,4,2,1,60,0,0
36299,-111.111111111111,4,2,1,60,0,0
36433,-83.3333333333333,4,2,1,60,0,0
36835,-100,4,2,1,60,0,0
37102,-250.000000000001,4,2,1,60,0,0
37638,-111.111111111111,4,2,1,60,0,0
39245,-142.857142857143,4,2,1,60,0,0
39781,-111.111111111111,4,2,1,60,0,0
40317,-83.3333333333333,4,2,1,60,0,0
40518,-83.3333333333333,4,2,1,60,0,0
40585,-111.111111111111,4,2,1,60,0,0
40718,-90.9090909090909,4,2,1,60,0,0
41120,-100,4,2,1,60,0,0
41924,-1000,4,2,1,60,0,0
44066,-1000,4,2,1,55,0,0
44201,-250,4,2,1,55,0,0
45138,-250,4,2,2,60,0,0
46210,-100,4,2,1,60,0,0
47817,-83.3333333333333,4,2,1,60,0,0
48085,-250,4,2,1,60,0,0
48352,-76.9230769230769,4,2,1,60,0,0
48888,-250,4,2,1,60,0,0
49156,-90.9090909090909,4,2,1,60,0,0
49960,-166.666666666667,4,2,1,60,0,0
50495,-66.6666666666667,4,2,1,60,0,0
51031,-100,4,2,1,60,0,0
51433,-250.000000000001,4,2,1,60,0,0
52906,-83.3333333333333,4,2,1,60,0,0
54111,-100,4,2,1,60,0,0
55852,-100,4,2,2,60,0,0
56388,-111.111111111111,4,2,1,60,0,0
57995,-111.111111111111,4,2,1,60,0,0
59067,-111.111111111111,4,2,1,60,0,0
59602,-250,4,2,1,60,0,0
62281,-66.6666666666667,4,2,1,70,0,0
63352,-66.6666666666667,4,2,1,80,0,0
64290,-83.3333333333333,4,2,1,80,0,0
64960,-142.857142857143,4,2,1,80,0,0
65495,-66.6666666666667,4,2,1,80,0,0
66433,-66.6666666666667,4,2,1,80,0,0
66634,-66.6666666666667,4,2,1,5,0,0
66701,-250,4,2,1,80,0,0
67102,-83.3333333333333,4,2,1,80,0,0
67638,-58.8235294117647,4,2,1,80,0,0
67906,-66.6666666666667,4,2,1,80,0,0
68576,-62.5,4,2,1,80,0,0
68776,-62.5,4,2,1,5,0,0
68843,-100,4,2,1,80,0,0
68977,-90.9090909090909,4,2,1,80,0,0
69245,-142.857142857143,4,2,1,80,0,0
69781,-62.5,4,2,1,80,0,0
70049,-83.3333333333333,4,2,1,80,0,0
70317,-66.6666666666667,4,2,1,80,0,0
70585,-83.3333333333333,4,2,1,80,0,0
70852,-166.666666666667,4,2,1,80,0,0
71254,-100,4,2,1,80,0,0
71388,-66.6666666666667,4,2,1,80,0,0
71924,-58.8235294117647,4,2,1,80,0,0
72192,-58.8235294117647,4,2,1,80,0,0
72460,-66.6666666666667,4,2,1,80,0,0
72861,-47.6190476190476,4,2,1,80,0,0
73263,-76.9230769230769,4,2,1,80,0,0
73531,-142.857142857143,4,2,1,80,0,0
74067,-55.5555555555556,4,2,1,80,0,0
74335,-66.6666666666667,4,2,1,80,0,0
74602,-66.6666666666667,4,2,1,80,0,0
75004,-66.6666666666667,4,2,1,80,0,0
76210,-66.6666666666667,4,2,1,80,0,0
77817,-125,4,2,1,80,0,0
78352,-83.3333333333333,4,2,1,80,0,0
79424,-166.666666666667,4,2,1,80,0,0
79826,-100,4,2,1,80,0,0
80361,-100,4,2,1,70,0,0
81835,-66.6666666666667,4,2,1,70,0,0
83576,-100,4,2,1,70,0,0
83808,-100,4,2,1,5,0,0
83842,-100,4,2,1,70,0,0
83977,-83.3333333333333,4,2,1,70,0,0
84245,-100,4,2,1,70,0,0
86388,-66.6666666666667,4,2,1,70,0,0
86889,-66.6666666666667,4,2,1,5,0,0
86922,-66.6666666666667,4,2,1,70,0,0
87861,-100,4,2,1,70,0,0
88531,-66.6666666666667,4,2,1,70,0,0
89602,-76.9230769230769,4,2,1,70,0,0
90004,-66.6666666666667,4,2,1,70,0,0
91210,-76.9230769230769,4,2,1,70,0,0
92147,-90.9090909090909,4,2,1,70,0,0
92380,-90.9090909090909,4,2,1,5,0,0
92413,-90.9090909090909,4,2,1,70,0,0
92549,-66.6666666666667,4,2,1,70,0,0
92817,-100,4,2,1,70,0,0
93352,-66.6666666666667,4,2,1,70,0,0
95460,-66.6666666666667,4,2,1,5,0,0
95495,-100,4,2,1,70,0,0
97638,-100,4,2,1,60,0,0
106745,-125,4,2,1,60,0,0
107013,-66.6666666666667,4,2,1,60,0,0
107817,-100,4,2,1,60,0,0
108085,-333.333333333333,4,2,1,60,0,0
108352,-333.333333333333,4,2,1,60,0,0
108888,-333.333333333333,4,2,1,60,0,0
109960,-100,4,2,1,60,0,0
110227,-333.333333333334,4,2,1,60,0,0
110495,-111.111111111111,4,2,1,60,0,0
112102,-100,4,2,1,60,0,0
112370,-83.3333333333333,4,2,1,60,0,0
112638,-100,4,2,1,60,0,0
113174,-66.6666666666667,4,2,1,60,0,0
113977,-83.3333333333333,4,2,1,60,0,0
114245,-166.666666666667,4,2,1,60,0,0
115317,-100,4,2,1,60,0,0
115718,-125,4,2,1,60,0,0
116388,-200,4,2,1,60,0,0
117460,-333.333333333333,4,2,1,60,0,0
121210,-181.818181818182,4,2,1,60,0,0
124424,-250,4,2,1,60,0,0
125495,-250,4,2,1,60,0,0
125763,-250,4,2,1,5,0,0
126031,-333.333333333333,4,2,1,60,0,0
126299,-250,4,2,1,5,0,0
126567,-250,4,2,1,60,0,0
126835,-250,4,2,1,5,0,0
127102,-333.333333333333,4,2,1,60,0,0
127370,-222.222222222222,4,2,1,5,0,0
127638,-250,4,2,1,60,0,0
128174,-333.333333333333,4,2,1,60,0,0
128710,-500,4,2,1,60,0,0
129781,-285.714285714286,4,2,1,60,0,0
131924,-125,4,2,1,70,0,0
135138,-153.846153846154,4,2,1,70,0,0
135674,-166.666666666667,4,2,1,70,0,0
135942,-66.6666666666667,4,2,1,70,0,0
136209,-66.6666666666667,4,2,1,80,0,0
138317,-66.6666666666667,4,2,1,5,0,0
138351,-66.6666666666667,4,2,1,80,0,0
139558,-125,4,2,1,80,0,0
139692,-66.6666666666667,4,2,1,80,0,0
140996,-66.6666666666667,4,2,1,5,0,0
141030,-66.6666666666667,4,2,1,80,0,0
141701,-125,4,2,1,80,0,0
141835,-66.6666666666667,4,2,1,80,0,0
142102,-125,4,2,1,80,0,0
142638,-55.5555555555556,4,2,1,80,0,0
143977,-125,4,2,1,80,0,0
144245,-66.6666666666667,4,2,1,80,0,0
144344,-66.6666666666667,4,2,1,5,0,0
144378,-66.6666666666667,4,2,1,80,0,0
146889,-66.6666666666667,4,2,1,5,0,0
146922,-66.6666666666667,4,2,1,80,0,0
149567,-66.6666666666667,4,2,1,5,0,0
149601,-66.6666666666667,4,2,1,80,0,0
152281,-166.666666666667,4,2,1,80,0,0
152549,-66.6666666666667,4,2,1,80,0,0
153352,-50,4,2,1,85,0,0
153620,-58.8235294117647,4,2,1,85,0,0
153888,-55.5555555555556,4,2,1,85,0,0
154290,-66.6666666666667,4,2,1,85,0,0
154558,-55.5555555555556,4,2,1,85,0,0
154960,-55.5555555555556,4,2,1,85,0,0
155227,-66.6666666666667,4,2,1,85,0,0
155495,-41.6666666666667,4,2,1,85,0,0
155763,-50,4,2,1,85,0,0
156031,-45.4545454545455,4,2,1,85,0,0
156299,-50,4,2,1,85,0,0
156433,-55.5555555555556,4,2,1,85,0,0
156701,-50,4,2,1,85,0,0
157370,-66.6666666666667,4,2,1,85,0,0
157638,-62.5,4,2,1,85,0,0
157906,-50,4,2,1,85,0,0
158576,-62.5,4,2,1,85,0,0
158843,-125,4,2,1,85,0,0
158977,-55.5555555555556,4,2,1,85,0,0
159513,-62.5,4,2,1,85,0,0
160817,-62.5,4,2,1,5,0,0
160852,-166.666666666667,4,2,1,85,0,0
161388,-55.5555555555556,4,2,1,85,0,0
161656,-45.4545454545455,4,2,1,85,0,0
161924,-66.6666666666667,4,2,1,85,0,0
162192,-55.5555555555556,4,2,1,85,0,0
163129,-55.5555555555556,4,2,1,85,0,0
163799,-55.5555555555556,4,2,1,85,0,0
164067,-58.8235294117647,4,2,1,85,0,0
164335,-66.6666666666667,4,2,1,85,0,0
164602,-55.5555555555556,4,2,1,85,0,0
165674,-66.6666666666667,4,2,1,85,0,0
165942,-166.666666666667,4,2,1,85,0,0
166210,-55.5555555555556,4,2,1,85,0,0
166477,-55.5555555555556,4,2,1,85,0,0
166745,-41.6666666666667,4,2,1,85,0,0
167147,-55.5555555555556,4,2,1,85,0,0
168085,-166.666666666667,4,2,1,85,0,0
168352,-111.111111111111,4,2,1,85,0,0
168620,-125,4,2,1,85,0,0
168888,-111.111111111111,4,2,1,85,0,0
169156,-166.666666666666,4,2,1,85,0,0
169424,-166.666666666667,4,2,1,85,0,0
169692,-100,4,2,1,85,0,0
169960,-166.666666666667,4,2,1,85,0,0
170227,-125,4,2,1,85,0,0
170495,-125,4,2,1,70,0,0
170763,-83.3333333333333,4,2,1,70,0,0
171031,-66.6666666666667,4,2,1,70,0,0
171433,-83.3333333333333,4,2,1,70,0,0
174781,-66.6666666666667,4,2,1,70,0,0
175451,-66.6666666666667,4,2,1,70,0,0
175718,-45.4545454545455,4,2,1,70,0,0
176120,-58.8235294117647,4,2,1,70,0,0
176388,-66.6666666666667,4,2,1,70,0,0
176656,-71.4285714285714,4,2,1,70,0,0
176924,-62.5,4,2,1,70,0,0
177460,-83.3333333333333,4,2,1,70,0,0
178531,-66.6666666666667,4,2,1,70,0,0
178799,-62.5,4,2,1,70,0,0
179067,-66.6666666666667,4,2,1,70,0,0
180942,-76.9230769230769,4,2,1,70,0,0
181210,-66.6666666666667,4,2,1,70,0,0
181477,-66.6666666666667,4,2,1,70,0,0
182013,-76.9230769230769,4,2,1,70,0,0
182549,-83.3333333333333,4,2,1,70,0,0
183620,-166.666666666667,4,2,1,70,0,0
184022,-83.3333333333333,4,2,1,70,0,0
185495,-125,4,2,1,70,0,0
185763,-125,4,2,1,5,0,0
185897,-125,4,2,1,70,0,0
186165,-125,4,2,1,5,0,0
186299,-100,4,2,1,70,0,0
186433,-100,4,2,1,5,0,0
186567,-250,4,2,1,70,0,0

[Colours]
Combo1 : 250,152,240
Combo2 : 0,210,210

[HitObjects]
391,90,9647,5,0,0:0:0:0:
289,197,9781,2,0,L|231:209,2,36
465,255,10049,5,0,0:0:0:0:
387,170,10183,2,0,P|333:168|289:198,1,107.999996704102
114,234,10585,6,0,P|132:277|166:285,1,80.9999975280763
163,286,10852,6,0,P|145:197|160:103,1,180,2|0,0:0|0:0,0:0:0:0:
260,29,11522,5,2,0:0:0:0:
260,29,11656,1,2,0:0:0:0:
260,29,11790,1,2,0:0:0:0:
425,61,11924,6,0,P|394:134|328:98,1,161.999995056153,2|0,1:0|0:0,0:0:0:0:
342,0,12326,2,0,P|332:62|313:123,1,125.999996154785
191,211,12727,2,0,P|202:185|253:177,1,80.9999975280763
436,106,12995,1,2,0:0:0:0:
331,242,13464,6,0,P|323:216|318:204,4,26.9999991760254
290,92,14067,1,0,1:0:0:0:
512,180,14335,5,0,0:0:0:0:
395,272,14468,2,0,L|308:257,1,72
413,363,14736,5,0,0:0:0:0:
319,267,14870,2,0,L|232:252,1,72
64,348,15138,2,0,P|137:328|143:265,1,135,2|0,0:1|0:0,0:0:0:0:
87,225,15674,6,0,P|76:235|74:257,1,26.9999991760254
203,201,15942,2,0,P|224:198|240:205,3,26.9999991760254,2|0|0|0,0:0|0:0|0:0|0:0,0:0:0:0:
214,359,16210,6,0,P|195:280|205:193,1,161.999995056153,2|0,1:2|0:0,0:0:0:0:
1,154,16745,5,0,0:0:0:0:
1,154,16879,1,0,0:0:0:0:
169,101,17013,1,0,0:0:0:0:
111,211,17281,5,2,0:0:0:0:
62,56,17817,1,2,0:3:0:0:
39,326,18352,6,0,P|107:269|195:253,1,180,2|0,1:0|0:0,0:0:0:0:
307,346,18754,2,0,P|362:322|334:249,1,144
257,151,19156,2,0,P|249:184|277:211,2,72
395,96,19558,6,0,L|368:90,1,26.9999991760254,2|0,0:0|0:0,0:0:0:0:
290,72,19826,2,0,L|263:66,1,26.9999991760254,2|0,0:0|0:0,0:0:0:0:
451,220,20093,2,0,P|438:134|458:43,1,180
257,151,20495,1,2,1:0:0:0:
501,316,20763,5,0,0:0:0:0:
340,216,20897,1,0,0:0:0:0:
286,326,21165,6,0,P|240:274|202:293,1,107.999996704102
128,231,21567,2,0,P|104:316|16:327,1,188.999994232178,2|0,0:0|0:0,0:0:0:0:
9,319,22102,6,0,L|16:296,8,13.4999995880127
164,134,22504,5,0,0:0:0:0:
89,104,22638,1,2,1:2:0:0:
89,104,22705,1,0,0:0:0:0:
89,104,22772,2,0,P|60:113|18:120,1,53.9999983520508
194,221,23040,2,0,P|198:160|237:71,1,144
242,3,23442,2,0,P|283:11|294:45,1,72,2|0,0:0|0:0,0:0:0:0:
504,0,23710,6,0,P|448:89|373:28,2,216,2|2|0,0:1|0:3|1:0,0:0:0:0:
234,98,25317,5,2,0:1:0:0:
438,167,25718,2,0,L|443:184,1,18,2|0,1:1|0:0,0:0:0:0:
444,185,26120,1,2,1:1:0:0:
497,248,26388,5,2,0:3:0:0:
471,268,26477,1,0,0:0:0:0:
423,271,26567,1,0,0:0:0:0:
381,239,26656,1,0,0:0:0:0:
305,213,26745,1,0,0:0:0:0:
236,255,26835,1,0,0:0:0:0:
249,336,26924,6,0,P|266:257|272:177,1,161.999995056153,2|0,1:2|0:0,0:0:0:0:
53,79,27460,2,0,P|40:141|102:171,1,125.999996154785,8|0,0:0|0:0,0:0:0:0:
159,140,27861,2,0,P|210:97|310:76,1,161.999995056153,2|0,1:2|0:0,0:0:0:0:
453,31,28263,6,0,P|448:43|447:57,2,26.9999991760254,2|0|0,1:2|0:0|0:0,0:0:0:0:
314,61,28531,5,10,2:2:0:0:
380,112,28665,1,2,2:3:0:0:
259,159,28799,5,2,2:3:0:0:
387,110,28933,1,2,2:3:0:0:
423,184,29067,6,0,P|428:103|446:24,1,161.999995056153,2|0,1:2|0:0,0:0:0:0:
498,216,29602,1,8,0:0:0:0:
498,216,30004,2,0,P|417:231|318:261,1,161.999995056153,2|0,1:2|0:0,0:0:0:0:
143,277,30406,1,2,1:2:0:0:
193,343,30540,1,0,0:0:0:0:
275,336,30674,6,0,P|257:257|236:179,1,161.999995056153,8|0,0:0|0:0,0:0:0:0:
285,112,31076,1,0,0:0:0:0:
42,220,31210,6,0,P|107:201|167:129,1,161.999995056153,2|0,1:2|0:0,0:0:0:0:
103,9,31745,2,0,P|62:76|95:114,1,125.999996154785,8|0,0:0|0:0,0:0:0:0:
186,243,32147,2,0,P|264:261|334:305,1,161.999995056153,2|0,1:2|0:0,0:0:0:0:
383,368,32549,6,0,P|404:353|411:327,1,53.9999983520508,2|0,1:2|0:0,0:0:0:0:
453,168,32817,1,10,0:2:0:0:
22,234,33352,6,0,P|4:302|80:321,1,161.999995056153,2|0,1:2|0:0,0:0:0:0:
227,169,33888,2,0,P|281:187|278:253,1,125.999996154785,8|0,0:0|0:0,0:0:0:0:
249,358,34290,2,0,P|193:278|102:244,1,198.000006042481,2|8,1:2|0:0,0:0:0:0:
101,243,34692,1,2,1:0:0:0:
282,249,34826,5,0,0:0:0:0:
282,249,34893,1,0,0:0:0:0:
282,249,34960,2,0,L|371:269,1,72,10|0,0:2|0:0,0:0:0:0:
483,158,35227,2,0,L|412:174,1,72
196,128,35495,2,0,P|153:98|160:47,1,107.999996704102,2|0,1:2|0:0,0:0:0:0:
169,46,35696,1,0,0:0:0:0:
171,39,35763,1,0,0:0:0:0:
415,2,36031,6,0,P|348:32|311:95,1,148.50000453186,10|0,0:0|0:0,0:0:0:0:
318,95,36299,2,0,P|326:69|343:51,1,40.4999987640381
196,128,36433,6,0,P|305:137|405:195,1,215.999993408203,2|0,1:2|0:0,0:0:0:0:
417,265,36835,2,0,P|458:252|475:212,1,90,2|0,1:2|0:0,0:0:0:0:
298,68,37102,5,8,0:0:0:0:
321,163,37236,1,2,0:3:0:0:
213,138,37370,5,2,0:3:0:0:
404,97,37504,1,2,0:3:0:0:
275,229,37638,6,0,P|168:211|105:202,1,161.999995056153,2|0,1:2|0:0,0:0:0:0:
167,349,38174,5,8,0:0:0:0:
46,246,38576,2,0,B|-16:192|-16:192|4:85,1,161.999995056153,2|0,1:2|0:0,0:0:0:0:
115,0,38977,1,2,1:2:0:0:
141,77,39111,1,0,0:0:0:0:
61,60,39245,2,0,L|194:38,1,125.999996154785,10|0,0:2|0:0,0:0:0:0:
353,139,39647,5,0,0:0:0:0:
433,122,39781,2,0,L|254:93,1,161.999995056153,2|0,1:2|0:0,0:0:0:0:
102,283,40317,6,0,P|151:220|228:198,1,161.999995056153,10|0,0:0|0:0,0:0:0:0:
225,204,40585,2,0,P|203:208|183:214,1,40.4999987640381
299,287,40718,6,0,P|269:194|272:95,1,198.000006042481,2|0,1:2|0:0,0:0:0:0:
256,18,41120,2,0,P|304:13|332:44,1,90,0|0,1:0|0:0,0:0:0:0:
478,128,41388,5,8,0:0:0:0:
411,81,41522,1,0,0:0:0:0:
412,29,41656,1,0,0:0:0:0:
441,5,41790,5,0,0:0:0:0:
411,193,41924,1,2,0:0:0:0:
107,90,44067,5,2,0:0:0:0:
107,90,44134,1,0,0:0:0:0:
107,90,44201,2,0,L|101:64,2,18
83,167,44468,1,0,0:0:0:0:
13,207,44602,1,0,0:0:0:0:
13,207,44736,1,2,0:0:0:0:
239,172,45004,5,0,0:0:0:0:
162,150,45138,1,2,0:1:0:0:
134,223,45808,5,2,0:3:0:0:
146,240,45942,1,2,0:3:0:0:
143,261,46076,1,2,0:3:0:0:
40,323,46210,6,0,L|245:290,1,180,2|0,1:0|0:0,0:0:0:0:
370,246,46745,5,0,0:0:0:0:
298,209,46879,1,0,1:0:0:0:
512,327,47147,5,0,0:0:0:0:
394,364,47281,2,0,P|406:264|436:178,1,180,10|0,0:0|0:0,0:0:0:0:
195,36,47817,6,0,P|185:103|275:121,1,161.999995056153
272,136,48085,2,0,L|279:109,3,18
404,47,48352,6,0,B|322:-4|322:-4|374:150,1,233.999989288331,2|0,1:2|0:0,0:0:0:0:
364,126,48888,6,0,P|355:140|351:158,1,36
512,227,49156,2,0,P|474:195|427:179,1,99.0000030212403
293,214,49424,1,2,0:0:0:0:
29,72,49960,6,2,B|25:74|121:-10|148:108,1,161.999995056153,2|0,0:0|0:0,0:0:0:0:
178,67,50495,6,0,P|163:139|152:209,1,135.000005149842,2|0,1:2|0:0,0:0:0:0:
40,176,51031,2,0,P|63:216|99:258,1,90,2|0,0:3|1:3,0:0:0:0:
57,323,51433,2,0,P|87:329|97:329,1,36,2|10,0:3|0:0,0:0:0:0:
449,193,52102,6,0,L|441:223,1,18,2|0,1:0|0:0,0:0:0:0:
391,271,52236,2,0,L|373:275,1,18,2|0,1:0|0:0,0:0:0:0:
482,300,52370,2,0,L|469:287,1,18,2|0,1:0|0:0,0:0:0:0:
306,229,52638,5,2,1:0:0:0:
306,229,52705,1,0,0:0:0:0:
306,229,52772,1,0,0:0:0:0:
306,229,52839,1,0,0:0:0:0:
306,229,52906,6,0,P|273:266|210:287,1,107.999996704102,0|2,0:0|0:0,0:0:0:0:
368,172,53174,2,0,P|357:118|347:53,1,107.999996704102
487,349,53576,1,0,0:0:0:0:
414,381,53710,2,0,P|375:355|307:331,1,107.999996704102,0|2,0:0|0:0,0:0:0:0:
141,265,54111,2,0,P|121:286|88:301,1,45,2|0,0:0|0:0,0:0:0:0:
171,120,54379,5,2,0:3:0:0:
171,120,54513,1,2,0:3:0:0:
171,120,54647,1,2,0:3:0:0:
205,193,54781,6,0,L|232:15,1,180,2|0,1:0|0:0,0:0:0:0:
0,195,55317,1,0,0:0:0:0:
66,240,55451,2,0,L|265:202,1,180
495,223,55852,2,0,B|517:178|517:178|466:119|466:119|287:150,1,270,2|0,0:1|0:0,0:0:0:0:
391,213,56388,6,0,P|388:254|376:303,1,80.9999975280763
326,143,56656,2,0,P|331:102|346:56,1,80.9999975280763,2|0,0:3|0:0,0:0:0:0:
404,16,56924,1,2,1:2:0:0:
446,82,57192,1,2,1:0:0:0:
305,290,57995,5,2,0:3:0:0:
176,101,59067,1,2,0:0:0:0:
30,213,59602,6,0,L|23:238,1,18,4|0,0:3|0:0,0:0:0:0:
256,192,60138,12,0,62013,0:0:0:0:
30,106,62281,6,0,B|87:198|62:282|62:282|58:189|139:121,1,371.250014162064
178,193,62750,5,0,0:0:0:0:
219,112,62850,1,0,0:0:0:0:
257,186,62951,5,0,0:0:0:0:
289,144,63051,1,0,0:0:0:0:
333,178,63151,5,0,0:0:0:0:
495,279,63352,6,0,B|382:257|382:257|361:279,1,135.000005149842,2|2,1:2|1:0,0:0:0:0:
198,241,63553,1,2,1:0:0:0:
198,241,63620,2,0,P|201:318|260:330,1,135.000005149842,8|2,0:1|1:0,0:0:0:0:
342,384,63888,2,0,P|325:316|351:168,1,202.500007724762,2|0,0:2|0:0,0:0:0:0:
511,119,64156,1,8,0:1:0:0:
421,66,64290,6,0,P|429:153|497:97,2,215.999993408203,2|2|2,0:2|1:0|1:0,0:0:0:0:
227,85,64960,6,0,P|194:90|156:94,1,62.9999980773926,0|2,0:0|1:0,0:0:0:0:
348,19,65227,2,0,P|318:24|275:28,1,62.9999980773926,8|0,0:1|0:0,0:0:0:0:
0,323,65495,6,0,P|25:270|110:277,1,135.000005149842,2|2,1:2|1:0,0:0:0:0:
183,192,65696,5,2,1:0:0:0:
183,192,65763,2,0,P|235:246|304:261,1,135.000005149842,8|2,0:1|1:0,0:0:0:0:
185,316,66031,2,0,P|176:249|162:168,2,135.000005149842,2|2|8,0:2|1:0|0:1,0:0:0:0:
315,372,66433,6,0,P|383:299|481:281,1,202.500007724762,2|0,0:2|0:0,0:0:0:0:
476,289,66701,1,2,1:0:0:0:
296,175,66835,1,8,0:1:0:0:
370,283,66968,1,2,1:0:0:0:
498,93,67102,6,0,L|478:212,1,107.999996704102,0|2,0:0|1:0,0:0:0:0:
244,94,67370,5,8,0:1:0:0:
401,46,67504,1,0,0:0:0:0:
487,192,67638,2,0,P|429:143|356:125,1,153.000002918243,2|2,1:2|1:0,0:0:0:0:
140,73,67906,2,0,P|129:136|185:167,1,135.000005149842,8|2,0:1|1:0,0:0:0:0:
272,5,68174,5,2,0:0:0:0:
296,175,68308,1,2,1:0:0:0:
296,175,68375,1,0,0:0:0:0:
296,175,68442,1,8,0:1:0:0:
426,234,68576,6,0,P|318:255|212:334,1,216,2|0,0:2|0:0,0:0:0:0:
273,382,68843,1,2,1:0:0:0:
273,382,68910,1,0,0:0:0:0:
273,382,68977,2,0,P|313:329|300:283,1,99.0000030212403,8|2,0:1|1:0,0:0:0:0:
117,343,69245,5,0,0:0:0:0:
175,184,69379,1,2,1:0:0:0:
158,273,69513,5,8,0:1:0:0:
7,158,69647,1,0,0:0:0:0:
25,345,69781,6,0,P|124:304|231:313,1,216,2|0,1:2|0:0,0:0:0:0:
175,184,70049,2,0,P|142:224|158:273,1,107.999996704102,8|2,0:1|1:0,0:0:0:0:
460,325,70317,6,0,P|348:307|325:216,1,202.500007724762,2|0,0:2|0:0,0:0:0:0:
304,235,70585,2,0,P|335:192|349:138,1,107.999996704102,8|2,0:1|0:2,0:0:0:0:
461,79,70852,2,2,L|416:88,4,26.9999991760254,2|0|0|0|0,1:0|0:0|0:0|0:0|0:0,0:0:0:0:
367,145,71254,6,0,P|355:101|345:58,1,90,2|0,1:0|0:0,0:0:0:0:
487,230,71522,5,2,1:0:0:0:
264,155,71656,1,8,0:1:0:0:
410,299,71790,5,2,1:0:0:0:
410,299,71857,1,2,1:0:0:0:
410,299,71924,2,0,P|370:227|310:247,1,153.000002918243,2|2,1:2|1:0,0:0:0:0:
158,303,72192,2,0,P|139:366|59:342,1,153.000002918243,8|2,0:1|1:0,0:0:0:0:
257,373,72460,6,0,B|220:195|220:195|200:188,1,202.500007724762,2|0,1:2|0:0,0:0:0:0:
123,165,72727,1,8,0:1:0:0:
344,85,72861,6,0,B|377:84|402:100|402:100|325:113|285:148,1,188.999994232178,2|0,1:2|0:0,0:0:0:0:
69,226,73129,1,2,1:0:0:0:
69,226,73196,1,2,1:0:0:0:
69,226,73263,2,0,P|21:196|34:138,1,116.999994644165,8|2,0:1|1:0,0:0:0:0:
224,22,73531,5,0,0:0:0:0:
200,188,73665,1,2,1:0:0:0:
78,80,73799,2,0,L|153:92,1,62.9999980773926,8|2,0:1|1:0,0:0:0:0:
481,272,74067,6,0,P|414:227|334:219,1,161.999995056153,2|2,1:2|1:0,0:0:0:0:
298,135,74268,1,2,1:0:0:0:
303,133,74335,2,0,P|292:206|233:224,1,135.000005149842,8|0,0:1|0:0,0:0:0:0:
0,281,74602,6,0,B|34:324|32:375|32:375|60:333|118:314,1,202.500007724762,2|0,1:2|0:0,0:0:0:0:
74,245,74870,1,8,0:1:0:0:
198,318,75004,6,0,P|192:234|162:180,1,135.000005149842,2|0,1:2|0:0,0:0:0:0:
25,24,75272,5,2,1:0:0:0:
156,91,75406,1,8,0:1:0:0:
84,128,75540,1,2,1:0:0:0:
202,0,75674,1,0,0:0:0:0:
250,75,75808,1,2,1:0:0:0:
362,0,75942,5,8,0:1:0:0:
294,188,76076,1,0,0:0:0:0:
471,95,76210,6,0,B|357:119|357:119|349:137,1,135.000005149842,2|0,1:2|0:0,0:0:0:0:
453,308,76477,2,0,P|462:237|416:171,1,135.000005149842,8|0,0:1|0:0,0:0:0:0:
228,10,76745,2,0,P|245:70|188:94,2,135.000005149842,2|0|8,1:2|1:0|0:1,0:0:0:0:
62,228,77147,6,0,B|21:179|89:104|179:156|152:219,1,202.500007724762,2|0,0:2|0:0,0:0:0:0:
169,223,77415,1,2,1:0:0:0:
169,223,77482,1,0,0:0:0:0:
169,223,77549,2,0,P|136:281|117:348,1,135.000005149842,8|2,0:1|1:1,0:0:0:0:
418,214,77817,6,0,B|437:185|437:185|427:148,1,72,0|2,0:0|1:0,0:0:0:0:
270,124,78085,2,0,B|251:153|251:153|261:190,1,72,8|0,0:3|0:0,0:0:0:0:
382,374,78352,6,0,P|340:270|346:164,3,215.999993408203,2|8|2|8,1:2|0:0|1:2|0:0,0:0:0:0:
3,83,79424,2,0,L|48:92,4,26.9999991760254,2|2|2|2|8,1:0|1:0|1:0|1:0|0:2,0:0:0:0:
97,149,79826,6,0,P|109:105|119:62,1,90,2|0,1:0|1:0,0:0:0:0:
187,19,80093,5,0,1:0:0:0:
297,179,80227,1,8,0:2:0:0:
21,184,80361,5,0,0:0:0:0:
17,181,80428,1,2,1:0:0:0:
22,179,80495,1,2,1:2:0:0:
100,160,80629,1,0,0:0:0:0:
178,141,80763,1,8,0:0:0:0:
20,186,81031,5,2,1:2:0:0:
20,186,81165,1,2,1:0:0:0:
183,147,81299,1,8,0:0:0:0:
76,49,81433,6,0,B|99:89|99:89|91:135,1,90,2|0,0:2|1:0,0:0:0:0:
158,291,81701,5,2,1:0:0:0:
238,338,81835,2,0,L|264:192,1,135.000005149842,10|2,0:2|1:0,0:0:0:0:
486,118,82102,2,0,B|432:124|419:177|419:177|370:189,2,135.000005149842,2|0|10,0:2|1:0|0:2,0:0:0:0:
500,201,82504,5,0,1:0:0:0:
494,199,82571,1,0,0:0:0:0:
497,196,82638,1,2,1:2:0:0:
419,177,82772,1,0,0:0:0:0:
341,158,82906,1,8,0:0:0:0:
499,203,83174,5,2,1:2:0:0:
499,203,83308,1,0,0:0:0:0:
336,164,83442,1,8,0:0:0:0:
442,66,83576,6,0,B|419:106|419:106|426:149,1,90,2|0,0:2|1:0,0:0:0:0:
502,282,83843,1,0,1:0:0:0:
360,349,83977,2,0,B|275:369|275:369|261:387,1,107.999996704102,10|2,0:2|1:0,0:0:0:0:
410,277,84245,5,0,0:0:0:0:
478,384,84379,1,2,1:0:0:0:
303,270,84513,2,0,P|260:252|206:244,1,90,10|2,0:2|1:0,0:0:0:0:
22,179,84781,5,2,1:2:0:0:
100,160,84915,1,0,0:0:0:0:
178,141,85049,1,8,0:0:0:0:
20,186,85317,5,2,1:2:0:0:
20,186,85451,1,2,1:0:0:0:
183,147,85585,1,8,0:0:0:0:
76,49,85719,6,0,B|69:94|69:94|99:136,1,90,2|2,0:2|1:0,0:0:0:0:
292,277,85986,5,2,1:0:0:0:
183,147,86120,1,10,0:2:0:0:
66,323,86254,5,2,1:0:0:0:
120,262,86388,2,0,P|107:189|91:116,1,135.000005149842,2|0,0:2|1:0,0:0:0:0:
225,56,86656,6,0,P|313:92|308:187,1,202.500007724762,10|0,0:2|0:0,0:0:0:0:
292,199,86924,6,0,B|398:220|398:220|412:245,1,135.000005149842,2|0,1:2|0:0,0:0:0:0:
405,382,87192,2,0,P|340:348|349:289,1,135.000005149842,8|2,0:0|1:0,0:0:0:0:
403,138,87460,2,0,P|430:74|437:8,1,135.000005149842,2|2,0:2|1:0,0:0:0:0:
472,184,87727,5,8,0:0:0:0:
213,227,87861,2,0,L|120:243,1,90,2|2,0:2|1:0,0:0:0:0:
226,147,88129,5,2,1:2:0:0:
344,294,88263,1,8,0:0:0:0:
63,300,88397,5,2,1:0:0:0:
63,300,88464,1,0,0:0:0:0:
63,300,88531,2,0,P|82:236|86:163,1,135.000005149842,2|2,0:2|1:0,0:0:0:0:
282,1,88799,5,10,0:0:0:0:
322,4,88866,1,0,0:0:0:0:
347,35,88933,1,2,1:0:0:0:
350,75,89000,1,0,0:0:0:0:
329,110,89067,6,0,P|252:125|177:157,1,135.000005149842,2|0,1:2|0:0,0:0:0:0:
84,69,89335,5,8,0:0:0:0:
84,69,89468,1,2,1:0:0:0:
15,119,89602,2,0,B|-7:65|-7:65|17:11,2,116.999994644165,2|2|8,0:2|1:0|0:0,0:0:0:0:
180,236,90004,6,0,P|171:164|103:145,1,135.000005149842,2|0,0:2|1:0,0:0:0:0:
44,268,90272,5,2,1:0:0:0:
120,295,90406,2,0,P|194:282|293:270,1,135.000005149842,10|2,0:2|1:0,0:0:0:0:
512,165,90674,2,0,B|406:138|406:138|386:160,1,135.000005149842,2|0,0:2|0:0,0:0:0:0:
306,7,90875,1,2,1:0:0:0:
306,7,90942,2,0,P|289:80|337:96,1,135.000005149842,10|0,0:2|0:0,0:0:0:0:
427,228,91210,6,0,P|372:296|340:377,1,175.499991966248,2|0,1:2|0:0,0:0:0:0:
262,369,91477,2,0,B|222:325|222:325|244:260,1,116.999994644165,8|2,0:0|1:0,0:0:0:0:
313,233,91745,5,2,1:2:0:0:
313,233,91879,1,2,1:0:0:0:
148,259,92013,1,8,0:0:0:0:
220,193,92147,6,0,P|216:148|201:93,1,99.0000030212403,2|2,0:2|1:0,0:0:0:0:
127,68,92415,1,2,1:0:0:0:
202,96,92549,6,0,L|350:61,1,135.000005149842,10|2,0:0|1:0,0:0:0:0:
388,204,92817,2,0,P|391:159|397:115,1,90,2|2,0:0|1:0,0:0:0:0:
512,134,93085,2,0,P|484:101|450:52,1,90,10|2,0:0|1:0,0:0:0:0:
260,225,93352,6,0,L|465:251,1,202.500007724762,2|0,1:2|0:0,0:0:0:0:
460,250,93620,2,0,P|384:258|314:296,1,135.000005149842,8|2,0:0|1:0,0:0:0:0:
332,282,93888,6,0,L|274:75,1,202.500007724762,2|0,1:2|0:0,0:0:0:0:
277,87,94156,2,0,B|235:141|235:141|154:162,1,135.000005149842,8|2,0:0|0:2,0:0:0:0:
45,105,94424,5,2,1:0:0:0:
45,105,94558,1,2,1:0:0:0:
30,14,94692,2,0,B|94:30|94:30|136:84,1,135.000005149842,10|2,0:2|1:0,0:0:0:0:
118,218,94960,6,0,P|125:153|143:52,1,135.000005149842,2|0,0:2|1:0,0:0:0:0:
10,248,95227,2,0,P|110:260|211:275,1,202.500007724762,10|0,0:2|0:0,0:0:0:0:
354,321,95495,5,2,1:2:0:0:
276,338,95763,1,10,0:0:0:0:
354,321,96031,1,2,1:2:0:0:
510,287,96299,1,10,0:0:0:0:
432,304,96567,1,2,0:0:0:0:
354,321,96835,1,10,0:0:0:0:
276,338,97102,1,2,0:0:0:0:
354,321,97370,1,10,0:0:0:0:
120,372,97638,5,0,1:0:0:0:
57,78,106210,5,2,1:0:0:0:
57,78,106343,2,0,P|36:35|3:-9,2,90,2|0|0,1:0|0:0|0:0,0:0:0:0:
95,204,106745,6,0,P|71:185|95:201,1,108,10|0,0:0|0:0,0:0:0:0:
146,124,107013,6,0,P|140:102|149:122,1,67.5000025749208
229,91,107147,5,2,1:0:0:0:
229,91,107415,1,2,1:0:0:0:
229,91,107683,1,0,0:0:0:0:
509,82,107817,6,0,P|438:66|358:50,1,135,8|0,0:0|0:0,0:0:0:0:
367,38,108085,2,0,L|360:64,1,26.9999991760254
441,281,108352,2,0,L|430:255,3,26.9999991760254,2|0|0|0,1:0|0:0|0:0|0:0,0:0:0:0:
368,206,108888,2,0,L|351:194,4,13.4999995880127,10|0|0|0|0,0:0|0:0|0:0|0:0|0:0,0:0:0:0:
279,188,109290,1,2,1:0:0:0:
279,188,109424,1,0,0:0:0:0:
440,151,109558,5,10,0:0:0:0:
279,188,109692,1,2,1:0:0:0:
204,273,109960,6,0,P|200:205|176:142,1,135,10|0,0:0|0:0,0:0:0:0:
242,98,110227,2,0,L|245:84,3,13.4999995880127
130,303,110495,6,0,P|67:306|6:381,2,161.999995056153,2|0|8,1:2|0:0|0:0,0:0:0:0:
403,368,111299,6,0,P|419:345|417:327,1,40.4999987640381,2|0,0:0|0:0,0:0:0:0:
340,317,111433,1,2,1:2:0:0:
340,317,111701,1,2,1:0:0:0:
340,317,111969,1,0,1:0:0:0:
279,370,112102,2,0,P|235:350|236:304,1,90,8|0,0:0|0:0,0:0:0:0:
458,257,112370,2,0,P|499:236|482:171,1,107.999996704102
500,169,112638,6,0,L|393:187,1,90,2|0,1:2|0:0,0:0:0:0:
332,200,112906,2,0,L|225:218,1,90
68,173,113174,2,0,B|25:119|25:119|54:17,1,135.000005149842,10|0,0:0|0:0,0:0:0:0:
39,46,113375,1,0,0:0:0:0:
54,40,113442,1,0,0:0:0:0:
116,99,113576,5,2,1:0:0:0:
116,99,113710,1,0,0:0:0:0:
196,39,113843,5,10,0:0:0:0:
168,186,113977,2,0,P|90:212|32:274,1,161.999995056153,2|0,1:0|0:0,0:0:0:0:
35,268,114245,2,0,L|24:229,2,26.9999991760254,10|0|0,0:0|0:0|0:0,0:0:0:0:
55,345,114513,1,0,0:0:0:0:
55,345,114647,1,2,0:0:0:0:
133,363,114781,5,2,1:0:0:0:
133,363,114915,1,2,1:0:0:0:
322,317,115317,2,0,P|338:229|383:138,1,180,8|0,0:0|0:0,0:0:0:0:
305,22,115718,2,0,P|372:13|410:71,2,144,2|2|2,1:0|1:0|1:0,0:0:0:0:
293,16,116388,6,0,L|306:107,1,90,8|0,0:0|0:0,0:0:0:0:
156,184,116924,1,2,1:0:0:0:
93,134,117460,1,0,0:0:0:0:
107,55,117995,1,0,0:0:0:0:
183,27,118531,5,0,0:0:0:0:
220,173,119067,2,0,P|186:245|171:327,1,161.999995056153
172,326,120138,2,0,P|129:331|90:338,1,80.9999975280763
376,271,121210,6,0,B|384:253|384:253|351:201|297:207|297:207|362:251|372:345|372:345|458:366|458:366|478:337,1,396.000012084961
278,302,123352,5,2,0:0:0:0:
463,268,124156,1,0,0:0:0:0:
463,268,124424,2,0,P|480:190|513:131,1,144
441,190,125227,1,0,0:0:0:0:
445,186,125495,6,0,P|425:130|393:86,1,108
318,75,126031,2,0,P|273:58|230:54,1,80.9999975280763
199,225,126567,6,0,P|228:173|267:135,1,108
393,97,127103,2,0,P|439:83|482:83,1,80.9999975280763
453,166,127638,6,0,L|449:183,2,18,0|0|2,0:0|0:0|0:0,0:0:0:0:
426,300,128710,2,0,P|418:272|404:246,1,54,2|0,0:3|0:0,0:0:0:0:
46,95,129781,2,2,B|37:55|-12:68|-2:135|102:185|102:185|181:89|156:27|113:44|122:80,1,377.999988464356,0|0,0:0|0:0,0:0:0:0:
263,5,131924,6,0,B|228:43|228:43|267:107|267:107|288:105,1,144,2|0,1:0|0:0,0:0:0:0:
502,112,132326,2,0,B|475:134|475:134|401:103|401:103|377:120,1,144,2|0,1:0|0:0,0:0:0:0:
306,264,132727,5,2,0:0:0:0:
343,42,132995,2,0,L|315:210,1,144,6|0,1:0|0:0,0:0:0:0:
46,108,134067,6,0,B|2:166|2:166|70:185,1,144,2|0,1:0|0:0,0:0:0:0:
230,183,134468,2,0,B|192:68|192:68|159:54,1,144,2|0,1:0|0:0,0:0:0:0:
125,128,134870,5,2,1:0:0:0:
512,269,135138,2,0,P|487:347|405:349,1,175.499991966248,4|0,0:1|0:0,0:0:0:0:
321,333,135674,6,0,P|320:322|328:314,1,13.4999995880127,2|0,0:0|0:0,0:0:0:0:
311,315,135741,2,0,P|318:306|329:306,1,13.4999995880127
317,295,135808,2,0,P|328:293|336:301,1,13.4999995880127
335,285,135875,2,0,P|343:292|343:303,1,13.4999995880127
396,359,135942,6,0,P|386:293|380:215,1,135.000005149842
411,126,136210,6,0,P|465:96|435:43,1,135.000005149842,6|0,1:2|0:0,0:0:0:0:
324,0,136410,1,2,1:0:0:0:
324,0,136477,2,0,P|290:51|341:84,1,135.000005149842,8|2,0:1|1:0,0:0:0:0:
512,181,136745,6,0,P|432:120|334:98,1,202.500007724762,2|0,0:0|0:0,0:0:0:0:
101,27,137013,1,8,0:1:0:0:
212,15,137147,6,0,B|202:78|156:63|138:135,1,135.000005149842,2|0,0:2|0:0,0:0:0:0:
136,209,137415,2,0,B|123:150|79:164|63:97,1,135.000005149842,2|8,1:0|0:1,0:0:0:0:
222,147,137683,5,2,1:0:0:0:
217,143,137750,1,0,0:0:0:0:
223,138,137817,1,2,1:0:0:0:
27,199,137951,1,2,1:0:0:0:
174,306,138085,6,0,P|186:239|132:208,1,135.000005149842,8|2,0:1|1:0,0:0:0:0:
46,338,138285,5,0,0:0:0:0:
43,349,138352,2,0,P|104:312|182:301,1,135.000005149842,2|2,1:2|1:0,0:0:0:0:
350,267,138553,5,2,1:0:0:0:
342,276,138620,2,0,B|232:244|232:244|221:206,1,135.000005149842,8|2,0:1|1:0,0:0:0:0:
366,56,138888,2,0,B|392:64|392:64|406:142|406:142|375:170,1,135.000005149842,2|0,1:2|0:0,0:0:0:0:
485,131,139156,5,8,0:1:0:0:
305,169,139290,2,0,P|398:184|495:234,1,202.500007724762,2|0,0:2|0:0,0:0:0:0:
490,238,139558,6,0,P|464:225|439:216,1,36
240,220,139692,2,0,P|265:161|280:74,1,135.000005149842,8|2,0:1|1:0,0:0:0:0:
210,51,139960,5,2,1:0:0:0:
40,115,140093,1,0,0:0:0:0:
97,25,140227,5,8,0:1:0:0:
97,25,140294,1,0,0:0:0:0:
97,25,140361,1,0,0:0:0:0:
97,25,140428,1,0,0:0:0:0:
97,25,140495,2,0,B|79:90|79:90|115:156,1,135.000005149842,2|2,1:2|1:0,0:0:0:0:
234,278,140696,5,0,0:0:0:0:
234,278,140763,2,0,P|186:237|113:239,1,135.000005149842,8|0,0:1|0:0,0:0:0:0:
54,329,141031,2,0,B|27:220|27:220|48:195,1,135.000005149842,2|2,0:2|1:0,0:0:0:0:
140,126,141299,1,8,0:1:0:0:
124,381,141433,6,0,P|150:283|189:190,1,202.500007724762,2|0,0:2|0:0,0:0:0:0:
194,194,141701,2,0,P|183:215|177:240,1,36,2|0,1:0|0:0,0:0:0:0:
213,357,141835,6,0,P|255:318|337:305,1,135.000005149842,8|2,0:1|1:0,0:0:0:0:
442,233,142102,6,0,L|426:144,1,72,0|2,0:0|1:0,0:0:0:0:
470,384,142370,2,0,L|454:295,1,72,8|0,0:1|0:0,0:0:0:0:
512,118,142638,6,0,B|453:69|370:103|407:184|311:210,1,242.999992584229,2|0,1:2|0:0,0:0:0:0:
250,167,142906,1,8,0:1:0:0:
253,147,142973,1,0,0:0:0:0:
263,149,143040,1,2,1:0:0:0:
462,179,143174,5,2,0:2:0:0:
319,207,143308,1,2,1:0:0:0:
291,64,143442,1,8,0:1:0:0:
434,36,143576,1,2,1:1:0:0:
512,261,143710,5,2,1:0:0:0:
501,230,143776,1,0,0:0:0:0:
476,209,143843,1,0,0:0:0:0:
445,197,143910,1,0,0:0:0:0:
412,200,143977,6,0,L|402:267,1,36,2|0,0:2|0:0,0:0:0:0:
384,376,144111,1,2,1:0:0:0:
354,298,144245,6,0,P|297:328|222:332,1,135.000005149842,0|2,0:0|1:0,0:0:0:0:
17,280,144513,1,8,0:1:0:0:
140,366,144647,5,2,1:0:0:0:
140,366,144714,1,2,1:0:0:0:
140,366,144781,2,0,P|142:297|106:221,1,135.000005149842,2|0,1:2|0:0,0:0:0:0:
60,384,145049,2,0,P|35:321|38:254,1,135.000005149842,8|2,0:1|1:0,0:0:0:0:
116,0,145317,2,0,B|137:105|137:105|115:137,1,135.000005149842,2|2,0:0|1:0,0:0:0:0:
46,72,145518,5,2,1:0:0:0:
46,72,145585,1,8,0:1:0:0:
218,108,145718,2,0,P|262:158|335:185,1,135.000005149842,2|0,0:0|1:0,0:0:0:0:
416,31,145986,2,0,P|359:94|441:111,1,202.500007724762
499,167,146254,1,2,1:0:0:0:
500,55,146388,6,0,L|477:191,1,135.000005149842,0|2,0:0|1:0,0:0:0:0:
449,368,146656,2,0,B|460:301|460:301|414:245,1,135.000005149842,8|2,0:1|1:0,0:0:0:0:
126,244,146924,6,0,P|191:223|249:178,1,135.000005149842,2|2,1:2|1:0,0:0:0:0:
172,18,147125,1,2,1:0:0:0:
172,18,147192,2,0,B|149:128|149:128|171:150,1,135.000005149842,8|0,0:1|0:0,0:0:0:0:
323,342,147460,6,0,P|284:303|207:257,1,135.000005149842,2|0,1:2|1:0,0:0:0:0:
314,224,147727,1,8,0:1:0:0:
53,142,147861,6,0,P|5:172|45:250,1,135.000005149842,2|2,0:0|1:0,0:0:0:0:
212,272,148129,1,2,1:0:0:0:
13,251,148263,2,0,L|172:217,1,135.000005149842,8|2,0:1|1:0,0:0:0:0:
382,154,148531,2,0,L|223:120,1,135.000005149842,0|2,0:0|1:0,0:0:0:0:
16,66,148799,2,0,B|130:42|130:42|154:58,1,135.000005149842,8|0,0:1|0:0,0:0:0:0:
224,283,149067,6,0,P|242:186|288:89,1,202.500007724762,2|0,1:2|0:0,0:0:0:0:
279,12,149335,2,0,P|295:65|376:220,1,202.500007724762,8|0,0:1|0:0,0:0:0:0:
385,273,149602,2,0,P|398:196|431:129,1,135.000005149842,2|2,1:2|1:0,0:0:0:0:
491,104,149870,5,8,0:1:0:0:
467,290,150004,2,0,P|398:311|340:354,1,135.000005149842,2|0,0:2|1:0,0:0:0:0:
146,278,150272,5,2,1:0:0:0:
224,258,150406,1,8,0:1:0:0:
204,334,150540,1,2,1:0:0:0:
88,337,150674,6,0,L|111:184,1,135.000005149842,0|2,0:0|1:0,0:0:0:0:
34,9,150942,2,0,L|57:143,1,135.000005149842,8|0,0:1|0:0,0:0:0:0:
245,261,151210,2,0,P|345:287|420:362,1,202.500007724762,2|0,1:2|0:0,0:0:0:0:
491,328,151477,2,0,P|511:264|446:252,1,135.000005149842,8|2,0:1|1:0,0:0:0:0:
306,187,151745,6,0,L|464:158,1,135.000005149842,2|2,0:0|1:0,0:0:0:0:
266,56,152013,2,0,P|213:89|235:147,1,135.000005149842,8|2,0:1|0:0,0:0:0:0:
371,284,152281,6,0,L|381:250,3,26.9999991760254,2|0|2|0,1:0|0:0|1:0|0:0,0:0:0:0:
341,384,152549,6,0,P|292:325|227:292,1,135.000005149842,8|2,0:0|1:0,0:0:0:0:
18,279,152817,2,0,P|-3:349|51:361,1,135.000005149842,2|2,1:0|1:0,0:0:0:0:
118,343,153085,6,0,B|143:233|143:233|175:216,1,135.000005149842,8|0,0:0|1:0,0:0:0:0:
82,20,153285,5,0,0:0:0:0:
75,27,153352,2,0,B|154:49|208:115|208:115|219:59|180:28|180:28|180:41,1,270,2|0,1:2|0:0,0:0:0:0:
12,87,153620,2,0,B|-24:118|-17:152|-17:152|21:105|75:107,1,153.000002918243,8|0,0:0|0:0,0:0:0:0:
272,296,153888,6,0,B|239:362|78:336|32:156|252:146|154:230,1,323.999990112305,2|8,1:2|0:0,0:0:0:0:
465,318,154290,6,0,B|412:326|378:369|378:369|379:314|351:274,1,202.500007724762,2|0,0:2|0:0,0:0:0:0:
468,236,154558,2,0,B|392:224|332:156|332:156|328:250|272:311,1,323.999990112305,2|2,1:0|1:0,0:0:0:0:
0,321,154960,2,0,P|79:325|150:376,1,161.999995056153,0|2,0:0|1:0,0:0:0:0:
21,150,155227,2,0,P|13:77|96:64,1,135.000005149842,8|0,0:0|0:0,0:0:0:0:
143,68,155495,6,0,B|61:26|61:26|116:170,1,215.999993408203,2|2,1:2|1:0,0:0:0:0:
46,232,155696,1,2,1:0:0:0:
62,236,155763,2,0,P|124:172|223:139,1,180,8|2,0:0|1:0,0:0:0:0:
418,170,156031,2,0,B|473:176|509:208|509:208|504:153|514:110,1,198.000006042481,2|0,1:2|0:0,0:0:0:0:
219,42,156299,6,0,B|225:56|225:56|263:57|292:83,1,90,8|0,0:0|0:0,0:0:0:0:
334,153,156433,2,0,B|321:35|428:-3|428:-3|417:40,1,242.999992584229,2|0,0:2|0:0,0:0:0:0:
512,210,156701,1,2,1:0:0:0:
512,210,156768,1,0,0:0:0:0:
512,210,156835,6,0,B|458:134|438:233|379:158|375:262,1,180,8|2,0:0|1:0,0:0:0:0:
486,351,157102,6,0,B|388:326|437:274|330:252,1,180,0|2,0:0|1:0,0:0:0:0:
200,91,157370,2,0,P|143:109|166:180,1,135.000005149842,8|0,0:0|0:0,0:0:0:0:
246,377,157638,6,0,P|223:265|238:153,1,216,2|0,1:2|0:0,0:0:0:0:
29,260,157906,2,0,B|-15:225|-9:173|-9:173|54:238|145:256,1,270,8|0,0:0|0:0,0:0:0:0:
348,300,158174,6,0,P|386:231|312:201,1,180,2|2,0:0|1:0,0:0:0:0:
78,139,158442,1,8,0:0:0:0:
253,259,158576,6,0,P|165:289|44:375,1,216,2|0,0:0|0:0,0:0:0:0:
64,364,158843,2,0,P|81:351|109:343,1,36,2|0,1:0|0:0,0:0:0:0:
205,186,158977,2,0,P|273:246|339:277,1,161.999995056153,8|2,0:0|1:0,0:0:0:0:
77,129,159245,6,0,B|143:67|143:67|94:242,1,242.999992584229
116,219,159513,6,0,B|72:35|72:35|41:23,1,216,8|0,0:0|0:0,0:0:0:0:
3,92,159781,1,2,1:2:0:0:
3,92,159915,1,0,0:0:0:0:
77,129,160049,1,8,0:0:0:0:
77,129,160183,1,2,1:0:0:0:
29,240,160317,5,2,0:0:0:0:
194,170,160451,1,0,0:0:0:0:
174,35,160585,5,8,0:2:0:0:
325,88,160718,1,2,0:0:0:0:
299,229,160852,6,0,L|305:258,4,26.9999991760254,2|0|2|0|2,1:0|0:0|1:0|0:0|1:0,0:0:0:0:
414,98,161254,1,2,1:0:0:0:
494,105,161321,1,2,1:0:0:0:
512,118,161388,2,0,P|426:144|329:201,1,161.999995056153,2|2,1:0|1:0,0:0:0:0:
17,234,161656,6,0,B|4:251|3:277|3:277|-12:250|0:224,1,99.0000030212403,8|0,0:0|0:0,0:0:0:0:
92,325,161790,2,0,B|89:347|102:368|102:368|75:353|72:324,1,99.0000030212403
177,325,161924,6,0,B|68:300|116:247|4:228,1,202.500007724762,2|0,1:2|0:0,0:0:0:0:
188,131,162192,2,0,B|225:100|270:94|270:94|213:150|181:237,1,242.999992584229,8|0,0:0|0:0,0:0:0:0:
328,321,162460,2,0,P|351:248|273:219,1,161.999995056153,2|2,0:2|1:0,0:0:0:0:
119,174,162727,1,8,0:0:0:0:
243,384,162861,6,0,P|301:318|443:258,1,242.999992584229,2|0,0:2|0:0,0:0:0:0:
511,217,163129,1,2,1:0:0:0:
365,190,163263,2,0,P|342:113|302:43,1,161.999995056153,8|2,0:0|1:0,0:0:0:0:
395,103,163531,6,0,P|327:145|285:214,1,161.999995056153,0|2,0:0|1:0,0:0:0:0:
444,173,163732,1,0,0:0:0:0:
444,173,163799,2,0,B|240:117|240:117|201:147,1,242.999992584229,8|0,0:0|0:0,0:0:0:0:
9,283,164067,6,0,B|-15:184|158:137|141:287|63:269|94:157,1,229.500004377365,2|0,1:2|0:0,0:0:0:0:
163,29,164335,2,0,P|213:99|130:119,1,202.500007724762,8|0,0:0|0:0,0:0:0:0:
56,82,164602,6,0,P|111:168|137:249,1,161.999995056153,2|2,0:2|1:0,0:0:0:0:
337,368,164870,1,8,0:0:0:0:
252,384,165004,2,0,P|272:305|307:230,1,161.999995056153,2|2,0:2|1:0,0:0:0:0:
486,193,165272,5,2,1:0:0:0:
285,155,165406,1,8,0:0:0:0:
388,304,165540,5,2,1:0:0:0:
461,272,165674,2,0,P|435:180|416:133,1,135.000005149842,0|2,0:0|1:0,0:0:0:0:
486,60,165942,2,0,L|477:100,3,26.9999991760254,8|0|0|0,0:0|0:0|0:0|0:0,0:0:0:0:
307,70,166210,6,0,B|278:-39|426:-49|438:80|318:100,1,242.999992584229,2|0,1:2|0:0,0:0:0:0:
207,170,166477,6,0,B|175:226|277:347|336:192|282:153,1,242.999992584229,8|0,0:0|0:0,0:0:0:0:
60,81,166745,6,0,B|100:52|127:-4|127:-4|128:60|157:118,1,215.999993408203,2|0,1:2|0:0,0:0:0:0:
73,239,167013,1,8,0:0:0:0:
54,318,167147,6,0,P|119:243|198:225,1,161.999995056153,2|2,0:2|1:0,0:0:0:0:
434,312,167415,5,2,1:0:0:0:
366,264,167549,1,10,0:0:0:0:
463,204,167683,5,2,1:0:0:0:
343,370,167817,2,0,P|321:271|290:192,1,161.999995056153,2|2,0:0|1:0,0:0:0:0:
432,0,168085,2,0,L|421:39,3,26.9999991760254,10|0|0|0,0:0|0:0|0:0|0:0,0:0:0:0:
404,102,168352,6,0,P|393:128|379:191,1,80.9999975280763,2|0,1:2|0:0,0:0:0:0:
294,125,168620,2,0,P|312:89|336:56,1,72,10|2,0:0|1:0,0:0:0:0:
404,102,168888,6,0,P|393:128|379:191,1,80.9999975280763,2|2,0:2|1:0,0:0:0:0:
237,31,169156,2,0,P|266:8|299:-9,1,53.9999983520508,10|0,0:2|0:2,0:0:0:0:
479,137,169424,6,0,P|482:153|489:173,3,26.9999991760254,2|0|2|2,1:2|0:0|1:0|1:0,0:0:0:0:
465,322,169692,6,0,P|450:260|432:215,1,90,10|0,0:2|1:0,0:0:0:0:
274,359,169960,2,0,P|319:373|339:386,1,53.9999983520508,2|0,1:2|1:0,0:0:0:0:
383,321,170227,2,0,P|356:282|321:243,1,72,10|0,0:2|0:0,0:0:0:0:
282,208,170428,1,0,0:0:0:0:
279,214,170495,1,2,1:2:0:0:
142,215,170629,6,0,P|138:236|148:251,1,36,2|0,1:0|0:0,0:0:0:0:
214,303,170763,2,0,P|246:212|288:155,1,161.999995056153,8|0,0:0|0:0,0:0:0:0:
256,72,171031,2,0,B|363:91|363:91|386:126,2,135.000005149842,2|2|8,1:2|1:0|0:0,0:0:0:0:
461,106,171433,6,0,P|409:120|363:147,1,107.999996704102,2|2,0:0|1:0,0:0:0:0:
329,269,171701,5,2,1:0:0:0:
381,152,171835,1,8,0:0:0:0:
384,379,171968,5,0,0:0:0:0:
226,257,172102,2,0,P|174:222|108:200,1,107.999996704102,2|2,1:0|1:0,0:0:0:0:
243,83,172370,6,0,P|281:114|255:170,1,107.999996704102,8|0,0:0|0:0,0:0:0:0:
51,212,172638,2,0,P|38:113|133:81,1,215.999993408203,2|8,1:2|0:0,0:0:0:0:
177,14,173040,5,2,1:0:0:0:
322,84,173174,2,0,P|391:112|460:129,1,107.999996704102,2|0,0:0|1:0,0:0:0:0:
265,165,173442,5,8,0:0:0:0:
511,95,173576,2,0,P|461:115|415:143,1,107.999996704102,2|2,0:0|1:0,0:0:0:0:
377,368,173843,5,2,1:0:0:0:
315,317,173977,2,0,P|337:268|354:195,1,107.999996704102,8|2,0:0|1:0,0:0:0:0:
475,288,174245,6,0,P|512:340|491:381,1,107.999996704102,2|2,1:0|1:0,0:0:0:0:
236,308,174513,2,0,P|186:331|127:346,1,107.999996704102,8|0,0:0|0:0,0:0:0:0:
26,305,174781,6,0,B|-54:192|132:122|123:291|48:293,1,270.000010299683,2|8,1:2|0:0,0:0:0:0:
1,204,175183,5,2,1:0:0:0:
10,197,175250,1,0,0:0:0:0:
0,191,175317,1,2,0:0:0:0:
212,384,175451,2,0,P|228:297|252:242,1,135.000005149842,2|8,1:0|0:0,0:0:0:0:
449,82,175718,2,0,B|410:60|380:12|380:12|379:68|353:111,1,198.000006042481,2|2,0:2|1:0,0:0:0:0:
512,134,175986,5,2,1:0:0:0:
465,199,176120,2,0,P|403:148|309:124,1,153.000002918243,8|2,0:0|1:0,0:0:0:0:
150,160,176388,6,0,P|97:131|127:78,1,135.000005149842,0|2,0:0|1:0,0:0:0:0:
283,60,176656,2,0,P|301:147|224:190,1,188.999994232178,8|0,0:0|0:0,0:0:0:0:
14,115,176924,6,0,B|-9:42|-9:42|123:43|162:199,1,288,2|8,1:2|0:0,0:0:0:0:
74,224,177326,5,2,1:0:0:0:
128,283,177460,2,0,P|184:299|229:318,1,107.999996704102,2|2,0:0|1:0,0:0:0:0:
24,314,177727,5,8,0:0:0:0:
204,220,177861,2,0,P|248:200|341:178,2,107.999996704102,2|2|2,0:0|1:0|1:0,0:0:0:0:
98,88,178263,2,0,P|83:35|124:7,1,107.999996704102,10|2,0:2|1:0,0:0:0:0:
214,125,178531,2,0,B|103:105|103:105|79:126,1,135.000005149842,2|2,1:2|1:0,0:0:0:0:
285,168,178799,6,0,P|315:146|360:142,1,72,10|0,0:2|0:0,0:0:0:0:
380,56,178933,2,0,P|408:82|457:91,1,72,2|2,1:0|1:0,0:0:0:0:
512,203,179067,6,0,P|481:87|491:-9,1,202.500007724762,2|0,1:2|0:0,0:0:0:0:
482,0,179335,6,0,L|449:153,1,135.000005149842,8|2,0:0|1:0,0:0:0:0:
491,295,179602,2,0,B|420:275|420:275|413:232|353:221,2,135.000005149842,2|0|8,1:2|0:0|0:0,0:0:0:0:
342,299,180004,6,0,P|281:335|215:348,1,135.000005149842,2|2,0:2|1:0,0:0:0:0:
0,309,180272,5,2,1:0:0:0:
169,264,180406,1,10,0:0:0:0:
88,340,180540,5,2,1:0:0:0:
122,158,180674,2,0,B|12:178|12:178|-1:205,1,135.000005149842,0|2,0:0|1:0,0:0:0:0:
64,250,180875,1,2,1:0:0:0:
64,250,180942,2,0,P|156:277|207:338,1,175.499991966248,8|0,0:0|0:0,0:0:0:0:
370,376,181210,2,0,P|413:298|329:268,1,202.500007724762,2|0,1:2|0:0,0:0:0:0:
317,257,181477,6,0,P|302:323|273:384,1,135.000005149842,8|2,0:0|1:0,0:0:0:0:
205,335,181745,2,0,P|152:283|202:245,1,135.000005149842,2|0,0:2|1:0,0:0:0:0:
365,150,182013,1,8,0:0:0:0:
298,105,182147,2,0,P|241:118|160:125,1,116.999994644165,2|2,0:2|1:0,0:0:0:0:
106,111,182415,5,2,1:0:0:0:
33,145,182549,6,0,B|5:148|2:182|2:182|36:188|52:164,1,107.999996704102,8|2,0:0|1:0,0:0:0:0:
104,33,182817,2,0,B|114:8|86:-12|86:-12|64:14|77:39,1,107.999996704102,2|2,1:0|1:0,0:0:0:0:
175,150,183085,2,0,B|191:172|223:157|223:157|211:125|182:123,1,107.999996704102,8|2,0:0|1:0,0:0:0:0:
69,251,183352,6,0,P|136:323|165:383,1,161.999995056153,2|0,1:2|0:0,0:0:0:0:
172,376,183620,2,0,L|179:341,2,26.9999991760254,8|0|2,0:0|0:0|1:0,0:0:0:0:
36,324,183888,5,2,0:2:0:0:
192,250,184022,2,0,P|234:227|314:207,1,107.999996704102,2|8,1:0|0:0,0:0:0:0:
454,288,184290,2,0,P|464:339|515:357,1,107.999996704102,2|2,0:2|1:0,0:0:0:0:
376,230,184558,5,2,1:0:0:0:
353,307,184692,1,10,0:2:0:0:
307,185,184826,5,2,1:0:0:0:
343,308,184960,1,2,1:2:0:0:
201,217,185093,5,2,1:0:0:0:
338,320,185227,1,10,0:2:0:0:
151,281,185495,6,0,P|73:298|7:343,1,144,2|0,0:0|0:0,0:0:0:0:
19,331,185897,6,0,P|12:261|83:259,1,144
203,214,186299,6,0,P|235:247|284:265,1,90,2|0,0:0|0:0,0:0:0:0:
386,344,186567,6,0,L|382:367,1,18,2|0,0:0|0:0,0:0:0:0:
406,247,186968,2,0,L|402:270,1,18,2|0,0:0|0:0,0:0:0:0:
437,69,187370,2,0,L|433:92,1,18,2|0,0:0|0:0,0:0:0:0:
