osu file format v14

[General]
AudioFilename: audio.mp3
AudioLeadIn: 0
PreviewTime: 145694
Countdown: 1
SampleSet: Normal
StackLeniency: 0.7
Mode: 0
LetterboxInBreaks: 0
WidescreenStoryboard: 1

[Editor]
Bookmarks: 27641,40587,106340,119491
DistanceSpacing: 1.2
BeatDivisor: 4
GridSize: 4
TimelineZoom: 1

[Metadata]
Title:Meringue Doll (feat. GUMI)
TitleUnicode:メレンゲドール (feat. GUMI)
Artist:monaca:factory
ArtistUnicode:monaca:factory
Creator:Jonarwhal
Version:Normal
Source:
Tags:pop jpop electropop monaca10p 10daysp tooka-p sugar candy sucrose m:f megpoid vocaloid japanese electronic jonawaga username105 afternoon gravitea
BeatmapID:3621955
BeatmapSetID:1235645

[Difficulty]
HPDrainRate:4
CircleSize:4
OverallDifficulty:4
ApproachRate:5
SliderMultiplier:0.9
SliderTickRate:1

[Events]
//Background and Video events
0,0,"bg.jpg",0,0
//Break Periods
2,106365,118316
//Storyboard Layer 0 (Background)
//Storyboard Layer 1 (Fail)
//Storyboard Layer 2 (Pass)
//Storyboard Layer 3 (Foreground)
//Storyboard Layer 4 (Overlay)
//Storyboard Sound Samples

[TimingPoints]
1160,410.958904109589,4,1,1,50,1,0
66913,-100,4,1,1,70,0,1
93214,-100,4,1,1,60,0,0
145817,-100,4,1,1,70,0,1
172118,-100,4,1,1,60,0,0
185166,-100,4,1,1,30,0,0

[Colours]
Combo1 : 124,60,139
Combo2 : 215,100,65
Combo3 : 63,153,167
Combo4 : 240,232,41

[HitObjects]
84,320,1160,6,0,P|130:272|148:207,1,135,0|0,0:0|0:0,0:0:0:0:
191,173,1981,2,0,L|320:212,1,135,0|0,0:0|0:0,0:0:0:0:
368,180,2803,2,0,P|379:114|428:69,1,135,0|0,0:0|0:0,0:0:0:0:
480,59,3625,1,2,0:2:0:0:
476,167,4036,1,2,0:2:0:0:
472,276,4447,6,0,B|388:320|388:320|348:304,1,135,0|0,0:0|0:0,0:0:0:0:
296,312,5269,2,0,B|258:297|258:297|174:341,1,135,0|0,0:0|0:0,0:0:0:0:
120,348,6091,2,0,P|132:288|92:216,1,135,2|0,0:2|0:0,0:0:0:0:
64,184,6913,1,2,0:2:0:0:
75,76,7324,1,2,0:2:0:0:
176,38,7735,6,0,P|242:68|312:50,1,135,0|0,0:0|0:0,0:0:0:0:
350,34,8557,2,0,B|393:124|393:124|367:161,1,135,0|0,0:0|0:0,0:0:0:0:
332,189,9379,2,0,P|266:178|206:207,1,135,0|0,0:0|0:0,0:0:0:0:
161,237,10201,1,2,0:2:0:0:
53,238,10612,1,2,0:2:0:0:
108,328,11023,6,0,B|192:345|192:345|238:304,1,135,0|0,0:0|0:0,0:0:0:0:
283,312,11844,2,0,B|320:345|320:345|404:328,1,135,0|0,0:0|0:0,0:0:0:0:
456,342,12666,2,0,P|445:283|481:214,1,135,2|0,0:2|0:0,0:0:0:0:
488,164,13488,1,2,0:2:0:0:
472,56,13899,1,2,0:2:0:0:
364,40,14310,5,0,0:0:0:0:
256,60,14721,2,0,L|224:156,1,90,2|2,0:2|0:2,0:0:0:0:
284,238,15543,2,0,L|256:324,1,90,0|2,0:0|0:2,0:0:0:0:
227,145,17187,1,2,0:2:0:0:
284,238,17598,5,2,0:2:0:0:
400,76,18831,1,2,0:2:0:0:
299,32,19242,2,0,P|256:40|212:32,1,90,2|0,0:2|0:0,0:0:0:0:
112,76,20064,1,2,0:2:0:0:
320,260,21296,6,0,P|325:304|309:345,1,90,2|2,0:2|0:2,0:0:0:0:
202,345,22118,2,0,P|186:304|191:260,1,90,0|10,0:0|0:3,0:0:0:0:
304,100,23762,1,2,0:2:0:0:
211,43,24173,5,2,0:2:0:0:
56,192,25406,1,2,0:2:0:0:
112,284,25817,2,0,L|204:268,1,90,2|0,0:2|0:0,0:0:0:0:
311,268,26639,2,0,L|400:284,1,90,2|0,0:2|0:0,0:0:0:0:
456,192,27461,6,0,L|428:52,1,135,2|0,0:2|0:0,0:0:0:0:
388,24,28283,2,0,P|327:52|261:45,1,135,0|0,0:0|0:0,0:0:0:0:
208,64,29105,2,0,P|141:57|81:85,1,135,0|0,0:0|0:0,0:0:0:0:
37,117,29927,1,2,0:2:0:0:
72,219,30338,1,10,0:2:0:0:
44,324,30749,6,0,L|180:312,1,135,0|0,0:0|0:0,0:0:0:0:
228,336,31570,2,0,B|264:252|264:252|236:208,1,135,0|0,0:0|0:0,0:0:0:0:
271,168,32392,2,0,B|248:132|248:132|284:48,1,135,0|0,0:0|0:0,0:0:0:0:
332,28,33214,1,0,0:0:0:0:
438,43,33625,1,10,0:2:0:0:
485,135,34036,6,0,P|463:197|485:259,1,135,0|0,0:0|0:0,0:0:0:0:
490,313,34858,2,0,L|350:323,1,135,0|0,0:0|0:0,0:0:0:0:
302,335,35680,2,0,P|323:272|301:210,1,135,0|0,0:0|0:0,0:0:0:0:
256,179,36502,1,2,0:2:0:0:
163,123,36913,1,10,0:2:0:0:
64,169,37324,6,0,P|77:234|49:294,1,135,0|0,0:0|0:0,0:0:0:0:
20,340,38146,2,0,L|167:334,1,135,0|0,0:0|0:0,0:0:0:0:
192,295,38968,2,0,P|255:276|319:296,1,135,0|0,0:0|0:0,0:0:0:0:
357,334,39790,1,0,0:0:0:0:
462,309,40201,1,8,0:3:0:0:
408,216,40612,6,0,L|416:126,1,90,8|10,0:2|0:3,0:0:0:0:
320,76,41433,2,0,L|312:166,1,90,10|8,0:2|0:3,0:0:0:0:
200,166,42255,2,0,L|192:76,2,90,10|8|8,0:2|0:3|0:2,0:0:0:0:
120,240,43488,2,0,L|144:296,1,45,10|0,0:3|0:0,0:0:0:0:
120,331,43899,6,0,P|163:322|208:329,1,90,10|8,0:2|0:3,0:0:0:0:
256,352,44516,1,0,0:0:0:0:
303,329,44721,2,0,P|348:322|392:331,1,90,8|10,0:2|0:3,0:0:0:0:
472,260,45543,2,0,L|464:160,1,90,10|8,0:2|0:3,0:0:0:0:
416,76,46365,1,10,0:2:0:0:
364,68,46570,1,8,0:3:0:0:
312,60,46776,1,8,0:3:0:0:
200,60,47187,6,0,P|152:64|104:48,1,90,8|10,0:2|0:3,0:0:0:0:
63,148,48009,2,0,P|67:196|51:244,1,90,10|8,0:2|0:3,0:0:0:0:
163,224,48831,2,0,P|151:267|155:311,2,90,10|8|8,0:2|0:3|0:2,0:0:0:0:
257,277,50064,2,0,L|277:233,1,45,10|0,0:3|0:0,0:0:0:0:
295,185,50475,6,0,P|290:136|317:97,1,90,10|8,0:2|0:3,0:0:0:0:
360,83,51091,1,0,0:0:0:0:
410,100,51296,2,0,P|431:138|425:182,1,90,8|10,0:2|0:3,0:0:0:0:
489,269,52118,2,0,L|478:359,1,90,10|8,0:2|0:3,0:0:0:0:
380,316,52940,1,10,0:2:0:0:
328,308,53146,1,8,0:3:0:0:
276,300,53351,1,8,0:3:0:0:
171,317,53762,6,0,L|160:227,1,90,2|0,0:2|0:0,0:0:0:0:
72,163,54584,2,0,L|61:73,1,90,0|0,0:0|0:0,0:0:0:0:
151,13,55406,1,2,0:2:0:0:
151,13,55817,2,0,P|170:52|169:97,1,90,0|2,0:0|0:2,0:0:0:0:
12,202,57050,6,0,B|28:262|28:262|64:270,1,90,2|0,0:2|0:0,0:0:0:0:
159,298,57872,2,0,B|186:304|186:304|202:364,1,90,0|0,0:0|0:0,0:0:0:0:
309,364,58694,1,2,0:2:0:0:
309,364,59105,2,0,B|325:304|325:304|353:298,1,90,0|2,0:0|0:2,0:0:0:0:
255,207,60338,6,0,P|246:164|255:120,1,90,10|8,0:2|0:3,0:0:0:0:
302,94,60954,1,8,0:2:0:0:
352,74,61159,2,0,P|395:83|439:73,1,90,0|8,0:0|0:3,0:0:0:0:
485,171,61981,2,0,B|469:231|469:231|433:239,1,90,10|8,0:2|0:3,0:0:0:0:
393,258,62598,1,8,0:2:0:0:
342,275,62803,2,0,B|315:281|315:281|299:341,2,90,2|8|10,0:2|0:3|0:2,0:0:0:0:
170,109,65269,5,10,0:2:0:0:
92,34,65680,1,10,0:3:0:0:
63,138,66091,1,8,0:2:0:0:
45,343,66913,6,0,P|87:328|131:332,1,90,10|8,0:2|0:3,0:0:0:0:
184,340,67529,1,0,0:0:0:0:
237,354,67735,2,0,P|281:358|323:343,1,90,10|8,0:2|0:3,0:0:0:0:
368,313,68351,1,0,0:0:0:0:
415,286,68557,2,0,L|467:288,2,45,10|2|10,0:2|0:2|0:3,0:0:0:0:
340,207,69379,2,0,L|295:205,2,45,10|2|10,0:2|0:2|0:3,0:0:0:0:
396,116,70201,6,0,P|353:101|309:105,1,90,10|8,0:2|0:3,0:0:0:0:
264,75,70817,1,0,0:0:0:0:
219,44,71023,2,0,P|174:48|132:33,1,90,10|8,0:2|0:3,0:0:0:0:
83,56,71639,1,0,0:0:0:0:
33,78,71844,2,0,L|12:14,2,45,10|2|10,0:2|0:2|0:3,0:0:0:0:
24,185,72666,2,0,L|38:227,2,45,10|10|10,0:2|0:3|0:3,0:0:0:0:
131,175,73488,6,0,P|148:232|110:308,1,135,10|2,0:2|0:2,0:0:0:0:
78,333,74310,1,8,0:2:0:0:
231,351,75132,2,0,P|279:310|350:315,1,135,10|2,0:2|0:2,0:0:0:0:
401,315,75954,2,0,L|411:262,1,45,10|2,0:2|0:2,0:0:0:0:
451,236,76365,2,0,L|441:183,1,45,10|2,0:3|0:2,0:0:0:0:
464,142,76776,6,0,B|371:132|371:132|326:152,1,135,10|2,0:2|0:2,0:0:0:0:
294,186,77598,1,10,0:2:0:0:
221,330,78214,2,0,P|184:304|140:302,1,90,2|2,0:2|0:2,0:0:0:0:
39,341,79036,2,0,L|55:195,1,135,2|10,0:2|0:3,0:0:0:0:
27,101,80064,6,0,B|88:78|88:78|119:83,1,90,10|8,0:2|0:3,0:0:0:0:
165,94,80680,1,0,0:0:0:0:
217,106,80886,2,0,B|241:109|241:109|302:86,1,90,10|8,0:2|0:3,0:0:0:0:
355,75,81502,1,0,0:0:0:0:
408,66,81707,2,0,L|418:16,2,45,10|2|10,0:2|0:2|0:3,0:0:0:0:
480,146,82529,2,0,L|488:190,2,45,10|2|10,0:2|0:2|0:3,0:0:0:0:
373,167,83351,6,0,B|312:190|312:190|281:185,1,90,10|8,0:2|0:3,0:0:0:0:
235,174,83968,1,0,0:0:0:0:
183,162,84173,2,0,B|158:158|158:158|97:181,1,90,10|8,0:2|0:3,0:0:0:0:
57,217,84790,1,0,0:0:0:0:
17,253,84995,2,0,L|7:303,2,45,10|2|10,0:2|0:2|0:3,0:0:0:0:
109,309,85817,2,0,L|117:353,2,45,10|10|10,0:2|0:3|0:3,0:0:0:0:
201,253,86639,6,0,P|265:232|328:253,1,135,10|2,0:2|0:2,0:0:0:0:
359,297,87461,1,8,0:2:0:0:
473,149,88283,1,10,0:2:0:0:
461,42,88694,1,10,0:3:0:0:
356,19,89105,1,10,0:2:0:0:
302,112,89516,1,10,0:3:0:0:
374,193,89927,6,0,L|385:285,1,90,10|8,0:2|0:3,0:0:0:0:
290,336,90749,2,0,L|279:246,1,90,8|8,0:2|0:3,0:0:0:0:
215,159,91570,2,0,P|181:139|132:141,1,90,8|8,0:2|0:3,0:0:0:0:
52,215,92392,1,8,0:2:0:0:
43,268,92598,1,8,0:3:0:0:
34,321,92803,1,8,0:3:0:0:
135,357,93214,6,0,L|190:344,1,45,10|0,0:2|0:0,0:0:0:0:
232,350,93625,2,0,L|287:337,1,45,10|0,0:3|0:0,0:0:0:0:
329,347,94036,1,10,0:2:0:0:
376,229,94653,2,0,P|370:184|381:141,1,90,2|0,0:2|0:0,0:0:0:0:
469,204,95475,2,0,P|480:155|472:110,1,90,2|0,0:2|0:0,0:0:0:0:
455,65,96091,1,10,0:3:0:0:
350,39,96502,6,0,L|295:52,1,45,10|0,0:2|0:0,0:0:0:0:
253,46,96913,2,0,L|198:59,1,45,10|0,0:3|0:0,0:0:0:0:
156,49,97324,1,10,0:2:0:0:
205,157,97940,2,0,L|214:250,1,90,2|0,0:2|0:0,0:0:0:0:
314,206,98762,2,0,L|305:299,1,90,2|8,0:2|0:3,0:0:0:0:
281,344,99379,1,10,0:3:0:0:
174,359,99790,6,0,L|119:346,1,45,10|0,0:2|0:0,0:0:0:0:
93,309,100201,2,0,L|38:296,1,45,10|0,0:3|0:0,0:0:0:0:
9,261,100612,1,10,0:2:0:0:
41,125,101228,2,0,P|85:130|128:119,1,90,2|0,0:2|0:0,0:0:0:0:
66,32,102050,2,0,P|115:21|160:29,1,90,2|0,0:2|0:0,0:0:0:0:
204,46,102666,1,10,0:3:0:0:
308,46,103077,6,0,P|336:52|356:65,1,45,10|0,0:2|0:0,0:0:0:0:
374,108,103488,2,0,P|393:118|416:122,1,45,10|0,0:3|0:0,0:0:0:0:
469,126,103899,1,10,0:2:0:0:
457,264,104516,2,0,L|365:252,1,90,2|0,0:2|0:0,0:0:0:0:
409,353,105338,2,0,L|319:364,1,90,2|8,0:2|0:3,0:0:0:0:
268,347,105954,1,10,0:3:0:0:
207,168,119516,5,8,0:2:0:0:
309,133,119927,2,0,L|321:85,1,45,8|0,0:2|0:0,0:0:0:0:
426,70,120543,2,0,L|415:113,1,45,0|8,0:0|0:2,0:0:0:0:
488,192,121159,2,0,P|471:235|481:295,1,90,10|8,0:2|0:2,0:0:0:0:
399,356,121981,2,0,L|307:346,1,90,10|10,0:2|0:2,0:0:0:0:
202,346,122803,6,0,L|113:356,1,90,8|10,0:2|0:2,0:0:0:0:
37,277,123625,2,0,P|40:233|24:192,2,90,10|8|8,0:2|0:2|0:2,0:0:0:0:
141,246,124858,2,0,P|138:201|154:160,2,90,10|8|10,0:2|0:2|0:2,0:0:0:0:
245,218,126091,5,8,0:2:0:0:
351,197,126502,2,0,L|356:148,1,45,8|0,0:2|0:0,0:0:0:0:
460,176,127118,2,0,L|464:131,1,45,0|8,0:0|0:2,0:0:0:0:
397,46,127735,2,0,P|349:52|307:34,1,90,10|8,0:2|0:2,0:0:0:0:
200,36,128557,2,0,P|159:52|115:46,1,90,10|10,0:2|0:2,0:0:0:0:
49,132,129379,6,0,L|36:225,2,90,8|10|10,0:2|0:2|0:2,0:0:0:0:
115,46,130612,1,8,0:2:0:0:
156,145,131023,2,0,L|169:238,2,90,10|8|10,0:2|0:2|0:2,0:0:0:0:
311,36,132666,5,8,0:2:0:0:
397,100,133077,2,0,L|451:105,1,45,8|8,0:2|0:3,0:0:0:0:
448,209,133694,2,0,L|493:214,2,45,0|8|8,0:0|0:2|0:3,0:0:0:0:
396,226,134310,2,0,B|353:208|350:245|309:226,1,90,10|8,0:2|0:2,0:0:0:0:
256,216,134927,1,8,0:3:0:0:
203,226,135132,2,0,B|161:245|158:208|115:226,1,90,10|10,0:2|0:2,0:0:0:0:
116,336,135954,6,0,L|212:360,1,90,10|10,0:2|0:2,0:0:0:0:
256,356,136570,1,8,0:3:0:0:
308,357,136776,2,0,L|396:336,1,90,10|10,0:2|0:2,0:0:0:0:
489,281,137598,2,0,P|469:240|472:196,1,90,10|10,0:2|0:2,0:0:0:0:
448,148,138214,1,8,0:3:0:0:
423,99,138420,2,0,P|426:55|405:13,1,90,10|10,0:2|0:3,0:0:0:0:
318,74,139242,6,0,L|222:59,1,90,10|8,0:2|0:2,0:0:0:0:
171,151,140064,2,0,L|259:164,1,90,10|8,0:2|0:2,0:0:0:0:
300,264,140886,2,0,P|256:361|216:260,1,270,10|8,0:2|0:2,0:0:0:0:
225,155,142529,6,0,B|241:111|241:111|225:71,1,90,10|8,0:2|0:2,0:0:0:0:
125,115,143351,2,0,B|109:155|109:155|125:199,1,90,10|10,0:2|0:2,0:0:0:0:
213,262,144173,1,10,0:2:0:0:
85,311,145817,6,0,L|180:299,1,90,10|8,0:2|0:3,0:0:0:0:
213,262,146433,1,0,0:0:0:0:
250,222,146639,2,0,L|345:210,1,90,10|8,0:2|0:3,0:0:0:0:
387,186,147255,1,0,0:0:0:0:
435,161,147461,2,0,L|443:105,2,45,10|2|10,0:2|0:2|0:3,0:0:0:0:
489,254,148283,2,0,L|497:310,2,45,10|2|10,0:2|0:2|0:3,0:0:0:0:
384,283,149105,6,0,L|289:271,1,90,10|8,0:2|0:3,0:0:0:0:
256,234,149721,1,0,0:0:0:0:
219,194,149927,2,0,L|124:182,1,90,10|8,0:2|0:3,0:0:0:0:
77,195,150543,1,0,0:0:0:0:
26,213,150749,2,0,L|18:269,2,45,10|2|10,0:2|0:2|0:3,0:0:0:0:
52,108,151570,2,0,L|44:52,2,45,10|10|10,0:2|0:3|0:3,0:0:0:0:
156,80,152392,6,0,P|217:55|290:69,1,135,10|2,0:2|0:2,0:0:0:0:
336,78,153214,1,8,0:2:0:0:
474,219,154036,2,0,B|464:309|464:309|417:321,1,135,10|2,0:2|0:2,0:0:0:0:
373,346,154858,2,0,L|309:337,1,45,10|2,0:2|0:2,0:0:0:0:
281,312,155269,2,0,L|217:321,1,45,10|2,0:3|0:2,0:0:0:0:
187,341,155680,6,0,P|196:275|162:218,1,135,10|2,0:2|0:2,0:0:0:0:
111,200,156502,1,10,0:2:0:0:
49,59,157118,2,0,L|137:47,1,90,2|2,0:2|0:2,0:0:0:0:
243,21,157940,2,0,P|243:83|193:142,1,135,2|10,0:2|0:3,0:0:0:0:
111,200,158968,6,0,P|101:242|114:286,1,90,10|8,0:2|0:3,0:0:0:0:
156,319,159584,1,0,0:0:0:0:
199,351,159790,2,0,L|308:338,1,90,10|8,0:2|0:3,0:0:0:0:
338,321,160406,1,0,0:0:0:0:
388,301,160612,2,0,L|444:308,2,45,10|2|10,0:2|0:2|0:3,0:0:0:0:
323,215,161433,2,0,L|278:209,2,45,10|2|10,0:2|0:2|0:3,0:0:0:0:
424,176,162255,6,0,P|434:134|421:90,1,90,10|8,0:2|0:3,0:0:0:0:
379,57,162872,1,0,0:0:0:0:
336,25,163077,2,0,L|227:38,1,90,10|8,0:2|0:3,0:0:0:0:
197,55,163694,1,0,0:0:0:0:
147,75,163899,2,0,L|91:68,2,45,10|2|10,0:2|0:2|0:3,0:0:0:0:
212,161,164721,2,0,L|256:166,2,45,10|10|10,0:2|0:3|0:3,0:0:0:0:
162,181,165338,1,0,0:0:0:0:
113,204,165543,6,0,P|126:255|88:323,1,135,10|2,0:2|0:2,0:0:0:0:
45,357,166365,1,8,0:2:0:0:
256,308,167187,1,10,0:2:0:0:
355,352,167598,1,10,0:3:0:0:
427,271,168009,1,10,0:2:0:0:
373,178,168420,1,10,0:3:0:0:
268,201,168831,6,0,P|216:200|180:184,1,90,10|8,0:2|0:3,0:0:0:0:
148,80,169653,2,0,P|200:81|236:97,1,90,8|8,0:2|0:3,0:0:0:0:
340,124,170475,2,0,P|341:72|357:36,1,90,8|8,0:2|0:3,0:0:0:0:
460,8,171296,1,8,0:2:0:0:
468,60,171502,1,8,0:3:0:0:
476,112,171707,1,8,0:3:0:0:
489,219,172118,6,0,L|479:267,1,45,10|0,0:2|0:0,0:0:0:0:
475,317,172529,2,0,L|430:326,1,45,10|0,0:3|0:0,0:0:0:0:
383,352,172940,1,10,0:2:0:0:
222,326,173557,2,0,B|178:340|178:340|135:330,1,90,2|0,0:2|0:0,0:0:0:0:
93,230,174379,2,0,B|137:216|137:216|180:226,1,90,2|0,0:2|0:0,0:0:0:0:
233,229,174995,1,10,0:3:0:0:
336,192,175406,6,0,L|380:182,1,45,10|0,0:2|0:0,0:0:0:0:
433,189,175817,2,0,L|442:144,1,45,10|0,0:3|0:0,0:0:0:0:
468,97,176228,1,10,0:2:0:0:
316,44,176844,2,0,P|268:48|224:32,1,90,2|0,0:2|0:0,0:0:0:0:
155,114,177666,2,0,P|112:100|67:104,1,90,2|8,0:2|0:3,0:0:0:0:
15,122,178283,1,10,0:3:0:0:
57,221,178694,6,0,L|67:269,1,45,10|0,0:2|0:0,0:0:0:0:
71,319,179105,2,0,L|115:328,1,45,10|0,0:3|0:0,0:0:0:0:
163,354,179516,1,10,0:2:0:0:
319,312,180132,2,0,B|363:326|363:326|406:316,1,90,2|0,0:2|0:0,0:0:0:0:
448,216,180954,2,0,B|404:202|404:202|361:212,1,90,2|0,0:2|0:0,0:0:0:0:
308,215,181570,1,10,0:3:0:0:
231,291,181981,6,0,L|186:281,1,45,10|0,0:2|0:0,0:0:0:0:
134,288,182392,2,0,L|124:243,1,45,10|0,0:3|0:0,0:0:0:0:
99,196,182803,1,10,0:2:0:0:
33,48,183420,2,0,P|81:52|125:36,1,90,2|0,0:2|0:0,0:0:0:0:
215,89,184242,2,0,P|257:75|302:79,1,90,2|8,0:2|0:3,0:0:0:0:
352,58,184858,2,0,P|396:62|439:48,1,90,10|0,0:3|0:0,0:0:0:0:
