osu file format v14

[General]
AudioFilename: audio.mp3
AudioLeadIn: 0
PreviewTime: 145694
Countdown: 1
SampleSet: Normal
StackLeniency: 0.4
Mode: 0
LetterboxInBreaks: 0
WidescreenStoryboard: 1

[Editor]
Bookmarks: 27436,40587,53737,101614,106340
DistanceSpacing: 0.9
BeatDivisor: 4
GridSize: 4
TimelineZoom: 1

[Metadata]
Title:Meringue Doll (feat. GUMI)
TitleUnicode:メレンゲドール (feat. GUMI)
Artist:monaca:factory
ArtistUnicode:monaca:factory
Creator:Jonarwhal
Version:Hard
Source:
Tags:pop jpop electropop monaca10p 10daysp tooka-p sugar candy sucrose m:f megpoid vocaloid japanese electronic jonawaga username105 afternoon gravitea
BeatmapID:3621954
BeatmapSetID:1235645

[Difficulty]
HPDrainRate:5
CircleSize:4
OverallDifficulty:6
ApproachRate:7.5
SliderMultiplier:1.8
SliderTickRate:1

[Events]
//Background and Video events
0,0,"bg.jpg",0,0
//Break Periods
2,106365,117047
//Storyboard Layer 0 (Background)
//Storyboard Layer 1 (Fail)
//Storyboard Layer 2 (Pass)
//Storyboard Layer 3 (Foreground)
//Storyboard Layer 4 (Overlay)
//Storyboard Sound Samples

[TimingPoints]
1160,410.958904109589,4,1,1,50,1,0
66913,-100,4,1,1,70,0,1
93214,-100,4,1,1,60,0,0
144122,-100,4,1,1,30,0,0
144173,-125,4,1,1,30,0,0
145817,-100,4,1,1,70,0,1
172118,-100,4,1,1,60,0,0
185166,-100,4,1,1,30,0,0

[Colours]
Combo1 : 124,60,139
Combo2 : 215,100,65
Combo3 : 63,153,167
Combo4 : 240,232,41

[HitObjects]
200,132,1160,6,0,B|100:144|100:144|79:117,2,135,0|0|0,0:0|0:0|0:0,0:0:0:0:
256,191,1981,2,0,P|229:251|256:312,2,135,0|0|0,0:0|0:0|0:0,0:0:0:0:
311,251,2803,2,0,B|411:239|411:239|433:267,2,135,0|0|0,0:0|0:0|0:0,0:0:0:0:
232,272,3625,5,2,0:2:0:0:
180,212,3831,1,0,0:0:0:0:
332,172,4036,1,2,0:2:0:0:
280,112,4242,1,0,0:0:0:0:
256,32,4447,6,0,B|304:20|339:53|339:53|384:44,2,135,0|0|0,0:0|0:0|0:0,0:0:0:0:
280,112,5269,2,0,B|232:124|197:91|197:91|152:100,2,135,0|0|0,0:0|0:0|0:0,0:0:0:0:
360,132,6091,2,0,B|451:112|451:112|464:68,2,135,2|0|0,0:2|0:0|0:0,0:0:0:0:
304,192,6913,5,2,0:2:0:0:
356,252,7118,1,0,0:0:0:0:
156,252,7324,1,2,0:2:0:0:
208,192,7529,1,0,0:0:0:0:
303,311,7735,6,0,P|366:332|421:297,2,135,0|0|0,0:0|0:0|0:0,0:0:0:0:
209,311,8557,2,0,P|147:332|91:297,2,135,0|0|0,0:0|0:0|0:0,0:0:0:0:
156,252,9379,2,0,P|100:216|38:237,2,135,0|0|0,0:0|0:0|0:0,0:0:0:0:
296,192,10201,5,2,0:2:0:0:
216,192,10406,1,0,0:0:0:0:
322,114,10612,1,2,0:2:0:0:
190,114,10817,1,0,0:0:0:0:
256,67,11023,6,0,B|224:36|224:36|128:28,2,135,0|0|0,0:0|0:0|0:0,0:0:0:0:
322,114,11844,2,0,B|354:145|354:145|450:153,2,135,0|0|0,0:0|0:0|0:0,0:0:0:0:
258,184,12666,2,0,B|195:126|195:126|138:120,2,135,2|0|0,0:2|0:0|0:0,0:0:0:0:
298,256,13488,5,2,0:2:0:0:
218,256,13694,1,0,0:0:0:0:
334,328,13899,1,2,0:2:0:0:
182,328,14105,1,0,0:0:0:0:
31,256,14310,5,0,0:0:0:0:
30,256,14721,2,0,P|4:291|0:335,1,90,2|0,0:2|0:0,0:0:0:0:
80,320,15132,2,0,P|106:284|110:240,1,90,2|0,0:2|0:0,0:0:0:0:
168,184,15543,2,0,L|260:184,1,90,0|0,0:0|0:0,0:0:0:0:
340,184,15954,5,2,0:2:0:0:
340,184,17187,1,2,0:2:0:0:
439,169,17392,1,0,0:0:0:0:
383,91,17598,5,2,0:2:0:0:
383,91,18831,1,2,0:2:0:0:
382,91,19242,6,0,P|360:52|304:32,1,90,2|0,0:2|0:0,0:0:0:0:
191,32,19653,2,0,P|151:52|130:91,1,90,0|0,0:0|0:0,0:0:0:0:
208,112,20064,2,0,P|254:174|303:112,1,180,2|0,0:2|0:0,0:0:0:0:
320,32,20680,1,0,0:0:0:0:
382,91,20886,5,0,0:0:0:0:
382,91,21296,2,0,L|470:74,1,90,2|0,0:2|0:0,0:0:0:0:
504,148,21707,2,0,L|415:164,1,90,2|0,0:2|0:0,0:0:0:0:
374,232,22118,2,0,P|343:200|336:156,1,90,0|0,0:0|0:0,0:0:0:0:
382,91,22529,5,10,0:3:0:0:
382,91,23762,1,2,0:2:0:0:
307,25,23968,1,0,0:0:0:0:
256,108,24173,5,2,0:2:0:0:
256,108,25406,1,2,0:2:0:0:
256,107,25817,6,0,L|348:116,1,90,2|0,0:2|0:0,0:0:0:0:
341,192,26228,2,0,L|332:284,1,90,0|0,0:0|0:0,0:0:0:0:
256,277,26639,2,0,L|164:268,1,90,2|0,0:2|0:0,0:0:0:0:
171,192,27050,2,0,L|180:100,1,90,0|0,0:0|0:0,0:0:0:0:
92,164,27461,6,0,B|101:72|101:72|132:36,2,135,2|0|0,0:2|0:0|0:0,0:0:0:0:
166,268,28283,2,0,B|121:251|80:284|80:284|32:276,2,135,0|0|0,0:0|0:0|0:0,0:0:0:0:
346,268,29105,2,0,B|391:251|432:284|432:284|480:276,2,135,0|0|0,0:0|0:0|0:0,0:0:0:0:
376,342,29927,6,0,P|331:347|291:328,1,90,2|0,0:2|0:0,0:0:0:0:
220,208,30338,2,0,P|180:188|135:193,1,90,10|0,0:2|0:0,0:0:0:0:
256,133,30749,6,0,P|194:107|127:112,2,135,0|0|0,0:0|0:0|0:0,0:0:0:0:
256,133,31570,2,0,P|318:107|385:112,2,135,0|0|0,0:0|0:0|0:0,0:0:0:0:
192,32,32392,2,0,B|224:32|256:48|256:48|288:32|321:32,2,135,0|0|0,0:0|0:0|0:0,0:0:0:0:
256,133,33214,5,0,0:0:0:0:
200,192,33420,1,0,0:0:0:0:
312,192,33625,1,10,0:2:0:0:
257,251,33831,1,0,0:0:0:0:
120,192,34036,6,0,B|31:168|31:168|16:128,2,135,0|0|0,0:0|0:0|0:0,0:0:0:0:
256,133,34858,2,0,B|232:44|232:44|256:8,2,135,0|0|0,0:0|0:0|0:0,0:0:0:0:
392,192,35680,2,0,B|407:151|407:151|496:128,2,135,0|0|0,0:0|0:0|0:0,0:0:0:0:
256,251,36502,5,2,0:2:0:0:
180,348,36707,1,0,0:0:0:0:
256,251,36913,1,10,0:2:0:0:
332,348,37118,1,0,0:0:0:0:
176,268,37324,6,0,P|112:305|102:364,2,135,0|0|0,0:0|0:0|0:0,0:0:0:0:
336,268,38146,2,0,P|400:305|410:364,2,135,0|0|0,0:0|0:0|0:0,0:0:0:0:
255,251,38968,2,0,P|293:199|361:191,2,135,0|0|0,0:0|0:0|0:0,0:0:0:0:
193,189,39790,6,0,P|218:153|256:128,1,90,0|8,0:0|0:3,0:0:0:0:
296,56,40201,1,8,0:3:0:0:
216,56,40406,1,0,0:0:0:0:
112,28,40612,6,0,P|131:117|43:168,1,180,8|10,0:2|0:3,0:0:0:0:
56,87,41228,1,0,0:0:0:0:
68,167,41433,1,10,0:2:0:0:
44,244,41639,1,0,0:0:0:0:
124,232,41844,1,8,0:3:0:0:
124,232,42255,6,0,P|109:292|4:316,1,180,10|8,0:2|0:3,0:0:0:0:
44,244,42872,1,0,0:0:0:0:
68,167,43077,1,8,0:2:0:0:
148,152,43283,1,0,0:0:0:0:
92,92,43488,1,10,0:3:0:0:
172,76,43694,1,0,0:0:0:0:
340,76,43899,6,0,P|288:128|328:224,1,180,10|8,0:2|0:3,0:0:0:0:
356,292,44516,1,0,0:0:0:0:
400,224,44721,1,8,0:2:0:0:
364,152,44927,1,0,0:0:0:0:
445,157,45132,1,10,0:3:0:0:
445,156,45543,6,0,P|405:81|318:84,2,180,10|8|10,0:2|0:3|0:2,0:0:0:0:
319,219,46570,1,8,0:3:0:0:
319,219,46776,1,8,0:3:0:0:
319,219,47187,6,0,B|256:280|256:280|152:268,1,180,8|10,0:2|0:3,0:0:0:0:
192,192,47803,1,0,0:0:0:0:
164,114,48009,2,0,P|208:111|247:132,1,90,10|0,0:2|0:0,0:0:0:0:
304,76,48420,1,8,0:3:0:0:
304,76,48831,6,0,P|225:34|136:40,1,180,10|8,0:2|0:3,0:0:0:0:
64,76,49447,1,0,0:0:0:0:
92,152,49653,1,8,0:2:0:0:
92,232,49858,1,0,0:0:0:0:
60,308,50064,2,0,P|104:313|144:295,1,90,10|0,0:3|0:0,0:0:0:0:
92,232,50475,6,0,P|32:204|34:96,1,180,10|8,0:2|0:3,0:0:0:0:
92,152,51091,1,0,0:0:0:0:
104,72,51296,1,8,0:2:0:0:
168,124,51502,1,0,0:0:0:0:
180,44,51707,1,10,0:3:0:0:
180,44,52118,6,0,P|236:80|224:184,2,180,10|8|10,0:2|0:3|0:2,0:0:0:0:
332,44,53146,1,8,0:3:0:0:
332,44,53351,1,8,0:3:0:0:
332,44,53762,5,2,0:2:0:0:
412,60,53968,1,0,0:0:0:0:
360,120,54173,2,0,P|399:139|443:134,1,90,0|0,0:0|0:0,0:0:0:0:
500,192,54584,1,0,0:0:0:0:
443,249,54790,1,0,0:0:0:0:
443,249,54995,2,0,P|398:244|359:263,1,90,0|0,0:0|0:0,0:0:0:0:
316,194,55406,6,0,P|279:272|332:340,1,180,2|0,0:2|0:0,0:0:0:0:
255,371,56023,1,0,0:0:0:0:
180,340,56228,1,2,0:2:0:0:
180,340,57050,5,2,0:2:0:0:
180,340,57461,1,0,0:0:0:0:
100,324,57666,1,0,0:0:0:0:
151,263,57872,2,0,P|112:244|68:249,1,90,0|0,0:0|0:0,0:0:0:0:
12,192,58283,1,0,0:0:0:0:
69,135,58488,1,0,0:0:0:0:
68,134,58694,6,0,P|112:139|151:120,1,90,2|0,0:2|0:0,0:0:0:0:
180,36,59105,2,0,P|135:31|96:50,2,90,0|8|2,0:0|0:2|0:2,0:0:0:0:
180,36,60338,5,10,0:2:0:0:
331,36,60543,2,0,P|301:68|296:112,1,90,0|8,0:0|0:3,0:0:0:0:
256,192,60954,1,8,0:2:0:0:
215,271,61159,2,0,P|210:315|180:347,1,90,0|8,0:0|0:2,0:0:0:0:
136,280,61570,2,0,L|49:303,1,90,8|0,0:3|0:0,0:0:0:0:
168,204,61981,6,0,L|78:204,1,90,10|0,0:2|0:0,0:0:0:0:
136,128,62392,2,0,L|49:104,1,90,8|8,0:3|0:2,0:0:0:0:
177,59,62803,2,0,P|217:134|168:204,2,180,2|8|10,0:2|0:3|0:2,0:0:0:0:
167,204,65269,5,10,0:2:0:0:
89,310,65475,1,0,0:0:0:0:
214,270,65680,1,10,0:3:0:0:
89,229,65886,1,0,0:0:0:0:
167,336,66091,5,8,0:2:0:0:
256,24,66913,6,0,P|321:57|316:157,1,180,10|8,0:2|0:3,0:0:0:0:
256,104,67529,1,0,0:0:0:0:
256,23,67735,2,0,P|183:69|192:154,1,180,10|8,0:2|0:3,0:0:0:0:
256,208,68351,1,0,0:0:0:0:
148,256,68557,5,10,0:2:0:0:
89,310,68762,1,2,0:2:0:0:
256,344,68968,1,10,0:3:0:0:
256,344,69379,1,10,0:2:0:0:
423,310,69584,1,2,0:2:0:0:
364,256,69790,1,10,0:3:0:0:
363,256,70201,6,0,P|446:233|503:302,1,180,10|8,0:2|0:3,0:0:0:0:
423,310,70817,1,0,0:0:0:0:
345,336,71023,2,0,P|284:276|319:189,1,180,10|8,0:2|0:3,0:0:0:0:
256,136,71639,1,0,0:0:0:0:
140,104,71844,5,10,0:2:0:0:
100,24,72050,1,2,0:2:0:0:
256,32,72255,1,10,0:3:0:0:
256,32,72666,1,10,0:2:0:0:
412,24,72872,1,10,0:3:0:0:
372,100,73077,1,10,0:3:0:0:
45,325,73488,6,0,P|97:257|181:274,1,180,10|8,0:2|0:3,0:0:0:0:
256,308,74105,1,2,0:2:0:0:
332,274,74310,2,0,P|419:259|468:340,1,180,8|8,0:2|0:3,0:0:0:0:
387,336,74927,1,0,0:0:0:0:
256,224,75132,6,0,B|232:184|256:140|256:140|280:96|256:52,1,180,10|8,0:2|0:3,0:0:0:0:
184,16,75749,1,2,0:2:0:0:
188,96,75954,1,10,0:2:0:0:
256,52,76160,1,2,0:2:0:0:
324,96,76365,1,10,0:3:0:0:
328,16,76570,1,2,0:2:0:0:
396,60,76776,6,0,P|390:145|310:176,1,180,10|8,0:2|0:3,0:0:0:0:
256,236,77392,1,2,0:2:0:0:
201,176,77598,2,0,P|121:145|115:60,1,180,10|8,0:2|0:3,0:0:0:0:
44,20,78214,6,0,L|8:124,1,90,2|8,0:2|0:2,0:0:0:0:
44,192,78625,2,0,L|8:296,1,90,2|8,0:2|0:3,0:0:0:0:
112,328,79036,2,0,L|141:242,1,90,2|8,0:2|0:2,0:0:0:0:
256,192,79447,1,8,0:3:0:0:
256,192,79653,1,10,0:3:0:0:
256,192,80064,6,0,B|302:194|330:152|330:152|357:110|407:111,1,180,10|8,0:2|0:3,0:0:0:0:
400,192,80680,1,0,0:0:0:0:
480,184,80886,2,0,B|480:234|438:261|438:261|396:289|399:335,1,180,10|8,0:2|0:3,0:0:0:0:
480,332,81502,1,0,0:0:0:0:
320,332,81707,5,10,0:2:0:0:
192,332,81913,1,2,0:2:0:0:
256,264,82118,1,10,0:3:0:0:
256,264,82529,1,10,0:2:0:0:
320,196,82735,1,2,0:2:0:0:
192,196,82940,1,10,0:3:0:0:
489,98,83351,6,0,P|420:43|332:45,1,180,10|8,0:2|0:3,0:0:0:0:
256,76,83968,1,0,0:0:0:0:
180,46,84173,2,0,P|92:51|28:112,1,180,10|8,0:2|0:3,0:0:0:0:
48,192,84790,1,0,0:0:0:0:
28,273,84995,5,10,0:2:0:0:
104,252,85201,1,2,0:2:0:0:
256,336,85406,1,10,0:3:0:0:
256,336,85817,1,10,0:2:0:0:
408,252,86023,1,10,0:3:0:0:
484,273,86228,1,10,0:3:0:0:
172,192,86639,6,0,B|212:167|256:192|256:192|301:215|345:191,1,180,10|8,0:2|0:3,0:0:0:0:
302,123,87255,1,2,0:2:0:0:
211,259,87461,1,8,0:2:0:0:
175,303,88283,5,10,0:2:0:0:
387,149,88694,1,10,0:3:0:0:
124,149,89105,1,10,0:2:0:0:
337,303,89516,1,10,0:3:0:0:
256,60,89927,6,0,P|304:15|369:23,2,135,10|0|0,0:2|0:0|0:0,0:0:0:0:
256,60,90749,2,0,P|207:15|142:23,2,135,8|0|0,0:2|0:0|0:0,0:0:0:0:
328,89,91570,5,8,0:2:0:0:
184,89,91879,1,0,0:0:0:0:
256,212,92187,1,0,0:0:0:0:
334,205,92392,2,0,P|327:248|296:279,1,90,8|8,0:2|0:3,0:0:0:0:
215,279,92803,2,0,P|184:248|177:205,1,90,8|0,0:3|0:0,0:0:0:0:
184,89,93214,5,10,0:2:0:0:
70,22,93420,1,0,0:0:0:0:
124,143,93625,1,10,0:3:0:0:
152,15,93831,1,0,0:0:0:0:
53,102,94036,1,10,0:2:0:0:
443,340,94653,6,0,L|491:262,1,90,2|8,0:2|0:2,0:0:0:0:
416,242,95064,2,0,L|464:164,1,90,0|8,0:0|0:3,0:0:0:0:
388,143,95475,2,0,L|436:65,1,90,2|8,0:2|0:2,0:0:0:0:
364,28,95886,1,0,0:0:0:0:
318,96,96091,2,0,P|304:138|314:182,1,90,10|0,0:3|0:0,0:0:0:0:
199,201,96502,6,0,P|208:248|192:292,1,90,10|0,0:2|0:0,0:0:0:0:
116,320,96913,1,10,0:3:0:0:
48,272,97118,1,0,0:0:0:0:
55,189,97324,1,10,0:2:0:0:
472,84,97940,6,0,L|394:36,1,90,2|8,0:2|0:2,0:0:0:0:
374,111,98351,2,0,L|296:63,1,90,0|8,0:0|0:3,0:0:0:0:
275,139,98762,2,0,L|197:91,1,90,2|8,0:2|0:2,0:0:0:0:
144,152,99173,1,8,0:3:0:0:
71,187,99379,2,0,P|101:220|144:232,1,90,10|0,0:3|0:0,0:0:0:0:
198,91,99790,5,10,0:2:0:0:
78,34,99995,1,0,0:0:0:0:
144,152,100201,1,10,0:3:0:0:
157,19,100406,1,0,0:0:0:0:
67,114,100612,1,10,0:2:0:0:
309,289,101228,6,0,P|327:333|361:356,1,90,2|8,0:2|0:2,0:0:0:0:
389,281,101639,2,0,P|418:243|421:201,1,90,0|8,0:0|0:3,0:0:0:0:
343,216,102050,2,0,P|295:209|257:227,1,90,2|8,0:2|0:2,0:0:0:0:
169,168,102461,1,0,0:0:0:0:
118,106,102666,2,0,P|159:88|203:95,1,90,10|0,0:3|0:0,0:0:0:0:
309,95,103077,6,0,P|352:88|393:106,1,90,10|0,0:2|0:0,0:0:0:0:
424,184,103488,1,10,0:3:0:0:
342,168,103694,1,0,0:0:0:0:
256,148,103899,1,10,0:2:0:0:
256,148,104516,6,0,L|256:238,1,90,2|8,0:2|0:2,0:0:0:0:
164,198,104927,2,0,L|189:294,1,90,0|8,0:0|0:3,0:0:0:0:
88,270,105338,2,0,L|138:356,1,90,2|8,0:2|0:2,0:0:0:0:
256,328,105749,1,8,0:3:0:0:
325,284,105954,1,10,0:3:0:0:
379,347,106160,1,0,0:0:0:0:
256,192,117872,12,8,119105,0:2:0:0:
316,72,119516,6,0,L|408:64,1,90,8|0,0:2|0:0,0:0:0:0:
436,140,119927,2,0,L|344:148,1,90,8|0,0:2|0:0,0:0:0:0:
346,147,120543,2,0,P|348:192|324:229,2,90,0|8|0,0:0|0:2|0:0,0:0:0:0:
268,168,121159,6,0,L|164:172,1,90,10|0,0:2|0:0,0:0:0:0:
120,112,121570,2,0,P|95:149|98:193,1,90,8|0,0:2|0:0,0:0:0:0:
62,265,121981,2,0,L|4:336,1,90,10|0,0:2|0:0,0:0:0:0:
80,368,122392,2,0,L|136:298,1,90,10|0,0:2|0:0,0:0:0:0:
193,357,122803,6,0,P|217:320|216:276,1,90,8|0,0:2|0:0,0:0:0:0:
156,220,123214,2,0,B|148:198|148:198|228:191,1,90,10|0,0:2|0:0,0:0:0:0:
297,191,123625,2,0,B|364:186|364:186|356:164,1,90,10|0,0:2|0:0,0:0:0:0:
296,108,124036,2,0,P|294:63|318:26,1,90,8|0,0:2|0:0,0:0:0:0:
375,87,124447,6,0,P|414:107|435:147,1,90,8|0,0:2|0:0,0:0:0:0:
496,200,124858,2,0,P|458:224|414:222,1,90,10|0,0:2|0:0,0:0:0:0:
333,245,125269,2,0,P|331:201|356:164,1,90,8|0,0:2|0:0,0:0:0:0:
239,142,125680,2,0,P|194:140|156:163,1,90,10|0,0:2|0:0,0:0:0:0:
104,224,126091,6,0,B|64:244|64:244|32:284,1,90,8|0,0:2|0:0,0:0:0:0:
52,360,126502,2,0,B|92:340|92:340|120:305,1,90,8|0,0:2|0:0,0:0:0:0:
120,304,127118,1,0,0:0:0:0:
195,271,127324,2,0,P|234:294|279:294,1,90,8|0,0:2|0:0,0:0:0:0:
176,192,127735,6,0,L|96:140,1,90,10|0,0:2|0:0,0:0:0:0:
136,72,128146,2,0,B|188:106|188:106|228:102,1,90,8|0,0:2|0:0,0:0:0:0:
297,103,128557,2,0,B|324:105|324:105|376:71,1,90,10|0,0:2|0:0,0:0:0:0:
411,142,128968,2,0,L|336:192,1,90,10|0,0:2|0:0,0:0:0:0:
380,256,129379,6,0,P|339:272|296:262,1,90,8|0,0:2|0:0,0:0:0:0:
215,262,129790,2,0,P|172:272|131:256,1,90,10|0,0:2|0:0,0:0:0:0:
176,191,130201,2,0,P|168:147|137:115,1,90,10|0,0:2|0:0,0:0:0:0:
96,186,130612,2,0,P|61:214|49:256,1,90,8|0,0:2|0:0,0:0:0:0:
92,328,131023,6,0,L|192:352,1,90,10|0,0:2|0:0,0:0:0:0:
256,324,131433,2,0,L|281:227,1,90,8|0,0:2|0:0,0:0:0:0:
356,210,131844,1,10,0:2:0:0:
433,185,132050,2,0,L|458:88,2,90,0|8|0,0:0|0:2|0:0,0:0:0:0:
464,261,132666,6,0,P|399:259|355:209,1,135,8|8,0:2|0:2,0:0:0:0:
332,176,133077,1,8,0:2:0:0:
256,148,133283,2,0,P|232:112|184:96,1,90,8|8,0:3|0:2,0:0:0:0:
180,176,133694,1,0,0:0:0:0:
105,204,133899,2,0,P|130:240|172:256,1,90,8|8,0:2|0:3,0:0:0:0:
248,228,134310,6,0,P|248:288|188:336,1,135,10|8,0:2|0:2,0:0:0:0:
156,336,134721,1,8,0:2:0:0:
80,312,134927,1,8,0:3:0:0:
80,312,135132,2,0,L|30:225,1,90,10|0,0:2|0:0,0:0:0:0:
35,149,135543,2,0,L|80:72,1,90,10|8,0:2|0:3,0:0:0:0:
152,32,135954,6,0,B|178:76|150:120|150:120|192:140,1,135,10|8,0:2|0:2,0:0:0:0:
213,168,136365,2,0,P|255:156|298:168,1,90,10|8,0:2|0:3,0:0:0:0:
367,126,136776,2,0,P|379:168|367:211,1,90,10|0,0:2|0:0,0:0:0:0:
409,280,137187,2,0,P|367:292|324:280,1,90,10|8,0:2|0:3,0:0:0:0:
255,237,137598,6,0,B|229:281|257:325|257:325|219:342,1,135,10|8,0:2|0:2,0:0:0:0:
180,333,138009,2,0,P|138:345|95:333,1,90,10|8,0:2|0:3,0:0:0:0:
12,336,138420,2,0,P|22:293|55:263,1,90,10|8,0:2|0:3,0:0:0:0:
93,188,138831,2,0,P|125:218|136:261,1,90,10|0,0:3|0:0,0:0:0:0:
55,263,139242,6,0,P|16:220|24:140,1,135,10|8,0:2|0:2,0:0:0:0:
52,112,139653,1,8,0:2:0:0:
132,112,139858,1,8,0:3:0:0:
92,40,140064,1,10,0:2:0:0:
172,40,140269,2,0,P|208:80|212:136,1,90,0|8,0:0|0:2,0:0:0:0:
256,184,140680,1,8,0:3:0:0:
298,114,140886,6,0,P|337:169|302:250,1,135,10|8,0:2|0:2,0:0:0:0:
296,260,141296,1,8,0:2:0:0:
216,260,141502,1,8,0:3:0:0:
256,332,141707,1,8,0:2:0:0:
176,332,141913,2,0,P|140:296|136:248,1,90,0|8,0:0|0:2,0:0:0:0:
88,192,142324,1,8,0:3:0:0:
17,150,142529,6,0,P|69:111|134:125,1,135,10|8,0:2|0:2,0:0:0:0:
176,128,142940,1,8,0:2:0:0:
216,56,143146,1,8,0:3:0:0:
256,128,143351,1,10,0:2:0:0:
338,129,143557,2,0,P|328:86|296:56,1,90,0|10,0:0|0:2,0:0:0:0:
216,56,143968,1,8,0:3:0:0:
176,128,144173,6,0,B|136:232|224:232|176:336,1,216,10|0,0:2|0:0,0:0:0:0:
256,364,145817,6,0,B|292:332|340:336|340:336|296:216,1,180,10|8,0:2|0:3,0:0:0:0:
256,192,146433,1,0,0:0:0:0:
202,131,146639,2,0,B|172:48|172:48|220:52|256:20,1,180,10|8,0:2|0:3,0:0:0:0:
328,56,147255,1,0,0:0:0:0:
328,136,147461,5,10,0:2:0:0:
380,212,147666,1,2,0:2:0:0:
256,192,147872,1,10,0:3:0:0:
256,192,148283,1,10,0:2:0:0:
132,172,148488,1,2,0:2:0:0:
184,248,148694,1,10,0:3:0:0:
184,248,149105,6,0,P|177:336|97:364,1,180,10|8,0:2|0:3,0:0:0:0:
112,284,149721,1,0,0:0:0:0:
40,244,149927,2,0,B|64:204|112:204|112:204|56:104,1,180,10|8,0:2|0:3,0:0:0:0:
86,43,150543,1,0,0:0:0:0:
256,44,150749,5,10,0:2:0:0:
283,120,150954,1,2,0:2:0:0:
416,192,151160,1,10,0:3:0:0:
416,192,151570,1,10,0:2:0:0:
283,264,151776,1,10,0:3:0:0:
256,340,151981,1,10,0:3:0:0:
256,44,152392,6,0,P|198:107|115:84,1,180,10|8,0:2|0:3,0:0:0:0:
176,28,153009,1,2,0:2:0:0:
256,44,153214,2,0,P|313:107|396:84,1,180,8|8,0:2|0:3,0:0:0:0:
336,28,153831,1,0,0:0:0:0:
255,185,154036,6,0,B|243:261|243:261|267:261|267:261|255:339,1,180,10|8,0:2|0:3,0:0:0:0:
165,275,154653,1,2,0:2:0:0:
176,356,154858,1,10,0:2:0:0:
255,339,155064,1,2,0:2:0:0:
336,356,155269,1,10,0:3:0:0:
347,275,155475,1,2,0:2:0:0:
428,292,155680,6,0,P|416:230|313:199,1,180,10|8,0:2|0:3,0:0:0:0:
256,144,156296,1,2,0:2:0:0:
197,198,156502,2,0,P|112:211|84:292,1,180,10|8,0:2|0:3,0:0:0:0:
40,160,157118,6,0,L|24:72,1,90,2|8,0:2|0:2,0:0:0:0:
104,48,157529,2,0,P|147:54|187:34,1,90,2|8,0:2|0:3,0:0:0:0:
324,34,157940,2,0,P|364:54|408:48,1,90,2|8,0:2|0:2,0:0:0:0:
488,72,158351,1,8,0:3:0:0:
472,160,158557,1,10,0:3:0:0:
472,160,158968,6,0,P|412:221|330:194,1,180,10|8,0:2|0:3,0:0:0:0:
256,164,159584,1,0,0:0:0:0:
181,194,159790,2,0,P|99:221|40:160,1,180,10|8,0:2|0:3,0:0:0:0:
119,142,160406,1,0,0:0:0:0:
194,112,160612,5,10,0:2:0:0:
130,62,160817,1,2,0:2:0:0:
256,28,161023,1,10,0:3:0:0:
256,28,161433,1,10,0:2:0:0:
382,62,161639,1,2,0:2:0:0:
318,112,161844,1,10,0:3:0:0:
318,112,162255,6,0,B|280:196|360:200|320:284,1,180,10|8,0:2|0:3,0:0:0:0:
256,340,162872,1,0,0:0:0:0:
192,284,163077,2,0,B|152:200|232:196|194:112,1,180,10|8,0:2|0:3,0:0:0:0:
123,153,163694,1,0,0:0:0:0:
52,192,163899,5,10,0:2:0:0:
91,263,164105,1,2,0:2:0:0:
256,340,164310,1,10,0:3:0:0:
256,340,164721,1,10,0:2:0:0:
421,263,164927,1,10,0:3:0:0:
460,192,165132,1,10,0:3:0:0:
389,153,165338,1,0,0:0:0:0:
458,107,165543,6,0,P|380:71|312:123,1,180,10|8,0:2|0:3,0:0:0:0:
256,192,166160,1,2,0:2:0:0:
199,260,166365,2,0,P|129:313|52:274,1,180,8|8,0:2|0:3,0:0:0:0:
335,77,167187,5,10,0:2:0:0:
123,231,167598,1,10,0:3:0:0:
386,231,168009,1,10,0:2:0:0:
173,77,168420,1,10,0:3:0:0:
256,324,168831,6,0,P|304:369|369:361,2,135,10|0|0,0:2|0:0|0:0,0:0:0:0:
256,324,169653,2,0,P|207:369|142:361,2,135,8|0|0,0:2|0:0|0:0,0:0:0:0:
328,295,170475,5,8,0:2:0:0:
184,295,170783,1,0,0:0:0:0:
256,172,171091,1,0,0:0:0:0:
334,179,171296,2,0,P|327:136|296:105,1,90,8|8,0:2|0:3,0:0:0:0:
215,105,171707,2,0,P|184:136|177:179,1,90,8|0,0:3|0:0,0:0:0:0:
184,295,172118,5,10,0:2:0:0:
70,362,172324,1,0,0:0:0:0:
124,241,172529,1,10,0:3:0:0:
152,369,172735,1,0,0:0:0:0:
53,282,172940,1,10,0:2:0:0:
443,44,173557,6,0,L|491:122,1,90,2|8,0:2|0:2,0:0:0:0:
416,142,173968,2,0,L|464:220,1,90,0|8,0:0|0:3,0:0:0:0:
388,241,174379,2,0,L|436:319,1,90,2|8,0:2|0:2,0:0:0:0:
364,356,174790,1,0,0:0:0:0:
318,288,174995,2,0,P|304:246|314:202,1,90,10|0,0:3|0:0,0:0:0:0:
199,183,175406,6,0,P|208:136|192:92,1,90,10|0,0:2|0:0,0:0:0:0:
116,64,175817,1,10,0:3:0:0:
48,112,176023,1,0,0:0:0:0:
55,195,176228,1,10,0:2:0:0:
472,300,176844,6,0,L|394:348,1,90,2|8,0:2|0:2,0:0:0:0:
374,273,177255,2,0,L|296:321,1,90,0|8,0:0|0:3,0:0:0:0:
275,245,177666,2,0,L|197:293,1,90,2|8,0:2|0:2,0:0:0:0:
144,232,178077,1,8,0:3:0:0:
71,197,178283,2,0,P|101:164|144:152,1,90,10|0,0:3|0:0,0:0:0:0:
198,293,178694,5,10,0:2:0:0:
78,350,178899,1,0,0:0:0:0:
144,232,179105,1,10,0:3:0:0:
157,365,179310,1,0,0:0:0:0:
67,270,179516,1,10,0:2:0:0:
309,95,180132,6,0,P|327:51|361:28,1,90,2|8,0:2|0:2,0:0:0:0:
389,103,180543,2,0,P|418:141|421:183,1,90,0|8,0:0|0:3,0:0:0:0:
343,168,180954,2,0,P|295:175|257:157,1,90,2|8,0:2|0:2,0:0:0:0:
169,216,181365,1,0,0:0:0:0:
118,278,181570,2,0,P|159:296|203:289,1,90,10|0,0:3|0:0,0:0:0:0:
309,289,181981,6,0,P|352:296|393:278,1,90,10|0,0:2|0:0,0:0:0:0:
424,200,182392,1,10,0:3:0:0:
342,216,182598,1,0,0:0:0:0:
256,236,182803,1,10,0:2:0:0:
256,236,183420,6,0,L|256:146,1,90,2|8,0:2|0:2,0:0:0:0:
164,186,183831,2,0,L|189:90,1,90,0|8,0:0|0:3,0:0:0:0:
88,114,184242,2,0,L|138:28,1,90,2|8,0:2|0:2,0:0:0:0:
256,56,184653,1,8,0:3:0:0:
325,100,184858,1,10,0:3:0:0:
379,37,185064,1,0,0:0:0:0:
256,56,185269,1,0,0:0:0:0:
