osu file format v14

[General]
AudioFilename: audio.mp3
AudioLeadIn: 0
PreviewTime: 145694
Countdown: 1
SampleSet: Normal
StackLeniency: 0.7
Mode: 0
LetterboxInBreaks: 0
WidescreenStoryboard: 0

[Editor]
DistanceSpacing: 1.2
BeatDivisor: 4
GridSize: 4
TimelineZoom: 1

[Metadata]
Title:Meringue Doll (feat. GUMI)
TitleUnicode:メレンゲドール (feat. GUMI)
Artist:monaca:factory
ArtistUnicode:monaca:factory
Creator:Jonarwhal
Version:Easy
Source:
Tags:pop jpop electropop monaca10p 10daysp tooka-p sugar candy sucrose m:f megpoid vocaloid japanese electronic jonawaga username105 afternoon gravitea
BeatmapID:3621953
BeatmapSetID:1235645

[Difficulty]
HPDrainRate:2
CircleSize:3.2
OverallDifficulty:2
ApproachRate:3
SliderMultiplier:0.7
SliderTickRate:1

[Events]
//Background and Video events
0,0,"bg.jpg",0,0
//Break Periods
2,106365,118076
//Storyboard Layer 0 (Background)
//Storyboard Layer 1 (Fail)
//Storyboard Layer 2 (Pass)
//Storyboard Layer 3 (Foreground)
//Storyboard Layer 4 (Overlay)
//Storyboard Sound Samples

[TimingPoints]
1160,410.958904109589,4,1,1,50,1,0
66913,-100,4,1,1,70,0,1
93214,-100,4,1,1,60,0,0
145817,-100,4,1,1,70,0,1
172118,-100,4,1,1,60,0,0
185166,-100,4,1,1,30,0,0

[Colours]
Combo1 : 124,60,139
Combo2 : 215,100,65
Combo3 : 63,153,167
Combo4 : 240,232,41

[HitObjects]
48,192,1160,6,0,P|72:128|48:64,2,140,0|0|0,0:0|0:0|0:0,0:0:0:0:
192,272,3625,2,0,L|272:272,1,70,2|2,0:2|0:2,0:0:0:0:
312,344,4447,6,0,P|344:304|328:216,1,140,0|0,0:0|0:0,0:0:0:0:
180,163,6091,2,0,P|163:97|200:40,1,140,2|2,0:2|0:2,0:0:0:0:
247,110,7324,1,2,0:2:0:0:
294,182,7735,6,0,P|331:124|313:59,2,140,0|0|0,0:0|0:0|0:0,0:0:0:0:
256,344,10201,2,0,L|176:344,1,70,2|2,0:2|0:2,0:0:0:0:
102,327,11023,6,0,B|135:265|135:265|215:258,1,140,0|0,0:0|0:0,0:0:0:0:
307,124,12666,2,0,B|376:118|376:118|410:57,1,140,2|2,0:2|0:2,0:0:0:0:
484,16,13899,1,2,0:2:0:0:
484,100,14310,5,0,0:0:0:0:
448,176,14721,2,0,L|484:252,1,70,2|2,0:2|0:2,0:0:0:0:
408,288,15543,2,0,L|378:224,1,70,0|2,0:0|0:2,0:0:0:0:
133,224,17187,2,0,L|104:288,1,70,2|2,0:2|0:2,0:0:0:0:
256,88,18831,5,2,0:2:0:0:
318,144,19242,2,0,P|255:171|193:143,2,140,2|2|0,0:2|0:2|0:0,0:0:0:0:
376,84,21296,6,0,P|396:113|401:149,1,70,2|2,0:2|0:2,0:0:0:0:
429,227,22118,2,0,P|394:232|361:222,1,70,0|10,0:0|0:3,0:0:0:0:
150,222,23762,2,0,P|117:232|83:227,1,70,2|2,0:2|0:2,0:0:0:0:
256,44,25406,5,2,0:2:0:0:
256,128,25817,2,0,B|232:192|280:200|256:264,2,140,2|2|2,0:2|0:2|0:2,0:0:0:0:
336,160,27872,5,8,0:2:0:0:
416,192,28283,2,0,L|484:180,1,70,0|8,0:0|0:2,0:0:0:0:
512,260,29105,2,0,L|444:272,1,70,0|8,0:0|0:2,0:0:0:0:
388,336,29927,1,2,0:2:0:0:
360,256,30338,1,10,0:2:0:0:
359,174,30749,6,0,P|325:179|297:199,1,70,0|8,0:0|0:2,0:0:0:0:
215,198,31570,2,0,P|186:179|152:174,1,70,0|8,0:0|0:2,0:0:0:0:
69,164,32392,2,0,P|89:229|152:256,1,140,0|0,0:0|0:0,0:0:0:0:
214,312,33625,1,10,0:2:0:0:
298,312,34036,6,0,L|368:324,1,70,0|8,0:0|0:2,0:0:0:0:
442,288,34858,2,0,P|422:260|391:243,1,70,0|8,0:0|0:2,0:0:0:0:
316,208,35680,2,0,P|335:179|366:163,1,70,0|8,0:0|0:2,0:0:0:0:
448,180,36502,1,2,0:2:0:0:
422,100,36913,1,10,0:2:0:0:
366,37,37324,6,0,L|296:18,1,70,0|8,0:0|0:2,0:0:0:0:
213,18,38146,2,0,L|146:37,1,70,0|8,0:0|0:2,0:0:0:0:
64,28,38968,2,0,P|84:93|147:120,1,140,0|0,0:0|0:0,0:0:0:0:
192,192,40201,1,8,0:3:0:0:
256,244,40612,6,0,L|336:236,1,70,8|10,0:2|0:3,0:0:0:0:
360,316,41433,2,0,L|290:322,1,70,10|8,0:2|0:3,0:0:0:0:
208,352,42255,2,0,B|144:328|136:376|72:352,1,140,10|8,0:2|0:2,0:0:0:0:
104,272,43488,1,10,0:3:0:0:
72,192,43899,6,0,B|136:168|144:216|208:192,1,140,10|8,0:2|0:2,0:0:0:0:
256,124,45132,1,10,0:3:0:0:
304,56,45543,2,0,P|270:42|236:43,2,70,10|8|10,0:2|0:3|0:2,0:0:0:0:
344,132,46776,1,8,0:3:0:0:
388,60,47187,6,0,P|424:100|428:128,1,70,8|10,0:2|0:3,0:0:0:0:
400,196,48009,2,0,P|412:228|439:250,1,70,10|8,0:2|0:3,0:0:0:0:
456,332,48831,2,0,L|316:319,1,140,10|8,0:2|0:2,0:0:0:0:
256,260,50064,1,10,0:3:0:0:
195,319,50475,6,0,L|56:332,1,140,10|8,0:2|0:2,0:0:0:0:
28,252,51707,1,10,0:3:0:0:
90,198,52118,2,0,L|160:192,1,70,10|8,0:2|0:3,0:0:0:0:
236,228,52940,1,10,0:2:0:0:
276,156,53351,1,8,0:3:0:0:
352,192,53762,6,0,L|421:185,1,70,2|0,0:2|0:0,0:0:0:0:
452,264,54584,2,0,L|382:270,1,70,0|0,0:0|0:0,0:0:0:0:
340,344,55406,2,0,P|312:320|300:280,2,70,2|0|2,0:2|0:0|0:2,0:0:0:0:
172,343,57050,6,0,P|198:321|211:289,1,70,2|0,0:2|0:0,0:0:0:0:
129,270,57872,2,0,L|60:264,1,70,0|0,0:0|0:0,0:0:0:0:
90,185,58694,2,0,L|160:192,2,70,2|0|2,0:2|0:0|0:2,0:0:0:0:
192,52,60338,6,0,P|209:80|243:99,1,70,10|8,0:2|0:3,0:0:0:0:
267,19,61159,2,0,P|297:36|316:66,1,70,0|8,0:0|0:3,0:0:0:0:
312,152,61981,2,0,L|400:128,1,70,10|8,0:2|0:3,0:0:0:0:
424,208,62803,2,0,L|356:226,2,70,2|8|10,0:2|0:3|0:2,0:0:0:0:
155,226,65269,6,0,L|88:208,2,70,10|10|8,0:2|0:3|0:2,0:0:0:0:
144,48,66913,6,0,P|178:47|211:36,1,70,10|8,0:2|0:3,0:0:0:0:
300,36,67735,2,0,P|333:47|368:48,1,70,10|8,0:2|0:3,0:0:0:0:
452,72,68557,2,0,B|416:132|416:132|452:192,1,140,10|10,0:2|0:2,0:0:0:0:
480,272,69790,1,10,0:3:0:0:
440,348,70201,6,0,L|354:370,1,70,10|8,0:2|0:3,0:0:0:0:
328,292,71023,2,0,L|413:269,1,70,10|8,0:2|0:3,0:0:0:0:
480,272,71844,2,0,P|453:209|389:187,1,140,10|10,0:2|0:2,0:0:0:0:
308,162,73077,1,10,0:3:0:0:
370,105,73488,6,0,B|343:77|308:78|308:78|256:28,1,140,10|8,0:2|0:2,0:0:0:0:
120,124,75132,2,0,B|108:190|108:190|153:190|173:217,1,140,10|10,0:2|0:2,0:0:0:0:
112,274,76365,1,10,0:3:0:0:
83,355,76776,6,0,P|150:350|195:295,1,140,10|10,0:2|0:2,0:0:0:0:
317,296,78214,2,0,P|361:349|429:355,1,140,2|2,0:2|0:2,0:0:0:0:
488,246,79653,1,10,0:3:0:0:
424,192,80064,6,0,P|389:191|356:180,1,70,10|8,0:2|0:3,0:0:0:0:
274,199,80886,2,0,P|274:164|286:132,1,70,10|8,0:2|0:3,0:0:0:0:
266,50,81707,2,0,P|300:50|333:61,1,70,10|10,0:2|0:3,0:0:0:0:
416,42,82529,2,0,P|415:76|404:109,1,70,10|10,0:2|0:3,0:0:0:0:
424,192,83351,6,0,L|344:192,1,70,10|8,0:2|0:3,0:0:0:0:
292,248,84173,2,0,L|212:248,1,70,10|8,0:2|0:3,0:0:0:0:
172,315,84995,2,0,P|138:257|158:191,1,140,10|10,0:2|0:2,0:0:0:0:
172,108,86228,1,10,0:3:0:0:
96,135,86639,6,0,P|58:203|54:267,1,140,10|8,0:2|0:2,0:0:0:0:
222,248,88283,2,0,L|298:220,1,70,10|10,0:2|0:3,0:0:0:0:
290,136,89105,2,0,L|224:160,1,70,10|10,0:2|0:3,0:0:0:0:
152,204,89927,6,0,P|140:264|264:320,1,210,10|8,0:2|0:3,0:0:0:0:
323,369,91570,2,0,P|317:271|222:248,1,210,8|8,0:2|0:3,0:0:0:0:
152,204,93214,6,0,L|89:168,2,70,10|10|10,0:2|0:3|0:2,0:0:0:0:
256,132,94653,2,0,L|256:60,2,70,2|0|2,0:2|0:0|0:2,0:0:0:0:
360,204,96091,1,10,0:3:0:0:
379,284,96502,6,0,P|411:269|433:242,2,70,10|10|10,0:2|0:3|0:2,0:0:0:0:
256,308,97940,2,0,L|256:384,2,70,2|0|2,0:2|0:0|0:2,0:0:0:0:
132,284,99379,1,10,0:3:0:0:
156,204,99790,6,0,B|120:200|120:200|89:214,2,70,10|10|10,0:2|0:3|0:2,0:0:0:0:
192,84,101228,2,0,L|116:76,2,70,2|0|2,0:2|0:0|0:2,0:0:0:0:
320,84,102666,1,10,0:3:0:0:
355,159,103077,6,0,P|384:140|404:96,2,70,10|10|10,0:2|0:3|0:2,0:0:0:0:
256,236,104516,2,0,L|256:320,2,70,2|0|2,0:2|0:0|0:2,0:0:0:0:
156,160,105954,1,10,0:3:0:0:
163,62,119516,6,0,L|235:66,1,70,8|8,0:2|0:2,0:0:0:0:
254,148,120338,1,8,0:2:0:0:
315,90,120749,1,8,0:2:0:0:
375,30,121159,2,0,P|432:33|481:124,1,140,10|10,0:2|0:2,0:0:0:0:
396,112,122392,1,10,0:2:0:0:
420,200,122803,6,0,P|385:200|352:190,1,70,8|10,0:2|0:2,0:0:0:0:
270,209,123625,2,0,P|269:174|279:141,2,70,10|8|8,0:2|0:2|0:2,0:0:0:0:
240,288,124858,2,0,P|240:322|230:355,2,70,10|8|10,0:2|0:2|0:2,0:0:0:0:
160,312,126091,6,0,L|86:331,1,70,8|8,0:2|0:2,0:0:0:0:
40,263,126913,1,8,0:2:0:0:
92,196,127324,1,8,0:2:0:0:
160,148,127735,2,0,L|232:136,1,70,10|8,0:2|0:2,0:0:0:0:
304,96,128557,2,0,L|315:165,1,70,10|10,0:2|0:2,0:0:0:0:
356,240,129379,6,0,L|284:252,1,70,8|10,0:2|0:2,0:0:0:0:
212,292,130201,2,0,L|200:222,1,70,10|8,0:2|0:2,0:0:0:0:
124,192,131023,1,10,0:2:0:0:
48,160,131433,1,8,0:2:0:0:
112,106,131844,2,0,L|139:40,1,70,10|8,0:2|0:2,0:0:0:0:
220,24,132666,6,0,P|254:27|289:24,1,70,8|8,0:2|0:2,0:0:0:0:
372,41,133488,2,0,L|400:106,1,70,8|8,0:2|0:2,0:0:0:0:
472,147,134310,2,0,P|434:182|340:162,1,140,10|10,0:2|0:2,0:0:0:0:
296,108,135543,1,10,0:2:0:0:
218,141,135954,6,0,P|236:170|266:187,1,70,10|10,0:2|0:2,0:0:0:0:
260,272,136776,2,0,P|294:270|324:252,1,70,10|10,0:2|0:2,0:0:0:0:
392,300,137598,2,0,P|408:269|407:234,1,70,10|10,0:2|0:2,0:0:0:0:
484,204,138420,2,0,P|465:174|435:157,1,70,10|10,0:2|0:3,0:0:0:0:
408,76,139242,5,10,0:2:0:0:
256,0,140064,1,10,0:2:0:0:
104,76,140886,1,10,0:2:0:0:
256,336,142529,5,10,0:2:0:0:
290,170,143351,2,0,P|256:177|222:171,1,70,10|10,0:2|0:2,0:0:0:0:
256,96,144173,1,10,0:2:0:0:
308,344,145817,6,0,L|296:259,1,70,10|8,0:2|0:3,0:0:0:0:
214,274,146639,2,0,L|205:344,1,70,10|8,0:2|0:3,0:0:0:0:
129,301,147461,2,0,P|79:255|74:187,1,140,10|10,0:2|0:2,0:0:0:0:
32,112,148694,1,10,0:3:0:0:
71,36,149105,6,0,P|104:24|139:28,1,70,10|8,0:2|0:3,0:0:0:0:
183,102,149927,2,0,P|150:114|116:110,1,70,10|8,0:2|0:3,0:0:0:0:
32,112,150749,2,0,L|44:268,1,140,10|10,0:2|0:2,0:0:0:0:
108,303,151981,1,10,0:3:0:0:
190,289,152392,6,0,P|255:268|321:289,1,140,10|8,0:2|0:2,0:0:0:0:
439,170,154036,2,0,P|370:173|312:136,1,140,10|10,0:2|0:2,0:0:0:0:
256,72,155269,1,10,0:3:0:0:
199,136,155680,6,0,P|141:173|73:170,1,140,10|10,0:2|0:2,0:0:0:0:
47,293,157118,2,0,L|118:300,1,70,2|2,0:2|0:2,0:0:0:0:
190,339,157940,2,0,P|241:319|307:329,1,105,2|10,0:2|0:3,0:0:0:0:
373,308,158968,6,0,L|386:239,1,70,10|8,0:2|0:3,0:0:0:0:
435,170,159790,2,0,P|404:156|369:159,1,70,10|8,0:2|0:3,0:0:0:0:
303,211,160612,2,0,L|164:196,1,140,10|10,0:2|0:2,0:0:0:0:
80,185,161844,1,10,0:3:0:0:
52,105,162255,6,0,P|34:68|48:18,1,70,10|8,0:2|0:3,0:0:0:0:
119,53,163077,2,0,P|150:36|185:38,1,70,10|8,0:2|0:3,0:0:0:0:
168,120,163899,2,0,P|235:109|268:50,1,140,10|10,0:2|0:2,0:0:0:0:
348,24,165132,1,10,0:3:0:0:
428,48,165543,6,0,L|458:198,1,140,10|8,0:2|0:2,0:0:0:0:
364,326,167187,2,0,P|329:324|298:340,1,70,10|10,0:2|0:3,0:0:0:0:
213,340,168009,2,0,P|182:324|148:326,1,70,10|10,0:2|0:3,0:0:0:0:
79,276,168831,6,0,B|94:240|82:199|82:199|234:187,1,210,10|8,0:2|0:3,0:0:0:0:
299,195,170475,2,0,B|430:185|430:185|418:144|433:108,1,210,8|8,0:2|0:3,0:0:0:0:
369,53,172118,6,0,L|267:42,1,70,10|10,0:2|0:3,0:0:0:0:
218,70,172940,1,10,0:2:0:0:
96,38,173557,2,0,L|86:108,1,70,2|0,0:2|0:0,0:0:0:0:
52,184,174379,2,0,P|71:231|54:287,1,105,2|10,0:2|0:3,0:0:0:0:
113,344,175406,6,0,L|195:339,1,70,10|10,0:2|0:3,0:0:0:0:
256,296,176228,1,10,0:2:0:0:
200,184,176844,2,0,L|216:100,1,70,2|0,0:2|0:0,0:0:0:0:
298,115,177666,2,0,B|310:176|310:176|368:180,1,105,2|10,0:2|0:3,0:0:0:0:
432,150,178694,6,0,P|436:196|419:235,1,70,10|10,0:2|0:3,0:0:0:0:
392,294,179516,1,10,0:2:0:0:
273,336,180132,2,0,L|197:330,1,70,2|0,0:2|0:0,0:0:0:0:
120,346,180954,2,0,P|124:299|83:231,1,105,2|10,0:2|0:3,0:0:0:0:
36,192,181981,6,0,L|47:105,1,70,10|10,0:2|0:3,0:0:0:0:
88,52,182803,1,10,0:2:0:0:
213,45,183420,2,0,L|221:114,1,70,2|0,0:2|0:0,0:0:0:0:
256,192,184242,2,0,B|308:208|308:180|360:192,1,105,2|10,0:2|0:3,0:0:0:0:
399,265,185269,5,0,0:0:0:0:
