osu file format v14

[General]
AudioFilename: motto!.mp3
AudioLeadIn: 0
PreviewTime: 69567
Countdown: 0
SampleSet: Soft
StackLeniency: 0.5
Mode: 0
LetterboxInBreaks: 0
WidescreenStoryboard: 1

[Editor]
Bookmarks: 16386,27295,38204,49113,60022,107749,183381,184745
DistanceSpacing: 0.4
BeatDivisor: 4
GridSize: 16
TimelineZoom: 2.5

[Metadata]
Title:Fansa (Cut Ver.)
TitleUnicode:ファンサ (Cut Ver.)
Artist:mona (CV: Natsukawa Shiina)
ArtistUnicode:mona (CV: 夏川椎菜)
Creator:imaginative
Version:Xahlt's Insane!
Source:
Tags:Serizawa Haruki Jack J_a_c_k xahlt fanservice loli female vocals japanese pop jpop j-pop 好きすぎてやばい。〜告白実行委員会キャラクターソング集〜 song collection Kokuhaku Jikkou Iinkai Confession Executive Committee 成海 萌奈 Narumi Mona ハニーワークス honeyworks ~アイドルシリーズ~ idol series gom shito ヤマコ yamako short ver. version
BeatmapID:2678701
BeatmapSetID:1279201

[Difficulty]
HPDrainRate:5
CircleSize:3.8
OverallDifficulty:8
ApproachRate:8.8
SliderMultiplier:1.6
SliderTickRate:1

[Events]
//Background and Video events
0,0,"motto!.jpg",0,0
//Break Periods
2,49480,58684
//Storyboard Layer 0 (Background)
//Storyboard Layer 1 (Fail)
//Storyboard Layer 2 (Pass)
//Storyboard Layer 3 (Foreground)
//Storyboard Layer 4 (Overlay)
//Storyboard Sound Samples

[TimingPoints]
596,394.736842105263,4,2,1,40,1,0
596,-166.666666666667,4,2,1,40,0,0
16188,-166.666666666667,4,2,1,5,0,0
16412,340.909090909091,4,2,1,55,1,0
16412,-111.111111111111,4,2,1,55,0,0
19905,-111.111111111111,4,2,1,5,0,0
19991,-111.111111111111,4,2,1,55,0,0
22632,-111.111111111111,4,2,1,5,0,0
22718,-111.111111111111,4,2,1,55,0,0
25360,-111.111111111111,4,2,1,5,0,0
25446,-111.111111111111,4,2,1,55,0,0
27321,-100,4,2,1,60,0,0
27576,-100,4,2,1,5,0,0
27662,-100,4,2,1,60,0,0
28598,-100,4,2,1,5,0,0
28684,-100,4,2,1,60,0,0
31326,-100,4,2,1,5,0,0
31412,-100,4,2,1,60,0,0
32689,-100,4,2,1,5,0,0
32775,-100,4,2,1,60,0,0
34053,-100,4,2,1,5,0,0
34139,-100,4,2,1,60,0,0
35417,-100,4,2,1,5,0,0
35502,-100,4,2,1,60,0,0
36780,-100,4,2,1,5,0,0
36866,-100,4,2,1,60,0,0
38230,-125,4,2,1,55,0,0
39507,-125,4,2,1,5,0,0
39593,-125,4,2,1,55,0,0
44621,-125,4,2,1,5,0,0
44707,-125,4,2,1,55,0,0
45985,-125,4,2,1,5,0,0
46071,-125,4,2,1,55,0,0
46326,-125,4,2,1,5,0,0
46412,-125,4,2,1,55,0,0
47689,-125,4,2,1,5,0,0
47775,-125,4,2,1,55,0,0
49139,-125,4,2,2,55,0,0
59366,-142.857142857143,4,2,1,45,0,0
59537,-142.857142857143,4,2,3,45,0,0
59792,-142.857142857143,4,2,1,45,0,0
59962,-142.857142857143,4,2,1,5,0,0
60048,-111.111111111111,4,2,1,60,0,0
62348,-111.111111111111,4,2,1,5,0,0
62434,-111.111111111111,4,2,1,60,0,0
62689,-111.111111111111,4,2,1,5,0,0
62775,-111.111111111111,4,2,1,60,0,0
63968,-111.111111111111,4,2,3,60,0,0
64139,-111.111111111111,4,2,1,60,0,0
64991,-111.111111111111,4,2,3,60,0,0
65076,-111.111111111111,4,2,3,5,0,0
65162,-111.111111111111,4,2,1,60,0,0
65417,-111.111111111111,4,2,1,5,0,0
65502,-111.111111111111,4,2,1,60,0,0
66780,-111.111111111111,4,2,1,5,0,0
66866,-111.111111111111,4,2,1,60,0,0
67121,-111.111111111111,4,2,1,5,0,0
67207,-111.111111111111,4,2,1,60,0,0
67462,-111.111111111111,4,2,1,5,0,0
67548,-111.111111111111,4,2,1,60,0,0
69593,-76.9230769230769,4,2,1,75,0,0
69934,-71.4285714285714,4,2,1,75,0,0
70275,-66.6666666666667,4,2,1,75,0,0
70616,-55.5555555555556,4,2,1,75,0,0
70957,-90.9090909090909,4,2,1,70,0,1
71809,-90.9090909090909,4,2,3,70,0,1
71980,-90.9090909090909,4,2,1,70,0,1
72150,-90.9090909090909,4,2,3,70,0,1
72321,-90.9090909090909,4,2,1,70,0,1
72491,-90.9090909090909,4,2,3,70,0,1
72576,-90.9090909090909,4,2,3,5,0,1
72662,-90.9090909090909,4,2,1,70,0,1
72832,-90.9090909090909,4,2,3,70,0,1
73002,-83.3333333333333,4,2,1,70,0,1
73173,-83.3333333333333,4,2,3,70,0,1
73257,-83.3333333333333,4,2,3,5,0,1
73343,-83.3333333333333,4,2,1,70,0,1
73514,-83.3333333333333,4,2,3,70,0,1
73598,-83.3333333333333,4,2,3,5,0,1
73684,-90.9090909090909,4,2,1,70,0,1
73854,-90.9090909090909,4,2,3,70,0,1
74025,-90.9090909090909,4,2,1,70,0,1
74196,-90.9090909090909,4,2,3,70,0,1
74366,-90.9090909090909,4,2,1,70,0,1
74536,-90.9090909090909,4,2,3,70,0,1
74707,-90.9090909090909,4,2,1,70,0,1
74877,-90.9090909090909,4,2,3,70,0,1
75048,-90.9090909090909,4,2,1,70,0,1
75218,-90.9090909090909,4,2,3,70,0,1
75303,-90.9090909090909,4,2,3,5,0,1
75389,-90.9090909090909,4,2,1,70,0,1
75559,-90.9090909090909,4,2,3,70,0,1
75730,-83.3333333333333,4,2,1,70,0,1
75900,-83.3333333333333,4,2,3,70,0,1
75985,-83.3333333333333,4,2,3,5,0,1
76071,-83.3333333333333,4,2,1,70,0,1
76241,-83.3333333333333,4,2,3,70,0,1
76326,-83.3333333333333,4,2,1,70,0,1
76412,-90.9090909090909,4,2,1,70,0,1
76582,-90.9090909090909,4,2,3,70,0,1
76667,-90.9090909090909,4,2,3,5,0,1
76752,-90.9090909090909,4,2,1,70,0,1
76922,-90.9090909090909,4,2,3,70,0,1
77093,-90.9090909090909,4,2,1,70,0,1
77263,-90.9090909090909,4,2,3,70,0,1
77434,-90.9090909090909,4,2,1,70,0,1
77605,-90.9090909090909,4,2,3,70,0,1
77689,-90.9090909090909,4,2,3,5,0,1
77775,-90.9090909090909,4,2,1,70,0,1
77946,-90.9090909090909,4,2,3,70,0,1
78030,-90.9090909090909,4,2,3,5,0,1
78116,-90.9090909090909,4,2,1,70,0,1
78287,-90.9090909090909,4,2,3,70,0,1
78371,-90.9090909090909,4,2,3,5,0,1
78457,-90.9090909090909,4,2,1,70,0,1
78627,-90.9090909090909,4,2,3,70,0,1
78798,-90.9090909090909,4,2,1,70,0,1
78968,-90.9090909090909,4,2,3,70,0,1
79053,-90.9090909090909,4,2,3,5,0,1
79139,-90.9090909090909,4,2,1,70,0,1
82718,-90.9090909090909,4,2,3,70,0,1
82889,-90.9090909090909,4,2,1,70,0,1
83059,-90.9090909090909,4,2,3,70,0,1
83230,-90.9090909090909,4,2,1,70,0,1
83400,-90.9090909090909,4,2,3,70,0,1
83485,-90.9090909090909,4,2,3,5,0,1
83571,-90.9090909090909,4,2,1,70,0,1
83741,-90.9090909090909,4,2,3,70,0,1
83912,-83.3333333333333,4,2,1,70,0,1
84082,-83.3333333333333,4,2,3,70,0,1
84167,-83.3333333333333,4,2,3,5,0,1
84253,-83.3333333333333,4,2,1,70,0,1
84423,-83.3333333333333,4,2,3,70,0,1
84508,-83.3333333333333,4,2,3,5,0,1
84593,-90.9090909090909,4,2,1,70,0,1
85105,-90.9090909090909,4,2,3,70,0,1
85275,-90.9090909090909,4,2,1,70,0,1
85445,-90.9090909090909,4,2,3,70,0,1
85616,-90.9090909090909,4,2,1,70,0,1
85786,-90.9090909090909,4,2,3,70,0,1
85957,-90.9090909090909,4,2,1,70,0,1
86639,-83.3333333333333,4,2,1,70,0,1
87321,-90.9090909090909,4,2,1,70,0,1
87491,-90.9090909090909,4,2,3,70,0,1
87576,-90.9090909090909,4,2,3,5,0,1
87662,-90.9090909090909,4,2,1,70,0,1
87832,-90.9090909090909,4,2,3,70,0,1
88002,-90.9090909090909,4,2,1,70,0,1
88172,-90.9090909090909,4,2,3,70,0,1
88343,-90.9090909090909,4,2,1,70,0,1
88514,-90.9090909090909,4,2,3,70,0,1
88598,-90.9090909090909,4,2,3,5,0,1
88684,-90.9090909090909,4,2,1,70,0,1
88855,-90.9090909090909,4,2,3,70,0,1
88939,-90.9090909090909,4,2,3,5,0,1
89025,-90.9090909090909,4,2,1,70,0,1
89196,-90.9090909090909,4,2,3,70,0,1
89280,-90.9090909090909,4,2,3,5,0,1
89366,-90.9090909090909,4,2,1,70,0,1
89536,-90.9090909090909,4,2,3,70,0,1
89707,-90.9090909090909,4,2,1,70,0,1
89877,-90.9090909090909,4,2,3,70,0,1
89962,-90.9090909090909,4,2,3,5,0,1
90048,-90.9090909090909,4,2,1,70,0,1
90730,-83.3333333333333,4,2,1,70,0,1
90985,-83.3333333333333,4,2,1,5,0,1
91071,-76.9230769230769,4,2,1,70,0,1
92093,-90.9090909090909,4,2,1,70,0,1
92775,-250.000000000001,4,2,1,50,0,0
95162,-125,4,2,1,50,0,0
95417,-125,4,2,1,5,0,0
95502,-90.9090909090909,4,2,1,60,0,1
95757,-90.9090909090909,4,2,1,5,0,1
95843,-90.9090909090909,4,2,1,60,0,0
96013,-90.9090909090909,4,2,3,60,0,0
96184,-90.9090909090909,4,2,1,60,0,0
96355,-90.9090909090909,4,2,3,60,0,0
96525,-90.9090909090909,4,2,1,60,0,0
96696,-90.9090909090909,4,2,3,60,0,0
96866,-90.9090909090909,4,2,1,60,0,0
97036,-90.9090909090909,4,2,3,60,0,0
97207,-90.9090909090909,4,2,1,60,0,0
97377,-90.9090909090909,4,2,3,60,0,0
97548,-90.9090909090909,4,2,1,60,0,0
97718,-90.9090909090909,4,2,3,60,0,0
97803,-90.9090909090909,4,2,3,5,0,0
97889,-90.9090909090909,4,2,1,60,0,0
98059,-90.9090909090909,4,2,3,60,0,0
98230,-90.9090909090909,4,2,1,60,0,0
98400,-90.9090909090909,4,2,3,60,0,0
98485,-90.9090909090909,4,2,3,5,0,0
98571,-90.9090909090909,4,2,1,60,0,0
98741,-90.9090909090909,4,2,3,60,0,0
98912,-90.9090909090909,4,2,1,60,0,0
99082,-90.9090909090909,4,2,3,60,0,0
99252,-90.9090909090909,4,2,1,60,0,0
99423,-90.9090909090909,4,2,3,60,0,0
99593,-90.9090909090909,4,2,1,60,0,0
100189,-90.9090909090909,4,2,1,5,0,0
100275,-90.9090909090909,4,2,1,60,0,0
100957,-90.9090909090909,4,2,1,60,0,1
101212,-90.9090909090909,4,2,1,5,0,1
101298,-90.9090909090909,4,2,1,60,0,0
101809,-90.9090909090909,4,2,3,60,0,0
101980,-90.9090909090909,4,2,1,60,0,0
102150,-90.9090909090909,4,2,3,60,0,0
102321,-90.9090909090909,4,2,1,60,0,0
102491,-90.9090909090909,4,2,3,60,0,0
102662,-90.9090909090909,4,2,1,60,0,0
102832,-90.9090909090909,4,2,3,60,0,0
103002,-90.9090909090909,4,2,1,60,0,0
103173,-90.9090909090909,4,2,3,60,0,0
103343,-90.9090909090909,4,2,1,60,0,0
103514,-90.9090909090909,4,2,3,60,0,0
103684,-90.9090909090909,4,2,1,60,0,0
103854,-90.9090909090909,4,2,3,60,0,0
104025,-90.9090909090909,4,2,1,60,0,0
104195,-90.9090909090909,4,2,3,60,0,0
104366,-90.9090909090909,4,2,1,60,0,0
104536,-90.9090909090909,4,2,3,60,0,0
104707,-90.9090909090909,4,2,1,60,0,0
104877,-90.9090909090909,4,2,3,60,0,0
105048,-90.9090909090909,4,2,1,60,0,0

[Colours]
Combo1 : 255,123,123
Combo2 : 191,191,255
Combo3 : 77,255,255
Combo4 : 255,202,149
SliderBorder : 225,170,213

[HitObjects]
20,169,596,6,0,B|119:172|87:85|194:95,1,191.999994140625,0|2,2:0|2:0,2:0:0:0:
270,143,1780,1,2,2:0:0:0:
189,195,2174,1,2,2:0:0:0:
320,40,2964,2,0,L|273:42,1,47.9999985351563,2|0,2:0|2:0,2:0:0:0:
187,94,3359,1,2,2:0:0:0:
278,243,3753,6,0,L|472:233,1,191.999994140625,0|2,2:0|2:0,2:0:0:0:
512,311,4938,1,2,2:0:0:0:
416,313,5332,1,2,2:0:0:0:
460,186,6122,2,0,L|472:246,1,47.9999985351563,2|0,2:0|2:0,2:0:0:0:
416,313,6517,1,2,2:0:0:0:
484,98,6911,5,0,2:0:0:0:
484,98,7306,2,0,L|375:88,1,95.9999970703126,2|2,2:0|2:0,2:0:0:0:
314,27,8095,1,2,2:0:0:0:
261,107,8490,2,0,P|284:148|298:194,1,95.9999970703126,2|2,2:0|2:0,2:0:0:0:
246,275,9280,1,2,2:0:0:0:
34,133,10069,6,0,L|96:119,1,47.9999985351563,2|2,2:0|2:0,2:0:0:0:
164,45,10464,2,0,L|102:31,1,47.9999985351563,2|2,2:0|2:0,2:0:0:0:
171,195,10859,2,0,P|167:149|201:118,1,95.9999970703126,2|2,2:0|2:0,2:0:0:0:
78,228,11648,5,2,2:0:0:0:
170,212,11845,1,2,2:0:0:0:
85,320,12043,2,0,L|188:306,1,95.9999970703126,2|2,2:0|2:0,2:0:0:0:
262,250,12832,1,2,2:0:0:0:
274,345,13227,5,0,2:0:0:0:
256,192,14806,12,0,16188,2:0:0:0:
137,31,16412,6,0,P|132:66|121:100,1,71.9999978027344,4|0,3:2|2:0,2:0:0:0:
47,163,16752,1,2,3:2:0:0:
31,67,16923,1,2,2:0:0:0:
138,197,17093,2,0,B|192:190|192:190|221:205|221:205|277:198,1,143.999995605469,2|2,3:2|3:2,2:0:0:0:
366,235,17605,1,2,2:0:0:0:
341,65,17775,6,0,L|353:137,1,71.9999978027344,0|0,3:2|2:0,2:0:0:0:
445,275,18116,2,0,L|452:203,1,71.9999978027344,0|0,3:2|2:0,2:0:0:0:
463,54,18457,1,0,3:2:0:0:
331,300,18798,6,0,L|260:311,1,71.9999978027344,2|2,3:2|2:0,2:0:0:0:
173,357,19139,1,2,3:2:0:0:
119,224,19309,2,0,L|190:235,1,71.9999978027344,2|0,2:0|3:2,2:0:0:0:
39,270,19650,2,0,P|24:219|46:171,1,107.999996704102,2|0,2:0|2:0,2:0:0:0:
59,157,19991,2,0,P|67:122|64:86,1,71.9999978027344,2|0,2:0|3:2,2:0:0:0:
6,3,20332,1,2,2:0:0:0:
156,73,20502,6,0,L|246:60,1,71.9999978027344,0|0,3:2|2:0,2:0:0:0:
354,89,20843,1,0,3:2:0:0:
307,7,21014,1,0,2:0:0:0:
273,169,21184,1,0,3:2:0:0:
273,169,21525,5,2,3:2:0:0:
355,221,21696,1,2,2:0:0:0:
354,89,21866,1,2,3:2:0:0:
271,269,22037,2,0,L|283:345,1,71.9999978027344,2|0,2:0|3:2,2:0:0:0:
436,284,22377,2,0,L|454:159,1,107.999996704102,2|0,2:0|2:0,2:0:0:0:
474,156,22718,2,0,P|460:124|454:88,1,71.9999978027344,2|0,2:0|3:2,2:0:0:0:
504,9,23059,1,2,2:0:0:0:
356,91,23230,6,0,L|258:80,1,71.9999978027344,0|0,3:2|2:0,2:0:0:0:
172,183,23571,2,0,L|270:175,1,71.9999978027344,0|0,3:2|2:0,2:0:0:0:
183,74,23912,1,0,3:2:0:0:
183,74,24252,6,0,L|103:67,1,71.9999978027344,2|2,3:2|2:0,2:0:0:0:
31,11,24593,1,2,3:2:0:0:
10,148,24764,2,0,P|16:182|22:239,1,71.9999978027344,2|0,2:0|3:2,2:0:0:0:
11,336,25105,2,0,P|38:294|95:284,1,107.999996704102,2|0,2:0|2:0,2:0:0:0:
118,292,25446,1,2,2:0:0:0:
186,354,25616,1,2,3:2:0:0:
94,384,25787,1,2,2:0:0:0:
207,233,25957,6,0,L|223:162,1,71.9999978027344,0|0,3:2|2:0,2:0:0:0:
310,84,26298,2,0,L|326:155,1,71.9999978027344,4|0,3:2|2:0,2:0:0:0:
303,267,26639,2,0,B|331:249|331:249|407:276,1,107.999996704102,8|8,2:0|2:0,2:0:0:0:
472,335,26980,1,8,2:0:0:0:
475,317,27065,1,8,2:0:0:0:
479,299,27150,1,0,3:2:0:0:
482,282,27235,1,0,3:2:0:0:
486,264,27321,6,0,L|470:142,1,120,4|0,3:2|2:0,2:0:0:0:
463,113,27662,1,10,2:0:0:0:
394,180,27832,1,2,2:0:0:0:
355,8,28002,2,0,L|371:86,1,80,2|0,3:2|3:2,2:0:0:0:
236,133,28343,2,0,P|278:134|284:219,1,120,10|0,2:0|2:0,2:0:0:0:
288,226,28684,5,0,3:2:0:0:
205,276,28855,1,0,2:0:0:0:
79,202,29025,2,0,L|166:190,1,80,8|0,2:0|2:0,2:0:0:0:
252,114,29366,2,0,L|165:102,1,80,0|0,3:2|3:2,2:0:0:0:
58,22,29707,1,10,2:0:0:0:
85,116,29877,1,2,2:0:0:0:
173,8,30048,5,2,3:2:0:0:
252,114,30218,2,0,L|267:20,1,80,2|8,2:0|2:0,2:0:0:0:
351,113,30559,2,0,L|363:192,1,80,2|0,2:0|3:2,2:0:0:0:
446,137,30900,1,2,3:2:0:0:
321,273,31071,2,0,B|360:291|360:291|461:257,1,120,8|0,2:0|2:0,2:0:0:0:
451,245,31412,5,0,3:2:0:0:
491,333,31582,1,0,2:0:0:0:
330,297,31752,1,8,2:0:0:0:
281,381,31923,1,0,2:0:0:0:
152,342,32093,2,0,L|170:259,1,80,0|0,3:2|3:2,2:0:0:0:
91,172,32434,2,0,P|143:180|171:107,1,120,10|0,2:0|2:0,2:0:0:0:
161,99,32775,5,6,3:2:0:0:
262,27,32946,2,0,L|278:105,1,80,2|8,2:0|2:0,2:0:0:0:
372,214,33287,2,0,P|337:194|297:193,1,80,2|0,2:0|3:2,2:0:0:0:
309,291,33627,1,2,3:2:0:0:
474,329,33798,2,0,L|464:183,1,120,8|0,2:0|2:0,2:0:0:0:
445,178,34139,6,0,P|468:145|472:105,1,80,0|0,3:2|2:0,2:0:0:0:
355,38,34480,1,8,2:0:0:0:
390,115,34650,1,0,2:0:0:0:
455,19,34821,2,0,L|345:8,1,80,0|0,3:2|3:2,2:0:0:0:
292,107,35162,2,0,P|253:64|195:55,1,120,10|0,2:0|2:0,2:0:0:0:
169,67,35502,5,2,3:2:0:0:
131,204,35673,2,0,P|158:232|197:240,1,80,2|8,2:0|2:0,2:0:0:0:
381,255,36014,2,0,B|291:205,1,80,2|0,2:0|3:2,2:0:0:0:
204,155,36355,1,2,3:2:0:0:
266,325,36525,2,0,L|145:327,1,120,8|0,2:0|2:0,2:0:0:0:
78,384,36866,6,0,B|50:342|50:342|77:247,1,120,4|8,3:2|2:0,2:0:0:0:
84,244,37207,1,0,3:2:0:0:
146,326,37377,1,8,2:0:0:0:
174,123,37548,6,0,L|184:203,1,80,4|2,3:2|2:0,2:0:0:0:
191,231,37804,1,8,2:0:0:0:
191,231,37889,1,2,3:2:0:0:
90,151,38059,1,2,3:2:0:0:
240,65,38230,6,0,L|394:42,1,128,6|2,3:2|2:0,2:0:0:0:
446,2,38741,1,0,3:2:0:0:
498,126,38912,1,10,2:0:0:0:
487,109,39082,1,2,2:0:0:0:
395,181,39252,2,0,P|351:153|288:159,1,96,2|0,2:0|2:0,2:0:0:0:
283,162,39593,5,2,3:2:0:0:
229,265,39764,1,10,2:0:0:0:
401,268,39934,2,0,P|367:276|326:278,1,64,2|2,3:2|2:0,2:0:0:0:
180,349,40275,2,0,P|211:352|243:360,1,64,8|2,2:0|3:2,2:0:0:0:
346,384,40616,1,2,2:0:0:0:
339,363,40787,1,2,2:0:0:0:
242,274,40957,5,6,3:2:0:0:
293,192,41127,1,2,2:0:0:0:
338,278,41298,1,2,2:0:0:0:
242,274,41468,1,2,3:2:0:0:
390,196,41639,5,10,2:0:0:0:
344,110,41809,1,2,2:0:0:0:
293,192,41980,1,2,3:2:0:0:
233,43,42150,6,0,L|248:106,1,64,2|0,2:0|3:2,2:0:0:0:
293,192,42491,1,10,2:0:0:0:
197,189,42662,1,2,3:2:0:0:
248,106,42832,1,2,3:2:0:0:
192,252,43002,6,0,L|196:189,1,64,8|8,2:0|2:0,2:0:0:0:
74,134,43343,2,0,L|81:197,1,64,2|2,3:2|2:0,2:0:0:0:
98,356,43684,6,0,B|130:328|130:328|228:353,1,128,6|2,3:2|2:0,2:0:0:0:
315,373,44196,1,2,3:2:0:0:
431,289,44366,2,0,L|317:258,1,96,10|0,2:0|2:0,2:0:0:0:
309,251,44707,1,2,3:2:0:0:
419,185,44877,1,2,2:0:0:0:
315,128,45048,5,2,3:2:0:0:
453,102,45218,2,0,L|324:93,1,128,8|2,2:0|3:2,2:0:0:0:
205,15,45730,2,0,P|236:50|242:97,1,96,10|0,2:0|2:0,2:0:0:0:
233,125,46071,2,0,L|125:117,1,96,2|0,2:0|2:0,2:0:0:0:
103,117,46412,5,6,3:2:0:0:
187,222,46582,1,8,2:0:0:0:
29,245,46752,2,0,L|39:166,1,64,2|8,3:2|2:0,2:0:0:0:
189,210,47093,2,0,L|197:274,1,64,10|0,2:0|3:2,2:0:0:0:
16,361,47434,2,0,P|50:330|97:328,1,96,2|0,3:2|2:0,2:0:0:0:
176,361,47775,5,6,3:2:0:0:
256,192,47860,12,4,49139,2:1:0:0:
482,47,59366,6,0,B|374:49|426:138|303:134,1,195.999994018555,2|0,2:0|2:0,2:0:0:0:
300,116,60048,6,0,P|266:98|212:107,1,71.9999978027344,4|2,3:2|2:0,2:0:0:0:
155,221,60389,1,2,3:2:0:0:
248,178,60559,1,2,2:0:0:0:
129,58,60730,2,0,L|149:131,1,71.9999978027344,2|0,3:2|2:0,2:0:0:0:
53,179,61071,2,0,L|33:109,1,71.9999978027344,2|0,3:2|2:0,2:0:0:0:
17,274,61412,6,0,P|72:262|103:351,1,143.999995605469,2|0,3:2|3:2,2:0:0:0:
112,328,62093,2,0,L|243:320,1,107.999996704102,2|0,3:2|2:0,2:0:0:0:
233,305,62434,2,0,L|366:316,1,107.999996704102,2|0,3:2|2:0,2:0:0:0:
370,313,62775,6,0,P|349:285|340:250,1,71.9999978027344,0|2,3:2|2:0,2:0:0:0:
455,157,63116,1,2,3:2:0:0:
427,243,63287,1,2,2:0:0:0:
427,70,63457,2,0,P|462:65|497:74,1,71.9999978027344,2|0,3:2|2:0,2:0:0:0:
363,139,63798,2,0,P|327:143|292:134,1,71.9999978027344,2|0,3:2|2:0,2:0:0:0:
205,29,64139,6,0,B|217:77|217:77|197:112|197:112|215:192,1,143.999995605469,2|0,3:2|3:2,2:0:0:0:
208,164,64821,2,0,P|159:142|110:162,1,107.999996704102,2|0,3:2|2:0,2:0:0:0:
99,173,65162,2,0,L|118:290,1,107.999996704102,2|0,3:2|2:0,2:0:0:0:
215,336,65502,5,4,3:2:0:0:
215,335,65843,2,0,P|223:301|229:265,1,71.9999978027344,2|0,3:2|2:0,2:0:0:0:
325,172,66184,2,0,P|334:206|341:242,1,71.9999978027344,2|0,3:2|2:0,2:0:0:0:
342,370,66525,2,0,L|476:351,1,107.999996704102,2|0,3:2|2:0,2:0:0:0:
512,289,66866,6,0,P|455:274|442:205,1,107.999996704102,2|0,3:2|2:0,2:0:0:0:
448,206,67207,2,0,P|466:172|449:86,1,107.999996704102,2|0,3:2|2:0,2:0:0:0:
446,76,67548,2,0,L|351:62,1,71.9999978027344,2|0,3:2|2:0,2:0:0:0:
255,81,67889,1,0,3:2:0:0:
307,5,68059,1,0,2:0:0:0:
328,157,68230,5,2,3:2:0:0:
155,98,68400,2,0,L|172:183,1,71.9999978027344,2|0,2:0|3:2,2:0:0:0:
235,283,68741,2,0,L|249:212,1,71.9999978027344,2|0,2:0|3:2,2:0:0:0:
262,101,69082,1,2,2:0:0:0:
141,262,69252,2,0,P|100:254|48:249,1,71.9999978027344,2|0,3:2|2:0,2:0:0:0:
9,63,69593,6,0,B|27:162|27:162|93:153,1,155.999992858887,4|8,3:2|2:0,2:0:0:0:
123,29,69934,6,0,P|135:97|187:51,1,167.999994873047,4|8,3:2|2:0,2:0:0:0:
262,101,70275,6,0,B|304:124|324:164|324:164|328:120|373:79,1,180.000006866455,4|8,3:2|2:0,2:0:0:0:
484,108,70616,6,0,B|428:76|437:27|451:-11|509:6|509:6|486:40|443:31,1,215.999993408203,12|8,2:0|2:0,2:0:0:0:
419,166,70957,6,0,L|436:266,1,88.000002685547,6|2,3:2|2:0,2:0:0:0:
397,357,71298,1,10,2:0:0:0:
506,338,71468,1,2,2:0:0:0:
328,274,71639,2,0,P|286:263|243:266,1,88.000002685547,2|0,3:2|2:0,2:0:0:0:
137,363,71980,2,0,P|160:327|147:283,1,88.000002685547,10|0,2:0|2:0,2:0:0:0:
52,165,72321,6,0,B|26:228|26:228|57:298,1,132.00000402832,2|0,3:2|2:0,2:0:0:0:
129,268,72662,2,0,B|145:230|145:230|130:186,1,88.000002685547,8|0,2:0|2:0,2:0:0:0:
233,49,73002,2,0,B|161:54|185:111|90:109,1,143.999995605469,4|0,3:2|2:0,2:0:0:0:
97,91,73343,2,0,B|169:86|145:29|240:31,1,143.999995605469,12|0,2:0|2:0,2:0:0:0:
362,29,73684,6,0,P|331:59|323:102,1,88.000002685547,0|2,3:2|2:0,2:0:0:0:
449,191,74025,1,10,2:0:0:0:
414,103,74196,1,2,2:0:0:0:
264,206,74366,2,0,L|358:194,1,88.000002685547,2|0,3:2|2:0,2:0:0:0:
501,114,74707,2,0,L|407:102,1,88.000002685547,10|0,2:0|2:0,2:0:0:0:
449,312,75048,6,0,P|474:253|448:190,1,132.00000402832,2|0,3:2|2:0,2:0:0:0:
360,212,75389,2,0,P|344:256|361:294,1,88.000002685547,8|0,2:0|2:0,2:0:0:0:
166,336,75730,2,0,B|216:341|216:341|242:370|242:370|301:370,1,143.999995605469,4|0,3:2|2:0,2:0:0:0:
305,350,76071,2,0,B|250:350|250:350|224:321|224:321|174:316,1,143.999995605469,12|8,2:0|2:0,2:0:0:0:
58,340,76412,6,0,B|87:298|87:298|58:203,1,132.00000402832,4|0,3:2|2:0,2:0:0:0:
38,194,76752,2,0,P|56:156|64:95,1,88.000002685547,10|0,2:0|2:0,2:0:0:0:
155,23,77093,2,0,P|170:64|173:107,1,88.000002685547,2|0,3:2|2:0,2:0:0:0:
317,221,77434,2,0,P|267:213|276:135,1,132.00000402832,10|0,2:0|2:0,2:0:0:0:
397,143,77775,6,0,L|255:121,1,132.00000402832,2|0,3:2|2:0,2:0:0:0:
279,43,78116,2,0,L|409:63,1,132.00000402832,10|0,2:0|2:0,2:0:0:0:
477,115,78457,2,0,P|485:157|464:195,1,88.000002685547,2|0,3:2|2:0,2:0:0:0:
310,313,78798,2,0,L|463:290,1,132.00000402832,8|0,2:0|2:0,2:0:0:0:
472,313,79139,5,6,3:2:0:0:
448,212,79309,1,10,2:0:0:0:
333,384,79480,1,2,3:2:0:0:
336,224,79650,1,10,2:0:0:0:
201,351,79821,6,0,P|225:315|219:273,1,88.000002685547,6|8,3:2|2:0,2:0:0:0:
126,192,80162,1,2,3:2:0:0:
126,192,80247,1,8,2:0:0:0:
126,192,80332,1,0,2:0:0:0:
285,122,80502,5,6,3:2:0:0:
222,254,80673,1,10,2:0:0:0:
163,93,80843,2,0,L|149:52,3,44.0000013427735,2|8|8|8,3:2|2:0|2:0|2:0,2:0:0:0:
68,119,81184,1,2,3:2:0:0:
68,119,81269,1,0,2:0:0:0:
68,119,81355,1,8,2:0:0:0:
236,38,81525,5,2,3:2:0:0:
268,39,81610,1,8,2:0:0:0:
301,40,81695,1,8,2:0:0:0:
334,41,81780,1,8,2:0:0:0:
367,42,81866,6,0,L|354:147,1,88.000002685547,4|0,3:2|2:0,2:0:0:0:
394,226,82207,1,10,2:0:0:0:
449,122,82377,1,2,2:0:0:0:
294,215,82548,2,0,L|315:324,1,88.000002685547,2|0,3:2|2:0,2:0:0:0:
467,321,82889,2,0,P|424:323|398:357,1,88.000002685547,10|0,2:0|2:0,2:0:0:0:
192,288,83230,6,0,P|253:271|298:316,1,132.00000402832,2|0,3:2|2:0,2:0:0:0:
218,367,83571,2,0,P|175:374|139:351,1,88.000002685547,8|0,2:0|2:0,2:0:0:0:
87,142,83912,2,0,B|81:191|81:191|51:217|51:217|50:276,1,143.999995605469,4|0,3:2|2:0,2:0:0:0:
70,280,84253,2,0,B|70:225|70:225|100:199|100:199|106:149,1,143.999995605469,12|0,2:0|2:0,2:0:0:0:
77,14,84593,6,0,P|105:45|148:42,1,88.000002685547,4|0,3:2|2:0,2:0:0:0:
272,114,84934,1,10,2:0:0:0:
230,14,85105,1,2,2:0:0:0:
203,206,85275,2,0,L|190:117,1,88.000002685547,2|0,3:2|2:0,2:0:0:0:
343,13,85616,2,0,L|360:102,1,88.000002685547,10|0,2:0|2:0,2:0:0:0:
397,210,85957,5,2,3:2:0:0:
423,199,86042,2,0,L|352:187,1,44.0000013427735,8|8,2:0|2:0,2:0:0:0:
193,291,86298,2,0,P|215:233|292:251,1,132.00000402832,4|8,3:2|2:0,2:0:0:0:
425,310,86639,2,0,B|353:315|377:372|282:370,1,143.999995605469,4|8,3:2|2:0,2:0:0:0:
289,352,86980,2,0,B|361:347|337:290|432:292,1,143.999995605469,4|8,3:2|2:0,2:0:0:0:
485,214,87321,6,0,B|452:179|452:179|475:92,1,132.00000402832,4|0,3:2|2:0,2:0:0:0:
482,72,87662,2,0,P|450:45|407:47,1,88.000002685547,10|0,2:0|2:0,2:0:0:0:
327,186,88002,2,0,P|334:143|311:108,1,88.000002685547,2|0,3:2|2:0,2:0:0:0:
159,106,88343,2,0,P|209:73|183:18,1,132.00000402832,10|0,2:0|2:0,2:0:0:0:
48,29,88684,6,0,L|198:7,1,132.00000402832,2|0,3:2|2:0,2:0:0:0:
158,105,89025,2,0,L|27:124,1,132.00000402832,10|0,2:0|2:0,2:0:0:0:
93,206,89366,2,0,B|134:219|134:219|177:190,1,88.000002685547,2|0,3:2|2:0,2:0:0:0:
311,87,89707,2,0,L|299:249,1,132.00000402832,8|0,2:0|2:0,2:0:0:0:
286,238,90048,5,6,3:2:0:0:
407,162,90218,1,2,2:0:0:0:
438,323,90389,1,10,2:0:0:0:
279,322,90559,1,10,2:0:0:0:
273,338,90644,1,8,2:0:0:0:
266,354,90730,6,0,B|218:336|218:336|181:355|181:355|104:328,1,143.999995605469,6|0,3:2|2:0,2:0:0:0:
106,236,91071,2,0,P|126:290|44:309,1,155.999992858887,10|8,2:0|2:0,2:0:0:0:
30,161,91412,5,6,3:2:0:0:
200,175,91582,1,2,2:0:0:0:
192,11,91752,1,2,3:2:0:0:
92,70,91923,1,2,2:0:0:0:
256,98,92093,6,0,L|318:110,2,58.6666684570313,10|0|0,2:0|3:2|3:2,2:0:0:0:
416,11,92434,6,0,L|359:23,2,58.6666684570313,2|0|0,3:2|3:2|3:2,2:0:0:0:
410,107,92775,6,0,P|443:117|378:259,1,256,6|2,3:2|2:0,2:0:0:0:
388,261,94991,5,0,3:2:0:0:
350,353,95162,2,0,L|462:341,1,96,14|0,2:0|2:0,2:0:0:0:
329,347,95502,6,0,P|305:297|224:302,1,132.00000402832,6|0,3:2|2:0,2:0:0:0:
219,313,95843,2,0,P|186:333|128:330,1,88.000002685547,8|0,2:0|2:0,2:0:0:0:
80,182,96184,1,0,3:2:0:0:
160,247,96355,1,0,2:0:0:0:
49,324,96525,1,8,2:0:0:0:
80,182,96696,1,0,2:0:0:0:
237,170,96866,6,0,L|250:75,1,88.000002685547,0|0,3:2|2:0,2:0:0:0:
333,21,97207,1,8,2:0:0:0:
195,1,97377,1,0,2:0:0:0:
344,117,97548,6,0,L|364:267,1,132.00000402832,0|0,3:2|2:0,2:0:0:0:
438,307,97889,2,0,L|455:211,1,88.000002685547,8|0,2:0|2:0,2:0:0:0:
512,52,98230,6,0,P|497:112|424:106,1,132.00000402832,0|0,3:2|2:0,2:0:0:0:
427,87,98571,2,0,P|393:47|336:35,1,88.000002685547,8|0,2:0|2:0,2:0:0:0:
242,116,98912,1,0,3:2:0:0:
281,20,99082,1,0,2:0:0:0:
132,46,99252,1,8,2:0:0:0:
242,116,99423,1,0,2:0:0:0:
124,213,99593,5,0,3:2:0:0:
137,193,99679,2,0,P|183:188|225:224,1,88.000002685547,8|0,2:0|2:0,2:0:0:0:
271,268,99934,2,0,L|245:124,1,132.00000402832,4|0,3:2|2:0,2:0:0:0:
242,116,100275,5,0,3:2:0:0:
353,182,100446,1,8,2:0:0:0:
137,192,100616,1,8,2:0:0:0:
340,94,100787,1,8,2:0:0:0:
340,94,100872,1,8,2:0:0:0:
340,94,100957,6,0,P|399:98|435:182,1,132.00000402832,4|0,3:2|2:0,2:0:0:0:
457,170,101298,2,0,P|450:217|413:260,1,88.000002685547,8|0,2:0|2:0,2:0:0:0:
359,364,101639,2,0,P|321:334|303:280,1,88.000002685547,0|0,3:2|2:0,2:0:0:0:
162,317,101980,2,0,P|168:270|205:227,1,88.000002685547,8|0,2:0|2:0,2:0:0:0:
340,94,102321,6,0,P|334:141|297:184,1,88.000002685547,0|0,3:2|2:0,2:0:0:0:
142,49,102662,2,0,P|180:79|198:133,1,88.000002685547,8|0,2:0|2:0,2:0:0:0:
263,56,103002,1,0,3:2:0:0:
99,159,103173,1,0,2:0:0:0:
152,31,103343,1,8,2:0:0:0:
237,192,103514,1,0,2:0:0:0:
73,293,103684,6,0,L|162:277,1,88.000002685547,4|0,3:2|2:0,2:0:0:0:
324,208,104025,2,0,L|235:192,1,88.000002685547,8|0,2:0|2:0,2:0:0:0:
397,268,104366,2,0,P|421:232|417:190,1,88.000002685547,4|0,3:2|2:0,2:0:0:0:
274,295,104707,2,0,P|269:337|293:373,1,88.000002685547,8|0,2:0|2:0,2:0:0:0:
456,371,105048,5,8,2:0:0:0:
456,371,105133,1,8,2:0:0:0:
456,371,105218,2,0,L|393:351,1,44.0000013427735,0|0,3:2|2:0,2:0:0:0:
481,293,105389,2,0,L|366:258,1,88.000002685547,0|8,3:2|2:0,2:0:0:0:
375,179,105644,1,8,2:0:0:0:
375,179,105730,2,0,L|460:200,1,88.000002685547,0|8,3:2|2:0,2:0:0:0:
265,19,106071,2,0,P|299:51|277:95,1,88.000002685547,8|8,2:0|2:0,2:0:0:0:
269,107,106326,1,8,2:0:0:0:
269,107,106412,5,4,3:2:0:0:
256,192,106497,12,0,107775,3:2:0:0:
