osu file format v14

[General]
AudioFilename: motto!.mp3
AudioLeadIn: 0
PreviewTime: 69567
Countdown: 0
SampleSet: Soft
StackLeniency: 0.5
Mode: 0
LetterboxInBreaks: 0
WidescreenStoryboard: 1

[Editor]
Bookmarks: 27295,38204,49113,60022,69567,76386,81840,87295,90022,107749,183381,184745
DistanceSpacing: 1
BeatDivisor: 4
GridSize: 16
TimelineZoom: 2.599999

[Metadata]
Title:Fansa (Cut Ver.)
TitleUnicode:ファンサ (Cut Ver.)
Artist:mona (CV: Natsukawa Shiina)
ArtistUnicode:mona (CV: 夏川椎菜)
Creator:imaginative
Version:Normal!
Source:
Tags:Serizawa Haruki Jack J_a_c_k xahlt fanservice loli female vocals japanese pop jpop j-pop 好きすぎてやばい。〜告白実行委員会キャラクターソング集〜 song collection Kokuhaku Jikkou Iinkai Confession Executive Committee 成海 萌奈 Narumi Mona ハニーワークス honeyworks ~アイドルシリーズ~ idol series gom shito ヤマコ yamako short ver. version
BeatmapID:2678700
BeatmapSetID:1279201

[Difficulty]
HPDrainRate:4
CircleSize:3.3
OverallDifficulty:4
ApproachRate:5.5
SliderMultiplier:1.2
SliderTickRate:1

[Events]
//Background and Video events
0,0,"motto!.jpg",0,0
//Break Periods
2,49139,58923
//Storyboard Layer 0 (Background)
//Storyboard Layer 1 (Fail)
//Storyboard Layer 2 (Pass)
//Storyboard Layer 3 (Foreground)
//Storyboard Layer 4 (Overlay)
//Storyboard Sound Samples

[TimingPoints]
596,394.736842105263,4,2,1,40,1,0
16412,340.909090909091,4,2,1,55,1,0
16752,-111.111111111111,4,2,1,55,0,0
27321,-111.111111111111,4,2,1,60,0,0
27662,-105.263157894737,4,2,1,60,0,0
38230,-111.111111111111,4,2,1,55,0,0
60048,-111.111111111111,4,2,1,60,0,0
61923,-111.111111111111,4,2,1,5,0,0
62093,-111.111111111111,4,2,1,60,0,0
63968,-111.111111111111,4,2,3,60,0,0
64139,-111.111111111111,4,2,1,60,0,0
64650,-111.111111111111,4,2,1,5,0,0
64821,-111.111111111111,4,2,1,60,0,0
64991,-111.111111111111,4,2,3,60,0,0
65161,-111.111111111111,4,2,1,60,0,0
69593,-111.111111111111,4,2,1,75,0,0
70957,-111.111111111111,4,2,1,70,0,1
71127,-95.2380952380952,4,2,1,70,0,1
72491,-95.2380952380952,4,2,3,70,0,1
72661,-95.2380952380952,4,2,1,70,0,1
72832,-95.2380952380952,4,2,3,70,0,1
73002,-95.2380952380952,4,2,1,70,0,1
73172,-95.2380952380952,4,2,3,70,0,1
73343,-95.2380952380952,4,2,1,70,0,1
73855,-95.2380952380952,4,2,3,70,0,1
74025,-95.2380952380952,4,2,1,70,0,1
74195,-95.2380952380952,4,2,3,70,0,1
74366,-95.2380952380952,4,2,1,70,0,1
75218,-95.2380952380952,4,2,3,70,0,1
75388,-95.2380952380952,4,2,1,70,0,1
75559,-95.2380952380952,4,2,3,70,0,1
75730,-95.2380952380952,4,2,1,70,0,1
75900,-95.2380952380952,4,2,3,70,0,1
76071,-95.2380952380952,4,2,1,70,0,1
77263,-95.2380952380952,4,2,3,70,0,1
77434,-95.2380952380952,4,2,1,70,0,1
77945,-95.2380952380952,4,2,3,70,0,1
78116,-95.2380952380952,4,2,1,70,0,1
78286,-95.2380952380952,4,2,3,70,0,1
78457,-95.2380952380952,4,2,1,70,0,1
78627,-95.2380952380952,4,2,3,70,0,1
78797,-95.2380952380952,4,2,1,70,0,1
83400,-95.2380952380952,4,2,3,70,0,1
83570,-95.2380952380952,4,2,1,70,0,1
83741,-95.2380952380952,4,2,3,70,0,1
83912,-95.2380952380952,4,2,1,70,0,1
84082,-95.2380952380952,4,2,3,70,0,1
84252,-95.2380952380952,4,2,1,70,0,1
85104,-95.2380952380952,4,2,3,70,0,1
85275,-95.2380952380952,4,2,1,70,0,1
88172,-95.2380952380952,4,2,3,70,0,1
88343,-95.2380952380952,4,2,1,70,0,1
88854,-95.2380952380952,4,2,3,70,0,1
89025,-95.2380952380952,4,2,1,70,0,1
89195,-95.2380952380952,4,2,3,70,0,1
89366,-95.2380952380952,4,2,1,70,0,1
89537,-95.2380952380952,4,2,3,70,0,1
89706,-95.2380952380952,4,2,1,70,0,1
90048,-105.263157894737,4,2,1,70,0,1
92775,-133.333333333333,4,2,1,50,0,0
94139,-117.647058823529,4,2,1,50,0,0
95502,-105.263157894737,4,2,1,60,0,1
95843,-105.263157894737,4,2,1,60,0,0
96354,-105.263157894737,4,2,3,60,0,0
96525,-105.263157894737,4,2,1,60,0,0
96695,-105.263157894737,4,2,3,60,0,0
96866,-105.263157894737,4,2,1,60,0,0
97037,-105.263157894737,4,2,3,60,0,0
97206,-105.263157894737,4,2,1,60,0,0
98400,-105.263157894737,4,2,3,60,0,0
98570,-105.263157894737,4,2,1,60,0,0
99082,-105.263157894737,4,2,3,60,0,0
99252,-105.263157894737,4,2,1,60,0,0
99422,-105.263157894737,4,2,3,60,0,0
99593,-105.263157894737,4,2,1,60,0,0
100957,-105.263157894737,4,2,1,60,0,1
101298,-105.263157894737,4,2,1,60,0,0
102491,-105.263157894737,4,2,3,60,0,0
102661,-105.263157894737,4,2,1,60,0,0
103172,-105.263157894737,4,2,3,60,0,0
103343,-105.263157894737,4,2,1,60,0,0
103513,-105.263157894737,4,2,3,60,0,0
103684,-105.263157894737,4,2,1,60,0,0
104537,-105.263157894737,4,2,3,60,0,0
104706,-105.263157894737,4,2,1,60,0,0

[Colours]
Combo1 : 255,123,123
Combo2 : 191,191,255
Combo3 : 77,255,255
Combo4 : 255,202,149
SliderBorder : 225,170,213

[HitObjects]
55,169,16412,5,4,3:2:0:0:
137,238,16752,2,0,L|198:233,1,53.9999983520508,2|2,3:2|2:0,2:0:0:0:
241,253,17093,1,2,3:2:0:0:
322,182,17434,2,0,L|383:187,1,53.9999983520508,2|2,3:2|2:0,2:0:0:0:
421,214,17775,2,0,P|448:255|432:321,2,107.999996704102,0|0|0,3:2|3:2|3:2,2:0:0:0:
336,282,18798,2,0,L|274:279,1,53.9999983520508,2|2,3:2|2:0,2:0:0:0:
229,293,19139,5,2,3:2:0:0:
229,293,19309,1,2,2:0:0:0:
131,340,19650,1,2,2:0:0:0:
73,248,19991,1,2,2:0:0:0:
169,200,20332,1,2,2:0:0:0:
169,200,20502,2,0,B|224:192|208:239|271:231,2,107.999996704102,0|0|0,3:2|3:2|3:2,2:0:0:0:
61,211,21525,2,0,L|55:155,1,53.9999983520508,2|2,3:2|2:0,2:0:0:0:
76,107,21866,5,2,3:2:0:0:
76,107,22036,1,2,2:0:0:0:
176,66,22377,1,2,2:0:0:0:
266,125,22718,1,2,2:0:0:0:
359,68,23059,1,2,2:0:0:0:
359,68,23230,2,0,B|411:53|411:53|480:74,2,107.999996704102,0|0|0,3:2|3:2|3:2,2:0:0:0:
416,159,24252,2,0,L|414:227,1,53.9999983520508,2|2,3:2|2:0,2:0:0:0:
389,261,24593,5,2,3:2:0:0:
389,261,24764,1,2,2:0:0:0:
318,343,25105,2,0,P|261:340|201:338,1,107.999996704102,2|2,2:0|2:0,2:0:0:0:
159,319,25616,2,0,P|152:292|161:254,1,53.9999983520508,2|2,3:2|2:0,2:0:0:0:
180,218,25957,5,0,3:2:0:0:
113,132,26298,1,4,3:2:0:0:
167,38,26639,2,0,L|233:32,1,53.9999983520508,8|8,2:0|2:0,2:0:0:0:
270,54,26979,2,0,L|336:60,1,53.9999983520508,8|0,2:0|3:2,2:0:0:0:
378,41,27321,5,4,3:2:0:0:
446,132,27662,2,0,P|454:167|444:197,1,56.9999984779358,10|2,2:0|2:0,2:0:0:0:
428,239,28002,1,2,3:2:0:0:
344,316,28343,2,0,L|270:314,1,56.9999984779358,10|2,2:0|2:0,2:0:0:0:
235,288,28684,5,0,3:2:0:0:
288,187,29025,1,8,2:0:0:0:
229,89,29366,2,0,L|163:92,1,56.9999984779358,0|0,3:2|3:2,2:0:0:0:
124,123,29707,2,0,P|116:158|126:188,1,56.9999984779358,10|2,2:0|2:0,2:0:0:0:
132,234,30048,5,2,3:2:0:0:
132,234,30218,1,2,2:0:0:0:
241,202,30559,2,0,L|302:198,1,56.9999984779358,2|0,2:0|3:2,2:0:0:0:
346,168,30900,2,0,L|407:172,1,56.9999984779358,2|8,3:2|2:0,2:0:0:0:
461,158,31241,5,2,2:0:0:0:
461,158,31412,2,0,B|473:70|473:70|464:54|460:44,2,113.999996955872,0|8|0,3:2|2:0|3:2,2:0:0:0:
446,271,32434,2,0,L|438:327,1,56.9999984779358,10|2,2:0|2:0,2:0:0:0:
391,358,32775,5,6,3:2:0:0:
391,358,32946,1,2,2:0:0:0:
281,327,33287,2,0,P|252:319|214:333,1,56.9999984779358,2|0,2:0|3:2,2:0:0:0:
173,346,33627,2,0,P|144:354|106:340,1,56.9999984779358,2|8,3:2|2:0,2:0:0:0:
76,318,33968,5,2,2:0:0:0:
76,318,34139,2,0,B|72:220|72:220|85:191,2,113.999996955872,0|8|0,3:2|2:0|3:2,2:0:0:0:
165,247,35162,2,0,L|170:190,1,56.9999984779358,10|2,2:0|2:0,2:0:0:0:
199,143,35502,5,2,3:2:0:0:
199,143,35673,2,0,P|232:136|260:149,1,56.9999984779358,2|8,2:0|2:0,2:0:0:0:
294,183,36014,2,0,L|365:173,1,56.9999984779358,2|0,2:0|3:2,2:0:0:0:
403,154,36355,1,2,3:2:0:0:
340,65,36696,5,2,2:0:0:0:
340,65,36866,2,0,P|298:47|238:62,2,85.4999977169037,4|8|8,3:2|2:0|2:0,2:0:0:0:
383,101,37548,2,0,P|436:87|486:97,2,85.4999977169037,4|8|2,3:2|2:0|3:2,2:0:0:0:
351,145,38230,6,0,B|296:137|312:184|249:176,1,107.999996704102,6|2,3:2|2:0,2:0:0:0:
144,164,38912,2,0,P|137:195|146:224,1,53.9999983520508,10|2,2:0|2:0,2:0:0:0:
160,266,39252,1,2,2:0:0:0:
198,366,39593,6,0,L|327:359,1,107.999996704102,2|2,3:2|3:2,2:0:0:0:
347,325,40105,1,2,2:0:0:0:
458,328,40446,1,2,3:2:0:0:
458,328,40616,2,0,P|465:297|456:268,1,53.9999983520508,2|2,2:0|2:0,2:0:0:0:
451,222,40957,6,0,L|517:231,2,53.9999983520508,6|2|2,3:2|2:0|2:0,2:0:0:0:
348,187,41639,2,0,L|282:196,2,53.9999983520508,10|2|2,2:0|2:0|3:2,2:0:0:0:
374,139,42150,1,2,2:0:0:0:
312,50,42491,2,0,L|246:55,1,53.9999983520508,10|2,2:0|3:2,2:0:0:0:
208,76,42832,1,2,3:2:0:0:
112,206,43343,2,0,L|46:211,1,53.9999983520508,2|2,3:2|2:0,2:0:0:0:
5,211,43684,6,0,P|-16:276|8:316,1,107.999996704102,6|2,3:2|2:0,2:0:0:0:
90,367,44366,1,10,2:0:0:0:
144,273,44707,2,0,L|210:268,1,53.9999983520508,2|2,3:2|2:0,2:0:0:0:
239,303,45048,6,0,B|303:304|269:345|349:341,1,107.999996704102,2|2,3:2|2:0,2:0:0:0:
389,324,45559,1,2,3:2:0:0:
389,324,45730,1,10,2:0:0:0:
436,230,46071,1,2,2:0:0:0:
379,140,46412,6,0,L|262:150,1,107.999996704102,6|2,3:2|3:2,2:0:0:0:
229,182,46923,1,8,2:0:0:0:
229,182,47093,2,0,P|171:167|116:199,1,107.999996704102,10|2,2:0|3:2,2:0:0:0:
44,253,47775,1,6,3:2:0:0:
499,146,60048,5,4,3:2:0:0:
499,146,60218,2,0,L|509:81,2,53.9999983520508,2|2|2,2:0|3:2|2:0,2:0:0:0:
504,200,60730,1,2,3:2:0:0:
495,307,61071,1,2,3:2:0:0:
399,255,61412,6,0,B|316:243|340:313|249:296,1,161.999995056153,2|0,3:2|2:0,2:0:0:0:
197,286,62093,2,0,B|180:233|180:233|204:174,1,107.999996704102,2|2,3:2|3:2,2:0:0:0:
243,85,62775,5,0,3:2:0:0:
243,85,62946,2,0,L|305:92,2,53.9999983520508,2|2|2,2:0|3:2|2:0,2:0:0:0:
192,105,63457,1,2,3:2:0:0:
88,72,63798,2,0,L|77:129,1,53.9999983520508,2|0,3:2|2:0,2:0:0:0:
99,174,64139,6,0,B|133:219|133:219|95:320,1,161.999995056153,2|0,3:2|2:0,2:0:0:0:
51,348,64821,2,0,P|24:354|-7:341,2,53.9999983520508,2|0|2,3:2|2:0|3:2,2:0:0:0:
18,244,65502,5,4,3:2:0:0:
99,174,65843,1,2,3:2:0:0:
182,242,66184,2,0,P|236:259|302:231,1,107.999996704102,2|2,3:2|3:2,2:0:0:0:
365,174,66866,1,2,3:2:0:0:
436,255,67207,1,2,3:2:0:0:
378,346,67548,2,0,P|327:363|264:347,1,107.999996704102,2|0,3:2|3:2,2:0:0:0:
177,295,68230,5,2,3:2:0:0:
177,295,68400,2,0,L|182:231,1,53.9999983520508,2|0,2:0|3:2,2:0:0:0:
210,195,68741,2,0,B|247:175|247:175|331:199,1,107.999996704102,2|2,2:0|2:0,2:0:0:0:
359,215,69252,1,2,3:2:0:0:
428,117,69593,5,4,3:2:0:0:
336,39,69934,1,4,3:2:0:0:
242,113,70275,1,4,3:2:0:0:
143,44,70616,1,12,2:0:0:0:
60,139,70957,5,6,3:2:0:0:
60,139,71127,2,0,B|51:110|51:110|62:80,2,62.9999980773926,2|10|2,2:0|2:0|2:0,2:0:0:0:
63,202,71639,1,2,3:2:0:0:
69,328,71980,1,10,2:0:0:0:
184,277,72321,6,0,B|279:258|279:258|301:271|325:277,1,125.999996154785,2|8,3:2|2:0,2:0:0:0:
369,294,72832,1,0,2:0:0:0:
369,294,73002,2,0,L|448:274,1,62.9999980773926,4|0,3:2|2:0,2:0:0:0:
489,255,73343,1,12,2:0:0:0:
446,142,73684,5,0,3:2:0:0:
446,142,73855,2,0,L|508:130,2,62.9999980773926,2|10|2,2:0|2:0|2:0,2:0:0:0:
385,159,74366,1,2,3:2:0:0:
263,125,74707,1,10,2:0:0:0:
174,215,75048,6,0,P|150:269|180:330,1,125.999996154785,2|8,3:2|2:0,2:0:0:0:
236,357,75559,1,0,2:0:0:0:
236,357,75730,2,0,L|318:326,1,62.9999980773926,4|0,3:2|2:0,2:0:0:0:
352,309,76071,1,12,2:0:0:0:
466,361,76412,5,4,3:2:0:0:
506,243,76752,1,10,2:0:0:0:
481,125,77093,2,0,L|474:55,1,62.9999980773926,2|0,3:2|2:0,2:0:0:0:
433,15,77434,1,10,2:0:0:0:
340,100,77775,6,0,P|310:109|266:95,1,62.9999980773926,2|0,3:2|2:0,2:0:0:0:
226,68,78116,2,0,P|196:59|152:73,1,62.9999980773926,10|0,2:0|2:0,2:0:0:0:
108,93,78457,2,0,B|74:126|74:126|87:215,1,125.999996154785,2|8,3:2|2:0,2:0:0:0:
92,329,79139,6,0,P|131:337|160:319,1,62.9999980773926,6|10,3:2|2:0,2:0:0:0:
198,286,79480,2,0,P|237:278|266:296,1,62.9999980773926,2|10,3:2|2:0,2:0:0:0:
290,340,79821,2,0,P|349:356|418:323,1,125.999996154785,6|2,3:2|3:2,2:0:0:0:
488,236,80502,6,0,L|495:173,1,62.9999980773926,6|10,3:2|2:0,2:0:0:0:
490,110,80843,1,2,3:2:0:0:
399,22,81184,2,0,B|328:12|348:60|278:46,1,125.999996154785,2|2,3:2|3:2,2:0:0:0:
164,93,81866,5,4,3:2:0:0:
164,93,82037,2,0,L|91:103,2,62.9999980773926,0|10|2,2:0|2:0|2:0,2:0:0:0:
220,121,82548,1,2,3:2:0:0:
228,246,82889,1,10,2:0:0:0:
284,358,83230,6,0,B|339:377|339:377|410:349,1,125.999996154785,2|8,3:2|2:0,2:0:0:0:
454,315,83741,1,0,2:0:0:0:
454,315,83912,2,0,L|446:228,1,62.9999980773926,4|0,3:2|2:0,2:0:0:0:
440,190,84252,1,12,2:0:0:0:
354,104,84593,5,4,3:2:0:0:
354,104,84764,2,0,L|422:98,2,62.9999980773926,0|10|2,2:0|2:0|2:0,2:0:0:0:
298,133,85275,1,2,3:2:0:0:
172,145,85616,1,10,2:0:0:0:
47,166,85957,6,0,P|37:203|51:238,2,62.9999980773926,2|8|4,3:2|2:0|3:2,2:0:0:0:
70,41,86639,2,0,P|106:32|140:44,1,62.9999980773926,4|8,3:2|2:0,2:0:0:0:
192,56,86980,2,0,P|228:65|262:53,1,62.9999980773926,4|8,3:2|2:0,2:0:0:0:
312,36,87321,5,4,3:2:0:0:
401,124,87662,1,10,2:0:0:0:
483,218,88002,2,0,L|468:292,1,62.9999980773926,2|0,3:2|2:0,2:0:0:0:
423,317,88343,1,10,2:0:0:0:
304,275,88684,6,0,P|270:266|237:283,1,62.9999980773926,2|0,3:2|2:0,2:0:0:0:
189,306,89025,2,0,P|155:315|122:298,1,62.9999980773926,10|0,2:0|2:0,2:0:0:0:
83,262,89366,2,0,B|70:182|114:215|103:135,1,125.999996154785,2|8,3:2|2:0,2:0:0:0:
100,27,90048,6,0,L|174:32,1,56.9999984779358,6|2,3:2|2:0,2:0:0:0:
206,59,90389,2,0,L|280:54,1,56.9999984779358,10|10,2:0|2:0,2:0:0:0:
311,24,90730,2,0,L|441:36,1,113.999996955872,6|10,3:2|2:0,2:0:0:0:
503,116,91412,6,0,P|515:142|503:185,1,56.9999984779358,6|2,3:2|2:0,2:0:0:0:
486,220,91752,2,0,P|474:246|486:289,1,56.9999984779358,2|2,3:2|2:0,2:0:0:0:
496,327,92093,2,0,B|458:314|444:336|444:336|422:314|375:324,1,113.999996955872,10|2,2:0|3:2,2:0:0:0:
328,221,92775,6,0,B|270:179|204:227|204:227|136:272|75:218,1,270.000010299683,6|0,3:2|2:0,2:0:0:0:
58,121,94139,2,0,L|169:113,1,102.000001945496,2|2,2:0|2:0,2:0:0:0:
214,113,94650,1,2,2:0:0:0:
214,113,94821,1,2,2:0:0:0:
283,27,95162,1,14,2:0:0:0:
358,116,95502,6,0,B|381:151|381:151|363:239,1,113.999996955872,6|8,3:2|2:0,2:0:0:0:
336,332,96184,2,0,P|302:339|271:329,1,56.9999984779358,0|0,3:2|2:0,2:0:0:0:
230,307,96525,2,0,P|196:299|165:309,1,56.9999984779358,8|0,2:0|2:0,2:0:0:0:
123,328,96866,2,0,L|111:202,1,113.999996955872,0|8,3:2|2:0,2:0:0:0:
100,102,97548,1,0,3:2:0:0:
187,27,97889,1,8,2:0:0:0:
271,104,98230,6,0,B|325:121|325:121|396:94,1,113.999996955872,0|8,3:2|2:0,2:0:0:0:
491,85,98912,2,0,L|499:152,1,56.9999984779358,0|0,3:2|2:0,2:0:0:0:
477,194,99252,2,0,L|466:259,1,56.9999984779358,8|0,2:0|2:0,2:0:0:0:
456,306,99593,2,0,P|487:313|521:298,2,56.9999984779358,0|8|4,3:2|2:0|3:2,2:0:0:0:
346,274,100275,2,0,L|340:214,1,56.9999984779358,0|8,3:2|2:0,2:0:0:0:
357,162,100616,1,8,2:0:0:0:
320,53,100957,6,0,B|253:45|279:95|209:86,2,113.999996955872,4|8|0,3:2|2:0|3:2,2:0:0:0:
433,77,101980,1,8,2:0:0:0:
357,162,102321,2,0,B|380:198|380:198|362:284,1,113.999996955872,0|8,3:2|2:0,2:0:0:0:
266,323,103002,2,0,L|202:328,1,56.9999984779358,0|0,3:2|2:0,2:0:0:0:
152,329,103343,2,0,P|144:293|157:264,1,56.9999984779358,8|0,2:0|2:0,2:0:0:0:
173,222,103684,5,4,3:2:0:0:
256,143,104025,1,8,2:0:0:0:
221,34,104366,2,0,B|276:18|276:18|340:43,1,113.999996955872,4|8,3:2|2:0,2:0:0:0:
419,108,105048,2,0,L|477:116,2,56.9999984779358,8|0|0,2:0|3:2|3:2,2:0:0:0:
372,139,105559,1,8,2:0:0:0:
372,139,105730,2,0,L|314:147,2,56.9999984779358,0|8|8,3:2|2:0|2:0,2:0:0:0:
439,231,106412,5,4,3:2:0:0:
256,192,106582,12,0,107775,3:2:0:0:
