osu file format v14

[General]
AudioFilename: motto!.mp3
AudioLeadIn: 0
PreviewTime: 69567
Countdown: 0
SampleSet: Soft
StackLeniency: 0.4
Mode: 0
LetterboxInBreaks: 0
WidescreenStoryboard: 0

[Editor]
Bookmarks: 596,16412,27321,38230,49139,60048,70957,95502,107775,183381,184745
DistanceSpacing: 1.1
BeatDivisor: 2
GridSize: 4
TimelineZoom: 1.5

[Metadata]
Title:Fansa (Cut Ver.)
TitleUnicode:ファンサ (Cut Ver.)
Artist:mona (CV: Natsukawa Shiina)
ArtistUnicode:mona (CV: 夏川椎菜)
Creator:imaginative
Version:Haruki's Easy!
Source:
Tags:Serizawa Haruki Jack J_a_c_k xahlt fanservice loli female vocals japanese pop jpop j-pop 好きすぎてやばい。〜告白実行委員会キャラクターソング集〜 song collection Kokuhaku Jikkou Iinkai Confession Executive Committee 成海 萌奈 Narumi Mona ハニーワークス honeyworks ~アイドルシリーズ~ idol series gom shito ヤマコ yamako short ver. version
BeatmapID:2707636
BeatmapSetID:1279201

[Difficulty]
HPDrainRate:2
CircleSize:2.5
OverallDifficulty:2
ApproachRate:3
SliderMultiplier:0.8
SliderTickRate:1

[Events]
//Background and Video events
0,0,"motto!.jpg",0,0
//Break Periods
2,49338,58608
//Storyboard Layer 0 (Background)
//Storyboard Layer 1 (Fail)
//Storyboard Layer 2 (Pass)
//Storyboard Layer 3 (Foreground)
//Storyboard Layer 4 (Overlay)
//Storyboard Sound Samples

[TimingPoints]
596,394.736842105263,4,2,1,40,1,0
14805,-100,4,2,1,5,0,0
16412,340.909090909091,4,2,1,55,1,0
27321,-100,4,2,1,60,0,0
38230,-100,4,2,1,55,0,0
49138,-100,4,2,2,55,0,0
60048,-100,4,2,1,60,0,0
64991,-100,4,2,3,60,0,0
65161,-100,4,2,1,60,0,0
69593,-100,4,2,1,75,0,0
70957,-100,4,2,1,70,0,1
71809,-100,4,2,3,70,0,1
71979,-100,4,2,1,70,0,1
73855,-100,4,2,3,70,0,1
74024,-100,4,2,1,70,0,1
74537,-100,4,2,3,70,0,1
74706,-100,4,2,1,70,0,1
76582,-100,4,2,3,70,0,1
76752,-100,4,2,1,70,0,1
77264,-100,4,2,3,70,0,1
77433,-100,4,2,1,70,0,1
77946,-100,4,2,3,70,0,1
78115,-100,4,2,1,70,0,1
78287,-100,4,2,3,70,0,1
78456,-100,4,2,1,70,0,1
82718,-100,4,2,3,70,0,1
82888,-100,4,2,1,70,0,1
85446,-100,4,2,3,70,0,1
85615,-100,4,2,1,70,0,1
87491,-100,4,2,3,70,0,1
87661,-100,4,2,1,70,0,1
88173,-100,4,2,3,70,0,1
88342,-100,4,2,1,70,0,1
88855,-100,4,2,3,70,0,1
89024,-100,4,2,1,70,0,1
89196,-100,4,2,3,70,0,1
89365,-100,4,2,1,70,0,1
92775,-100,4,2,1,50,0,0
95502,-100,4,2,1,60,0,0
96014,-100,4,2,3,60,0,0
96183,-100,4,2,1,60,0,0
96355,-100,4,2,3,60,0,0
96524,-100,4,2,1,60,0,0
97037,-100,4,2,3,60,0,0
97207,-100,4,2,1,60,0,0
97377,-100,4,2,3,60,0,0
97547,-100,4,2,1,60,0,0
98741,-100,4,2,3,60,0,0
98911,-100,4,2,1,60,0,0
99082,-100,4,2,3,60,0,0
99252,-100,4,2,1,60,0,0
102491,-100,4,2,3,60,0,0
102662,-100,4,2,1,60,0,0
102832,-100,4,2,3,60,0,0
103002,-100,4,2,1,60,0,0
103855,-100,4,2,3,60,0,0
104024,-100,4,2,1,60,0,0
104537,-100,4,2,3,60,0,0
104706,-100,4,2,1,60,0,0

[Colours]
Combo1 : 255,123,123
Combo2 : 191,191,255
Combo3 : 77,255,255
Combo4 : 255,202,149
SliderBorder : 225,170,213

[HitObjects]
106,52,596,6,0,P|256:3|406:52,1,320,0|2,2:0|2:0,2:0:0:0:
512,192,2964,1,2,2:0:0:0:
406,332,3753,6,0,P|256:381|106:332,1,320,0|2,2:0|2:0,2:0:0:0:
0,192,6122,1,2,2:0:0:0:
106,52,6911,6,0,B|224:31|224:31|299:58|299:58|417:37,1,320,0|2,2:0|2:0,2:0:0:0:
485,382,10069,6,0,B|512:224,1,160,2|2,2:0|2:0,2:0:0:0:
379,111,11648,2,0,B|351:268,1,160,2|2,2:0|2:0,2:0:0:0:
186,329,13227,6,0,P|75:249|186:169,1,320,0|0,2:0|2:0,2:0:0:0:
186,169,16412,6,0,L|199:246,2,79.9999999999999,4|2|2,3:2|3:2|3:2,2:0:0:0:
170,82,17434,1,2,3:2:0:0:
257,67,17775,2,0,P|336:69|405:106,1,160,0|0,3:2|3:2,2:0:0:0:
465,173,18798,1,2,3:2:0:0:
426,252,19139,6,0,P|465:261|504:252,2,79.9999999999999,2|0|0,3:2|3:2|3:2,2:0:0:0:
343,222,20162,1,0,3:2:0:0:
275,278,20502,2,0,L|117:305,1,160,0|0,3:2|3:2,2:0:0:0:
61,238,21525,1,2,3:2:0:0:
127,180,21866,6,0,P|153:150|166:112,2,79.9999999999999,2|0|0,3:2|3:2|3:2,2:0:0:0:
78,106,22889,1,0,3:2:0:0:
127,33,23230,2,0,P|204:33|252:94,1,160,0|0,3:2|3:2,2:0:0:0:
270,180,24252,1,2,3:2:0:0:
198,230,24593,6,0,L|119:216,2,79.9999999999999,2|0|0,3:2|3:2|3:2,2:0:0:0:
249,303,25616,1,2,3:2:0:0:
321,252,25957,2,0,L|478:279,1,160,0|8,3:2|2:0,2:0:0:0:
493,192,26980,1,8,2:0:0:0:
460,110,27321,6,0,P|438:76|404:54,1,79.9999999999999,4|10,3:2|2:0,2:0:0:0:
317,55,28002,2,0,P|283:76|261:110,1,79.9999999999999,2|10,3:2|2:0,2:0:0:0:
229,192,28684,2,0,B|248:247|229:303|229:303|184:311,1,160,0|0,3:2|3:2,2:0:0:0:
97,327,29707,1,10,2:0:0:0:
29,270,30048,6,0,L|42:191,1,79.9999999999999,2|8,3:2|2:0,2:0:0:0:
126,161,30730,2,0,L|139:82,1,79.9999999999999,0|8,3:2|2:0,2:0:0:0:
223,52,31412,2,0,B|278:43|321:78|321:78|375:69,1,160,0|0,3:2|3:2,2:0:0:0:
462,53,32434,1,10,2:0:0:0:
432,136,32775,6,0,P|423:175|432:214,1,79.9999999999999,6|8,3:2|2:0,2:0:0:0:
462,296,33457,2,0,P|471:335|462:374,1,79.9999999999999,0|8,3:2|2:0,2:0:0:0:
383,335,34139,2,0,B|333:316|333:316|228:335,1,160,0|0,3:2|3:2,2:0:0:0:
142,351,35162,1,10,2:0:0:0:
157,264,35502,6,0,L|170:185,1,79.9999999999999,2|8,3:2|2:0,2:0:0:0:
254,155,36184,2,0,L|267:76,1,79.9999999999999,0|8,3:2|2:0,2:0:0:0:
201,19,36866,1,4,3:2:0:0:
118,49,37207,1,0,3:2:0:0:
39,10,37548,2,0,P|30:49|39:88,1,79.9999999999999,4|2,3:2|3:2,2:0:0:0:
85,162,38230,6,0,L|57:319,1,160,6|10,3:2|2:0,2:0:0:0:
125,377,39252,1,2,2:0:0:0:
207,346,39593,2,0,P|284:328|361:346,1,160,2|8,3:2|2:0,2:0:0:0:
443,377,40616,1,2,2:0:0:0:
511,320,40957,6,0,L|483:162,1,160,6|10,3:2|2:0,2:0:0:0:
468,75,41980,1,2,3:2:0:0:
400,131,42321,2,0,P|323:145|264:94,1,160,0|8,3:2|2:0,2:0:0:0:
250,8,43343,1,2,3:2:0:0:
183,65,43684,6,0,L|25:92,1,160,6|10,3:2|2:0,2:0:0:0:
40,178,44707,1,2,3:2:0:0:
85,255,45048,2,0,P|142:309|218:332,1,160,2|10,3:2|2:0,2:0:0:0:
305,347,46071,1,2,2:0:0:0:
320,260,46412,6,0,L|333:181,1,79.9999999999999,6|2,3:2|3:2,2:0:0:0:
247,166,47093,2,0,L|233:244,1,79.9999999999999,10|2,2:0|3:2,2:0:0:0:
157,290,47775,2,0,B|105:314|53:290|53:290|59:233|105:200|105:200|100:143|53:111,1,320,6|4,3:2|2:1,2:0:0:0:
54,112,60048,6,0,L|67:190,2,79.9999999999999,4|2|2,3:2|3:2|3:2,2:0:0:0:
121,55,61071,1,2,3:2:0:0:
204,85,61412,1,2,3:2:0:0:
367,20,62093,2,0,P|407:21|442:40,1,79.9999999999999,2|2,3:2|3:2,2:0:0:0:
384,106,62775,6,0,L|305:119,2,79.9999999999999,0|2|2,3:2|3:2|3:2,2:0:0:0:
441,173,63798,1,2,3:2:0:0:
411,256,64139,1,2,3:2:0:0:
252,330,64821,2,0,P|213:339|174:330,1,79.9999999999999,2|2,3:2|3:2,2:0:0:0:
94,295,65502,5,4,3:2:0:0:
109,208,65843,2,0,L|122:129,2,79.9999999999999,2|2|2,3:2|3:2|3:2,2:0:0:0:
195,223,66866,2,0,L|208:144,2,79.9999999999999,2|2|2,3:2|3:2|3:2,2:0:0:0:
371,210,68230,6,0,P|409:198|438:170,1,79.9999999999999,2|0,3:2|3:2,2:0:0:0:
439,83,68912,2,0,P|409:55|371:43,1,79.9999999999999,0|2,3:2|3:2,2:0:0:0:
284,48,69593,1,4,3:2:0:0:
198,60,69934,1,4,3:2:0:0:
182,147,70276,1,4,3:2:0:0:
261,189,70616,1,12,2:0:0:0:
324,127,70957,6,0,L|402:140,1,79.9999999999999,6|10,3:2|2:0,2:0:0:0:
463,205,71639,2,0,P|472:244|463:283,1,79.9999999999999,2|10,3:2|2:0,2:0:0:0:
415,356,72321,1,2,3:2:0:0:
250,297,73002,1,4,3:2:0:0:
183,354,73343,1,12,2:0:0:0:
100,323,73684,6,0,L|86:244,1,79.9999999999999,0|10,3:2|2:0,2:0:0:0:
29,175,74366,2,0,L|42:96,1,79.9999999999999,2|10,3:2|2:0,2:0:0:0:
58,10,75048,1,2,3:2:0:0:
192,122,75730,1,4,3:2:0:0:
275,91,76071,1,12,2:0:0:0:
343,148,76412,6,0,P|361:183|363:223,1,79.9999999999999,4|10,3:2|2:0,2:0:0:0:
446,252,77093,2,0,P|424:285|390:307,1,79.9999999999999,2|10,3:2|2:0,2:0:0:0:
305,330,77775,2,0,L|226:316,2,79.9999999999999,2|10|2,3:2|2:0|3:2,2:0:0:0:
418,195,79139,6,0,L|496:181,2,79.9999999999999,6|2|6,3:2|3:2|3:2,2:0:0:0:
362,127,80162,1,2,3:2:0:0:
306,59,80502,2,0,P|276:31|238:20,1,79.9999999999999,6|2,3:2|3:2,2:0:0:0:
151,20,81184,1,2,3:2:0:0:
83,77,81525,1,2,3:2:0:0:
99,163,81866,6,0,L|112:241,1,79.9999999999999,4|10,3:2|2:0,2:0:0:0:
74,321,82548,2,0,P|113:330|152:321,1,79.9999999999999,2|10,3:2|2:0,2:0:0:0:
232,285,83230,1,2,3:2:0:0:
405,314,83912,1,4,3:2:0:0:
461,246,84252,1,12,2:0:0:0:
431,163,84593,6,0,L|352:149,1,79.9999999999999,4|10,3:2|2:0,2:0:0:0:
285,92,85275,2,0,L|206:105,1,79.9999999999999,2|10,3:2|2:0,2:0:0:0:
120,122,85957,1,2,3:2:0:0:
233,256,86639,1,4,3:2:0:0:
166,313,86980,1,4,3:2:0:0:
83,282,87321,6,0,P|55:252|43:214,1,79.9999999999999,4|10,3:2|2:0,2:0:0:0:
44,127,88002,2,0,P|55:88|82:59,1,79.9999999999999,2|10,3:2|2:0,2:0:0:0:
160,20,88684,2,0,L|238:33,2,79.9999999999999,2|10|2,3:2|2:0|3:2,2:0:0:0:
130,194,90048,6,0,L|51:207,2,79.9999999999999,6|10|6,3:2|2:0|3:2,2:0:0:0:
216,178,91071,1,10,2:0:0:0:
270,108,91412,2,0,P|299:80|337:69,1,79.9999999999999,6|2,3:2|3:2,2:0:0:0:
344,157,92093,2,0,P|382:168|411:196,1,79.9999999999999,10|2,2:0|3:2,2:0:0:0:
338,245,92775,6,0,B|362:296|338:348|338:348|279:342|248:296|248:296|197:320|145:296,1,320,6|2,3:2|2:0,2:0:0:0:
0,131,94991,2,0,L|39:124,1,40,0|14,3:2|2:0,2:0:0:0:
125,108,95502,5,6,3:2:0:0:
204,147,95843,2,0,P|213:108|204:69,2,79.9999999999999,8|0|8,2:0|3:2|2:0,2:0:0:0:
209,235,96866,2,0,B|252:230|277:196|277:196|302:230|345:235,1,160,0|0,3:2|3:2,2:0:0:0:
432,235,97889,1,8,2:0:0:0:
499,178,98230,5,0,3:2:0:0:
484,91,98571,2,0,L|470:12,2,79.9999999999999,8|0|8,2:0|3:2|2:0,2:0:0:0:
398,107,99593,2,0,B|384:28|384:28|351:1|309:8,1,160,0|0,3:2|3:2,2:0:0:0:
224,29,100616,1,8,2:0:0:0:
168,97,100957,6,0,B|133:137|133:137|238:156,1,160,4|0,3:2|3:2,2:0:0:0:
326,171,101980,1,8,2:0:0:0:
405,132,102321,2,0,B|423:171|405:210|405:210|387:249|404:286,1,160,0|0,3:2|3:2,2:0:0:0:
460,354,103343,1,8,2:0:0:0:
375,370,103684,6,0,L|296:383,1,79.9999999999999,4|8,3:2|2:0,2:0:0:0:
213,353,104366,2,0,L|134:366,1,79.9999999999999,4|8,3:2|2:0,2:0:0:0:
84,293,105048,2,0,P|57:322|45:360,2,79.9999999999999,8|0|0,2:0|3:2|3:2,2:0:0:0:
158,245,106071,1,8,2:0:0:0:
165,157,106412,6,0,B|169:100|216:67|216:67|263:100|268:157|268:157|272:213|319:246,1,320,4|0,3:2|3:2,2:0:0:0:
