osu file format v14

[General]
AudioFilename: audio.mp3
AudioLeadIn: 0
PreviewTime: 117814
Countdown: 0
SampleSet: Soft
StackLeniency: 0.4
Mode: 0
LetterboxInBreaks: 0
WidescreenStoryboard: 0

[Editor]
DistanceSpacing: 0.4
BeatDivisor: 4
GridSize: 16
TimelineZoom: 1.5

[Metadata]
Title:#Chouzetsu Kawaii
TitleUnicode:#超絶かわいい
Artist:mona (CV: Natsukawa Shiina)
ArtistUnicode:mona (CV: 夏川椎菜)
Creator:aundy
Version:<33
Source:
Tags:leomineXD leomine FreezingAnimenz ItsCactus dahkjdas Neymar Jr neymar_jr Toofu HoneyWorks japanese pop jpop j-pop chozetsu ハニーワークス haniwa Confession Executive Committee Kokuhaku Jikkou Iinkai 告白実行委員会 idol series ~アイドルシリーズ~ 成海 萌奈 narumi mona 可憐なアイボリー Karen na Ivory
BeatmapID:4001188
BeatmapSetID:1935898

[Difficulty]
HPDrainRate:5
CircleSize:4
OverallDifficulty:8.5
ApproachRate:9.3
SliderMultiplier:1.8
SliderTickRate:1

[Events]
//Background and Video events
0,0,"Fmq0q2OaMAEyAUm.jpg",0,0
Video,-20,"video.mp4"
//Break Periods
2,22095,31720
2,76582,84747
2,97338,106963
//Storyboard Layer 0 (Background)
//Storyboard Layer 1 (Fail)
//Storyboard Layer 2 (Pass)
//Storyboard Layer 3 (Foreground)
//Storyboard Layer 4 (Overlay)
//Storyboard Sound Samples

[TimingPoints]
1139,324.324324324324,4,2,1,70,1,0
1139,-111.111111111111,4,2,1,70,0,0
10220,-111.111111111111,4,2,1,60,0,0
11517,-100,4,2,1,75,0,0
21895,-100,4,2,1,55,0,0
32274,-125,4,2,1,65,0,0
42652,-111.111111111111,4,2,1,70,0,0
43949,-111.111111111111,4,2,1,78,0,0
45247,-90.9090909090909,4,2,1,85,0,1
49787,-76.9230769230769,4,2,1,85,0,1
50111,-90.9090909090909,4,2,1,85,0,1
66003,-100,4,2,1,80,0,0
76382,-100,4,2,1,55,0,0
85463,-100,4,2,1,65,0,0
86760,-100,4,2,1,75,0,0
97138,-100,4,2,1,55,0,0
107517,-125,4,2,1,65,0,0
117895,-111.111111111111,4,2,1,70,0,0
119193,-111.111111111111,4,2,1,70,0,0
120490,-90.9090909090909,4,2,1,70,0,1
124706,-166.666666666667,4,2,1,70,0,1
125030,-76.9230769230769,4,2,1,70,0,1
125355,-90.9090909090909,4,2,1,70,0,1
129895,-166.666666666667,4,2,1,70,0,1
130220,-76.9230769230769,4,2,1,70,0,1
130706,-90.9090909090909,4,2,1,70,0,1
141247,-90.9090909090909,4,2,1,70,0,1
145787,-76.9230769230769,4,2,1,70,0,1
146111,-90.9090909090909,4,2,1,70,0,1
150652,-125,4,2,1,70,0,1
150976,-90.9090909090909,4,2,1,70,0,1
162003,-100,4,2,1,80,0,0
172544,-100,4,2,1,65,0,0
173679,-204.081632653061,4,2,1,70,0,0
176030,-204.081632653061,4,2,1,60,0,0

[Colours]
Combo1 : 132,193,255
Combo2 : 255,136,136
Combo3 : 255,173,134
Combo4 : 145,255,145

[HitObjects]
58,281,1139,6,0,P|98:276|138:271,1,80.9999975280763,4|2,1:2|2:2,0:0:0:0:
305,185,1463,1,8,2:2:0:0:
209,125,1625,2,0,P|213:165|229:298,1,161.999995056153,10|2,2:2|1:2,0:0:0:0:
301,381,2111,1,10,2:2:0:0:
138,271,2274,1,2,2:2:0:0:
305,185,2436,6,0,P|345:189|385:194,1,80.9999975280763,2|2,1:2|2:2,0:0:0:0:
512,266,2760,1,10,2:2:0:0:
416,92,2922,1,10,2:2:0:0:
415,91,3247,2,0,P|420:51|425:11,1,80.9999975280763,2|10,1:2|2:2,0:0:0:0:
425,11,3571,1,2,2:2:0:0:
300,184,3733,21,2,1:2:0:0:
216,167,3895,1,2,2:2:0:0:
132,150,4057,1,10,2:2:0:0:
51,200,4220,2,0,P|41:121|92:62,1,161.999995056153,10|0,2:2|1:1,0:0:0:0:
201,2,4706,2,0,P|196:42|191:82,1,80.9999975280763,10|0,2:2|0:0,0:0:0:0:
21,291,5030,6,0,P|61:299|98:284,1,80.9999975280763,2|0,1:2|0:0,0:0:0:0:
271,217,5355,1,8,2:2:0:0:
172,162,5517,2,0,P|176:202|192:335,1,161.999995056153,8|0,2:2|1:1,0:0:0:0:
351,226,6003,2,0,P|310:221|270:216,1,80.9999975280763,8|2,2:2|2:2,0:0:0:0:
111,14,6328,5,2,1:2:0:0:
263,115,6490,1,2,2:2:0:0:
89,210,6652,1,10,2:2:0:0:
213,32,6814,2,0,P|291:22|350:73,1,161.999995056153,10|0,2:2|1:1,0:0:0:0:
431,235,7301,2,0,P|390:230|350:225,1,80.9999975280763,10|0,2:2|0:0,0:0:0:0:
206,337,7625,6,0,P|196:256|191:203,1,121.499996292114,2|0,1:2|0:0,0:0:0:0:
188,182,7949,1,10,2:2:0:0:
350,73,8111,1,10,2:2:0:0:
350,73,8436,1,0,1:1:0:0:
245,18,8598,2,0,P|249:58|254:98,1,80.9999975280763,10|2,2:2|2:2,0:0:0:0:
362,247,8922,5,2,1:2:0:0:
278,231,9084,1,2,2:2:0:0:
195,214,9246,1,10,2:2:0:0:
403,335,9409,2,0,P|454:275|444:197,1,161.999995056153,10|0,2:2|1:1,0:0:0:0:
254,98,9895,1,10,2:2:0:0:
238,338,10057,1,0,1:1:0:0:
245,322,10138,1,0,1:1:0:0:
252,308,10220,1,10,2:2:0:0:
467,77,11517,6,0,P|426:81|363:90,1,90,4|2,1:2|2:2,0:0:0:0:
204,150,11841,1,10,2:2:0:0:
297,257,12003,1,0,3:3:0:0:
297,257,12084,1,0,3:3:0:0:
297,257,12166,2,0,P|302:212|307:167,1,90,0|2,1:1|3:2,0:0:0:0:
261,48,12490,1,10,2:2:0:0:
409,178,12652,1,2,2:2:0:0:
211,243,12814,6,0,P|166:237|121:232,1,90,2|2,1:2|2:2,0:0:0:0:
0,100,13138,1,10,2:2:0:0:
120,54,13301,1,2,3:2:0:0:
120,54,13382,1,0,3:3:0:0:
120,54,13463,2,0,L|114:101,1,45,0|0,1:1|3:0,0:0:0:0:
33,249,13625,5,2,3:2:0:0:
121,232,13787,1,10,2:2:0:0:
209,214,13949,1,2,2:2:0:0:
307,106,14111,6,0,P|302:151|297:196,1,90,2|2,1:2|2:2,0:0:0:0:
185,314,14436,1,10,2:2:0:0:
351,369,14598,1,2,3:2:0:0:
351,369,14679,1,0,3:3:0:0:
351,369,14760,2,0,P|395:363|440:358,1,90,0|0,1:1|3:3,0:0:0:0:
511,190,15084,2,0,P|466:195|421:200,1,90,10|0,2:2|0:0,0:0:0:0:
291,240,15409,6,0,L|296:195,1,45,2|0,1:2|0:0,0:0:0:0:
361,28,15571,6,0,L|366:72,1,45,0|0,3:3|3:3,0:0:0:0:
415,245,15733,6,0,L|420:200,1,45,10|0,2:2|0:0,0:0:0:0:
500,56,15895,6,0,P|432:63|366:72,1,135,2|0,3:2|0:0,0:0:0:0:
335,76,16220,1,2,3:2:0:0:
251,22,16382,1,10,2:2:0:0:
167,75,16544,1,2,2:2:0:0:
49,0,16706,6,0,P|54:44|59:89,1,90,2|0,1:2|0:0,0:0:0:0:
16,280,17030,1,10,2:2:0:0:
200,227,17193,1,2,3:2:0:0:
200,227,17274,1,0,3:3:0:0:
200,227,17355,2,0,P|160:207|116:213,1,90,0|0,1:1|3:3,0:0:0:0:
266,384,17679,2,0,P|271:339|276:294,1,90,10|0,2:2|0:0,0:0:0:0:
99,79,18003,6,0,P|107:145|115:212,1,135,2|0,1:2|0:0,0:0:0:0:
119,247,18328,1,10,2:2:0:0:
246,374,18490,1,2,3:2:0:0:
246,374,18571,1,0,3:3:0:0:
246,374,18652,2,0,P|289:379|329:360,1,90,0|0,1:1|3:3,0:0:0:0:
411,157,18976,1,10,2:2:0:0:
276,294,19138,1,2,2:2:0:0:
471,325,19301,5,2,1:2:0:0:
383,383,19463,2,0,P|377:327|366:244,1,135,2|0,2:2|0:0,0:0:0:0:
337,183,19787,1,2,3:2:0:0:
337,183,19868,1,0,3:3:0:0:
337,183,19949,2,0,L|290:177,1,45,2|0,1:2|0:0,0:0:0:0:
212,52,20111,2,0,L|259:46,1,45,8|8,2:2|2:2,0:0:0:0:
397,0,20274,2,0,P|448:30|454:113,1,135,2|0,3:2|0:0,0:0:0:0:
419,166,20598,5,12,1:2:0:0:
419,166,20922,2,0,L|359:159,2,60,8|8|8,2:2|2:2|2:2,0:0:0:0:
469,230,21247,2,0,P|456:299|444:371,1,135,4|0,1:2|0:0,0:0:0:0:
363,376,21571,2,0,P|373:316|388:236,1,135,4|0,0:3|0:0,0:0:0:0:
419,166,21895,5,4,1:2:0:0:
235,247,32274,6,0,P|301:236|381:223,2,144,4|2|10,1:2|2:2|2:2,0:0:0:0:
235,247,33247,1,2,1:2:0:0:
100,150,33409,1,10,2:2:0:0:
199,95,33571,5,2,1:2:0:0:
199,95,33733,2,0,P|193:139|190:175,1,72,8|4,0:2|0:3,0:0:0:0:
75,322,34057,1,4,0:3:0:0:
0,259,34220,2,0,P|51:227|137:245,1,144,10|0,2:2|0:0,0:0:0:0:
221,323,34706,5,0,3:3:0:0:
221,323,34787,1,0,3:3:0:0:
221,323,34868,2,0,P|265:317|301:314,1,72,2|8,1:2|0:3,0:0:0:0:
392,357,35193,2,0,P|396:321|401:286,1,72,2|0,0:2|0:0,0:0:0:0:
319,135,35517,2,0,P|323:170|327:206,1,72,10|0,2:2|0:0,0:0:0:0:
296,318,35841,1,2,1:2:0:0:
296,318,36003,1,10,2:2:0:0:
327,206,36166,6,0,P|393:195|473:182,2,144,2|4|10,1:2|0:3|2:2,0:0:0:0:
186,101,36976,1,0,0:0:0:0:
328,29,37138,1,0,1:1:0:0:
286,115,37301,1,8,2:2:0:0:
247,201,37463,6,0,P|210:196|175:192,1,72,2|0,1:2|0:0,0:0:0:0:
20,77,37787,2,0,P|57:72|91:68,1,72,2|0,2:2|0:0,0:0:0:0:
194,29,38111,2,0,P|189:64|185:100,1,72,10|0,2:2|0:0,0:0:0:0:
88,255,38436,1,2,1:2:0:0:
88,255,38598,1,10,2:2:0:0:
10,195,38760,6,0,P|61:163|147:181,1,144,2|4,1:2|1:3,0:0:0:0:
221,239,39247,1,0,1:1:0:0:
221,239,39409,2,0,P|216:274|212:310,1,72,10|0,2:2|0:0,0:0:0:0:
79,326,39733,2,0,P|83:290|87:254,1,72,2|10,2:2|2:2,0:0:0:0:
221,115,40057,5,2,1:2:0:0:
350,210,40220,1,8,0:2:0:0:
221,115,40382,2,0,P|185:118|149:123,1,72,2|0,1:2|0:0,0:0:0:0:
339,93,40706,5,10,2:2:0:0:
221,239,40868,1,0,1:1:0:0:
339,93,41030,2,0,P|343:60|347:21,1,72,10|0,2:2|0:0,0:0:0:0:
253,19,41355,5,4,1:2:0:0:
441,130,41517,1,8,0:0:0:0:
441,130,41598,1,8,2:2:0:0:
441,130,41679,1,8,2:2:0:0:
350,210,41841,1,8,0:3:0:0:
471,254,42003,5,0,1:1:0:0:
339,93,42166,1,4,0:3:0:0:
257,270,42328,1,4,0:3:0:0:
257,270,42652,5,4,1:2:0:0:
170,246,42814,1,2,2:2:0:0:
147,333,42976,1,2,2:2:0:0:
234,356,43138,1,2,2:2:0:0:
110,169,43301,5,2,2:2:0:0:
87,82,43463,1,2,2:2:0:0:
0,105,43625,1,2,2:2:0:0:
28,198,43787,1,2,1:2:0:0:
28,198,43868,1,0,1:1:0:0:
28,198,43949,5,12,2:2:0:0:
183,100,44111,1,8,2:2:0:0:
25,11,44274,1,8,2:2:0:0:
134,197,44436,1,8,2:2:0:0:
273,8,44598,6,0,L|226:-2,1,40.4999987640381,8|0,2:2|0:0,0:0:0:0:
0,105,44760,6,0,L|39:96,1,40.4999987640381,8|0,2:2|0:0,0:0:0:0:
210,295,44922,6,0,L|218:255,1,40.4999987640381,10|0,2:2|0:0,0:0:0:0:
145,42,45084,6,0,L|153:81,1,40.4999987640381,10|0,2:2|0:0,0:0:0:0:
100,317,45247,5,4,1:2:0:0:
275,131,45409,1,2,2:2:0:0:
39,96,45571,1,8,2:2:0:0:
218,255,45733,1,2,3:2:0:0:
218,255,45814,1,8,0:2:0:0:
218,255,45895,2,0,P|262:249|320:243,1,99.0000030212403,2|2,1:2|3:2,0:0:0:0:
441,198,46220,1,10,2:2:0:0:
301,366,46382,1,2,2:2:0:0:
236,160,46544,6,0,P|230:64|304:-2,1,198.000006042481,2|8,1:2|2:2,0:0:0:0:
475,108,47030,1,0,0:0:0:0:
346,239,47193,2,0,P|351:189|357:140,1,99.0000030212403,2|0,1:2|0:0,0:0:0:0:
417,1,47517,1,8,2:2:0:0:
235,124,47679,1,0,0:0:0:0:
444,227,47841,6,0,P|394:232|345:238,1,99.0000030212403,2|0,1:2|0:0,0:0:0:0:
215,21,48166,2,0,P|264:26|313:32,1,99.0000030212403,10|2,2:2|3:2,0:0:0:0:
313,32,48409,1,8,0:2:0:0:
313,32,48490,1,2,1:2:0:0:
197,235,48652,1,0,3:3:0:0:
432,291,48814,2,0,P|439:218|396:160,1,148.50000453186,10|0,2:2|0:0,0:0:0:0:
357,140,49138,6,0,P|350:189|345:238,1,99.0000030212403,0|0,1:1|0:0,0:0:0:0:
240,384,49463,2,0,L|249:335,1,49.5000015106202,10|2,2:2|0:0,0:0:0:0:
91,176,49625,1,2,2:2:0:0:
91,176,49706,1,2,0:0:0:0:
91,176,49787,2,0,B|176:156|176:156|220:192|193:242,1,175.499991966248,2|0,1:2|0:0,0:0:0:0:
154,302,50111,2,0,P|104:295|55:290,1,99.0000030212403,10|2,2:2|2:2,0:0:0:0:
0,121,50436,5,4,1:2:0:0:
196,234,50598,1,2,2:2:0:0:
0,352,50760,1,8,2:2:0:0:
111,195,50922,1,2,3:2:0:0:
111,195,51003,1,8,0:2:0:0:
111,195,51084,2,0,P|105:150|99:93,1,99.0000030212403,2|2,1:2|3:2,0:0:0:0:
196,234,51409,1,10,2:2:0:0:
0,121,51571,1,2,2:2:0:0:
205,5,51733,6,0,B|312:-13|273:57|396:37,1,198.000006042481,2|8,1:2|2:2,0:0:0:0:
508,136,52220,2,0,L|460:129,1,49.5000015106202,2|2,0:0|0:0,0:0:0:0:
325,148,52382,1,2,1:2:0:0:
502,17,52544,1,0,0:0:0:0:
512,245,52706,2,0,B|462:237|413:231,1,99.0000030212403,8|0,2:2|0:0,0:0:0:0:
273,82,53030,6,0,P|317:61|364:72,1,99.0000030212403,2|0,1:2|0:0,0:0:0:0:
172,347,53355,2,0,P|166:297|160:248,1,99.0000030212403,10|2,2:2|3:2,0:0:0:0:
161,249,53598,1,8,0:2:0:0:
161,249,53679,1,2,1:2:0:0:
0,117,53841,1,0,3:3:0:0:
148,0,54003,2,0,P|190:58|183:130,1,148.50000453186,10|0,2:2|0:0,0:0:0:0:
111,186,54328,2,0,P|105:136|99:87,1,99.0000030212403,0|0,1:1|0:0,0:0:0:0:
282,33,54652,6,0,L|272:81,1,49.5000015106202,10|2,2:2|0:0,0:0:0:0:
174,296,54814,6,0,L|161:249,1,49.5000015106202,2|2,2:2|0:0,0:0:0:0:
99,87,54976,5,2,1:2:0:0:
99,87,55057,1,0,3:0:0:0:
99,87,55138,2,0,L|147:97,1,49.5000015106202,0|8,3:3|2:2,0:0:0:0:
272,239,55301,6,0,P|321:232|370:227,1,99.0000030212403,10|10,2:2|2:2,0:0:0:0:
370,227,55544,1,8,2:2:0:0:
370,227,55625,5,4,1:2:0:0:
512,304,55787,1,2,2:2:0:0:
351,104,55949,1,10,2:2:0:0:
262,329,56111,1,0,3:3:0:0:
262,329,56193,1,8,0:2:0:0:
262,329,56274,1,2,1:2:0:0:
479,173,56436,1,2,3:2:0:0:
235,46,56598,1,10,2:2:0:0:
370,227,56760,1,2,2:2:0:0:
512,40,56922,6,0,P|416:33|351:104,1,198.000006042481,2|8,1:2|2:2,0:0:0:0:
281,308,57409,1,2,0:0:0:0:
281,308,57490,1,2,0:0:0:0:
281,308,57571,1,2,1:2:0:0:
479,173,57733,1,0,0:0:0:0:
252,74,57895,5,10,2:2:0:0:
227,78,57976,1,8,0:0:0:0:
203,83,58057,1,10,2:2:0:0:
179,88,58138,1,8,2:2:0:0:
155,94,58220,6,0,P|162:145|167:192,1,99.0000030212403,4|0,1:2|0:0,0:0:0:0:
44,358,58544,2,0,P|91:369|135:348,1,99.0000030212403,10|2,2:2|2:2,0:0:0:0:
269,163,58868,1,4,1:2:0:0:
81,283,59030,1,0,0:0:0:0:
261,384,59193,2,0,P|255:334|248:285,1,99.0000030212403,10|2,2:2|2:2,0:0:0:0:
56,81,59517,6,0,P|105:86|154:93,1,99.0000030212403,4|0,1:2|0:0,0:0:0:0:
396,0,59841,2,0,P|390:49|383:98,1,99.0000030212403,10|8,2:2|2:2,0:0:0:0:
382,98,60084,1,8,2:2:0:0:
388,106,60166,2,0,L|398:154,3,49.5000015106202,2|0|8|8,1:2|3:0|0:2|2:2,0:0:0:0:
500,268,60490,5,8,2:2:0:0:
454,249,60571,1,8,2:2:0:0:
405,253,60652,1,8,2:2:0:0:
363,279,60733,1,8,2:2:0:0:
337,321,60814,6,0,P|288:314|239:308,1,99.0000030212403,4|2,1:2|2:2,0:0:0:0:
92,124,61138,1,10,2:2:0:0:
285,225,61301,1,2,3:2:0:0:
285,225,61382,1,8,0:2:0:0:
285,225,61463,1,2,1:2:0:0:
81,341,61625,1,2,3:2:0:0:
241,137,61787,2,0,P|288:127|332:148,1,99.0000030212403,10|0,2:2|0:0,0:0:0:0:
173,327,62111,6,0,P|166:277|159:228,1,99.0000030212403,2|0,1:2|0:0,0:0:0:0:
345,49,62436,2,0,P|337:98|331:147,1,99.0000030212403,10|2,2:2|2:2,0:0:0:0:
331,147,62679,1,2,0:0:0:0:
331,147,62760,1,2,1:2:0:0:
115,88,62922,1,0,0:0:0:0:
204,315,63084,2,0,P|246:255|238:183,1,148.50000453186,10|0,2:2|0:0,0:0:0:0:
225,152,63409,5,4,1:2:0:0:
202,65,63571,1,0,0:0:0:0:
115,88,63733,1,10,2:2:0:0:
144,181,63895,5,2,3:2:0:0:
144,181,63976,1,8,0:2:0:0:
144,181,64057,1,0,1:1:0:0:
168,268,64219,1,2,3:2:0:0:
81,291,64381,1,10,2:2:0:0:
58,204,64543,1,0,0:0:0:0:
202,65,64706,6,0,L|250:75,1,49.5000015106202,4|8,1:2|3:2,0:0:0:0:
395,232,64868,2,8,L|347:222,1,49.5000015106202,10|8,3:2|3:2,0:0:0:0:
178,316,65030,2,8,L|168:268,1,49.5000015106202,10|8,0:2|0:2,0:0:0:0:
115,88,65193,1,10,3:2:0:0:
115,88,65274,1,8,2:2:0:0:
115,88,65355,1,10,2:2:0:0:
316,54,65517,5,0,3:3:0:0:
316,54,65598,1,0,3:3:0:0:
316,54,65679,2,0,L|364:44,1,49.5000015106202,8|0,2:2|0:0,0:0:0:0:
167,267,65841,2,0,L|119:257,1,49.5000015106202,8|8,2:2|2:2,0:0:0:0:
209,25,66003,6,0,P|220:91|239:211,1,180,4|8,1:2|2:2,0:0:0:0:
201,363,66490,2,0,P|288:375|360:325,1,180,2|0,2:2|1:1,0:0:0:0:
420,215,66976,2,0,P|375:221|331:228,1,90,10|0,2:2|0:0,0:0:0:0:
27,168,67301,6,0,P|99:118|186:130,1,180,2|8,1:2|2:2,0:0:0:0:
303,41,67787,1,2,2:2:0:0:
303,41,67868,1,2,0:0:0:0:
303,41,67949,2,0,P|295:85|280:183,1,135,0|0,1:1|0:0,0:0:0:0:
264,202,68274,2,0,P|219:208|175:215,1,90,10|0,2:2|0:0,0:0:0:0:
22,363,68598,6,0,P|110:348|199:334,1,180,2|8,1:2|2:2,0:0:0:0:
368,255,69084,1,0,0:0:0:0:
264,202,69247,2,0,P|270:246|277:290,1,90,2|0,1:2|1:1,0:0:0:0:
407,357,69571,2,0,P|400:312|393:267,1,90,10|0,2:2|0:0,0:0:0:0:
510,87,69895,6,0,B|405:68|443:134|337:117,1,180,2|8,1:2|2:2,0:0:0:0:
224,13,70382,1,2,2:2:0:0:
224,13,70463,1,2,2:2:0:0:
224,13,70544,2,0,P|268:5|312:0,1,90,2|0,1:2|1:1,0:0:0:0:
219,177,70868,1,8,2:2:0:0:
217,165,70949,1,8,2:2:0:0:
215,154,71030,1,8,2:2:0:0:
214,143,71111,1,8,2:2:0:0:
212,132,71193,6,0,P|124:119|52:169,1,180,4|8,1:2|2:2,0:0:0:0:
0,327,71679,2,0,P|88:312|177:298,1,180,2|0,2:2|1:1,0:0:0:0:
264,344,72166,2,0,P|270:300|278:256,1,90,10|0,2:2|0:0,0:0:0:0:
414,43,72490,6,0,P|471:115|451:202,1,180,2|8,1:2|2:2,0:0:0:0:
500,317,72976,1,2,2:2:0:0:
500,317,73057,1,2,0:0:0:0:
500,317,73138,2,0,P|455:309|358:294,1,135,0|0,1:1|0:0,0:0:0:0:
337,281,73463,2,0,P|330:236|323:192,1,90,10|0,2:2|0:0,0:0:0:0:
304,32,73787,5,2,1:2:0:0:
186,218,73949,1,0,0:0:0:0:
380,133,74111,1,8,2:2:0:0:
185,23,74274,2,0,L|195:69,2,45,2|2|0,2:2|0:0|1:1,0:0:0:0:
98,201,74598,5,2,1:2:0:0:
186,218,74760,1,10,2:2:0:0:
275,233,74922,1,4,2:2:0:0:
376,259,75084,6,0,P|369:214|362:170,1,90,2|0,1:2|3:3,0:0:0:0:
370,176,75327,1,0,3:3:0:0:
370,176,75409,2,0,L|380:130,3,45,0|0|8|8,1:1|3:3|2:2|2:2,0:0:0:0:
317,24,75733,5,8,2:2:0:0:
499,144,75895,1,0,3:3:0:0:
275,233,76057,1,2,3:2:0:0:
425,354,76220,1,0,1:1:0:0:
430,234,76382,5,4,1:2:0:0:
159,239,85301,5,0,1:1:0:0:
159,239,85382,1,0,1:1:0:0:
159,239,85463,1,8,2:2:0:0:
222,301,85625,1,0,1:1:0:0:
310,292,85787,1,0,1:1:0:0:
357,215,85949,1,0,3:3:0:0:
370,77,86111,5,0,1:1:0:0:
261,220,86274,1,0,1:1:0:0:
475,143,86436,1,10,2:2:0:0:
293,0,86598,1,8,2:2:0:0:
356,179,86760,6,0,P|286:127|200:139,1,180,4|8,1:2|2:2,0:0:0:0:
105,314,87247,1,2,3:2:0:0:
105,314,87328,1,0,3:3:0:0:
105,314,87409,2,0,P|150:307|194:300,1,90,0|2,1:1|3:2,0:0:0:0:
50,201,87733,1,10,2:2:0:0:
1,379,87895,1,2,2:2:0:0:
193,300,88057,6,0,P|197:255|203:210,1,90,2|2,1:2|2:2,0:0:0:0:
141,4,88382,1,10,2:2:0:0:
59,115,88544,1,2,3:2:0:0:
59,115,88625,1,0,3:3:0:0:
59,115,88706,2,0,L|106:109,1,45,0|0,1:1|3:3,0:0:0:0:
237,34,88868,5,2,3:2:0:0:
219,122,89030,1,10,2:2:0:0:
202,210,89192,1,2,2:2:0:0:
92,310,89355,6,0,P|137:305|182:300,1,90,2|2,1:2|2:2,0:0:0:0:
389,324,89679,1,10,2:2:0:0:
294,190,89841,1,2,3:2:0:0:
294,190,89922,1,0,3:3:0:0:
294,190,90003,2,0,P|288:234|283:279,1,90,0|0,1:1|3:3,0:0:0:0:
400,351,90328,2,0,P|405:306|412:261,1,90,10|0,2:2|0:0,0:0:0:0:
512,89,90652,6,0,P|467:128|347:117,1,180,2|8,1:2|2:2,0:0:0:0:
237,22,91138,1,0,3:3:0:0:
237,22,91219,1,0,3:3:0:0:
237,22,91300,2,0,P|281:16|326:11,1,90,0|0,1:1|3:3,0:0:0:0:
185,189,91625,1,8,2:2:0:0:
292,239,91787,2,0,L|286:194,1,45,10|8,2:2|2:2,0:0:0:0:
214,105,91949,6,0,P|170:99|130:119,1,90,4|0,1:2|0:0,0:0:0:0:
0,239,92274,1,10,2:2:0:0:
110,337,92436,1,2,3:2:0:0:
110,337,92517,1,0,3:3:0:0:
110,337,92598,2,0,P|105:292|100:247,1,90,0|0,1:1|3:3,0:0:0:0:
40,109,92922,2,0,P|85:114|130:119,1,90,10|0,2:2|0:0,0:0:0:0:
280,0,93247,6,0,P|271:67|263:134,1,135,2|0,1:2|0:0,0:0:0:0:
259,165,93571,1,10,2:2:0:0:
316,336,93733,1,2,3:2:0:0:
316,336,93814,1,0,3:3:0:0:
316,336,93895,2,0,P|359:341|399:321,1,90,0|0,1:1|3:3,0:0:0:0:
478,165,94220,2,0,P|434:159|394:179,1,90,10|0,2:2|0:0,0:0:0:0:
316,336,94544,5,2,1:2:0:0:
455,246,94706,1,2,2:2:0:0:
306,164,94868,1,10,2:2:0:0:
410,80,95030,1,2,3:2:0:0:
410,80,95111,1,0,3:3:0:0:
410,80,95192,2,0,P|405:125|400:170,1,90,2|8,1:2|2:2,0:0:0:0:
350,247,95436,1,8,2:2:0:0:
350,247,95517,2,0,P|284:252|229:215,1,135,10|0,2:2|0:0,0:0:0:0:
205,143,95841,5,12,1:2:0:0:
205,143,96166,2,0,L|145:150,2,60,8|8|8,2:2|2:2|2:2,0:0:0:0:
312,104,96490,5,4,1:2:0:0:
312,104,96598,2,0,L|305:164,1,60,8|8,0:3|0:3,0:0:0:0:
259,303,96814,5,0,1:1:0:0:
259,303,96922,2,0,L|199:296,1,60,4|4,0:3|0:3,0:0:0:0:
91,218,97138,5,4,1:2:0:0:
259,244,107517,6,0,P|310:212|396:230,2,144,4|2|2,1:2|1:2|1:2,0:0:0:0:
259,244,108490,1,2,1:2:0:0:
100,191,108652,1,2,2:2:0:0:
156,332,108814,2,0,P|159:296|164:260,1,72,2|0,1:2|0:0,0:0:0:0:
245,118,109138,2,0,P|209:121|173:126,1,72,2|0,1:2|0:0,0:0:0:0:
0,115,109463,6,0,P|11:181|24:261,1,144,2|0,1:2|1:1,0:0:0:0:
84,340,109949,1,2,0:0:0:0:
84,340,110030,1,2,0:0:0:0:
84,340,110111,2,0,P|128:334|164:331,1,72,2|0,1:2|0:0,0:0:0:0:
269,204,110436,2,0,P|233:198|197:195,1,72,2|0,1:2|0:0,0:0:0:0:
288,384,110760,2,0,P|291:348|296:312,1,72,2|0,1:2|0:0,0:0:0:0:
442,181,111084,1,2,1:2:0:0:
442,181,111247,1,2,2:2:0:0:
366,236,111409,6,0,P|427:270|496:254,2,144,2|2|2,1:2|1:2|1:2,0:0:0:0:
279,142,112220,1,2,0:0:0:0:
279,142,112301,1,2,0:0:0:0:
279,142,112382,2,0,P|314:137|350:134,1,72,0|0,1:1|0:0,0:0:0:0:
456,0,112706,6,0,P|451:37|447:72,1,72,4|0,1:2|0:0,0:0:0:0:
359,205,113030,2,0,P|354:169|350:133,1,72,2|0,1:2|0:0,0:0:0:0:
239,27,113355,2,0,P|274:30|310:36,1,72,2|0,1:2|0:0,0:0:0:0:
443,156,113679,1,2,1:2:0:0:
443,156,113841,1,2,2:2:0:0:
379,229,114003,6,0,P|318:195|249:211,1,144,2|2,1:2|1:2,0:0:0:0:
222,364,114490,1,0,0:0:0:0:
110,288,114652,2,0,P|145:282|181:278,1,72,2|0,1:2|0:0,0:0:0:0:
202,137,114976,2,0,P|166:140|130:146,1,72,2|10,1:2|2:2,0:0:0:0:
130,146,115220,5,8,2:2:0:0:
130,146,115301,1,2,1:2:0:0:
0,272,115463,1,8,2:2:0:0:
123,328,115625,2,0,P|118:293|114:256,1,72,2|10,1:2|2:2,0:0:0:0:
115,257,115868,1,8,2:2:0:0:
115,257,115949,1,2,1:2:0:0:
37,121,116111,2,0,L|2:116,2,36,0|0|2,3:3|3:3|1:2,0:0:0:0:
194,57,116436,5,0,3:3:0:0:
194,57,116517,1,0,3:3:0:0:
194,57,116598,2,0,P|239:46|300:88,1,108,2|0,1:2|0:0,0:0:0:0:
309,102,116922,1,12,2:2:0:0:
305,274,117084,1,0,3:3:0:0:
305,274,117166,1,8,2:2:0:0:
305,274,117247,5,8,2:2:0:0:
388,252,117409,1,8,0:3:0:0:
369,168,117571,1,4,0:3:0:0:
283,187,117733,1,0,1:1:0:0:
252,346,117895,5,4,1:2:0:0:
388,252,118057,1,2,2:2:0:0:
211,136,118220,1,2,2:2:0:0:
305,274,118382,1,2,2:2:0:0:
368,138,118544,5,2,2:2:0:0:
198,228,118706,1,2,2:2:0:0:
369,337,118868,1,2,2:2:0:0:
283,187,119030,5,2,1:2:0:0:
283,187,119111,1,0,1:1:0:0:
283,187,119193,1,12,2:2:0:0:
456,90,119355,1,8,2:2:0:0:
228,36,119517,1,8,2:2:0:0:
305,274,119679,1,8,2:2:0:0:
333,1,119841,6,0,L|323:48,1,40.4999987640381,8|0,2:2|0:0,0:0:0:0:
198,228,120003,6,0,L|189:188,1,40.4999987640381,8|8,2:2|2:2,0:0:0:0:
81,3,120166,6,0,L|91:50,1,40.4999987640381,10|8,2:2|2:2,0:0:0:0:
0,271,120328,6,0,L|8:231,1,40.4999987640381,10|8,2:2|2:2,0:0:0:0:
228,36,120490,5,4,1:2:0:0:
0,100,120652,1,2,2:2:0:0:
198,228,120814,1,10,2:2:0:0:
89,42,120976,1,2,3:2:0:0:
89,42,121057,1,8,0:2:0:0:
89,42,121138,2,0,P|83:86|77:144,1,99.0000030212403,0|2,1:1|3:2,0:0:0:0:
0,271,121463,1,10,2:2:0:0:
188,111,121625,1,2,2:2:0:0:
141,325,121787,6,0,P|236:331|301:260,1,198.000006042481,2|8,1:2|2:2,0:0:0:0:
421,98,122274,1,0,0:0:0:0:
503,217,122436,2,0,P|459:211|401:205,1,99.0000030212403,2|0,1:2|0:0,0:0:0:0:
324,16,122760,1,8,2:2:0:0:
512,132,122922,1,0,0:0:0:0:
301,260,123084,6,0,P|296:210|290:161,1,99.0000030212403,2|0,1:2|0:0,0:0:0:0:
501,33,123409,2,0,P|507:82|511:131,1,99.0000030212403,10|2,2:2|3:2,0:0:0:0:
512,132,123652,1,8,0:2:0:0:
512,132,123733,1,2,1:2:0:0:
324,16,123895,1,0,3:3:0:0:
243,250,124057,2,0,P|315:257|373:214,1,148.50000453186,10|0,2:2|0:0,0:0:0:0:
388,172,124382,6,0,P|338:165|289:161,1,99.0000030212403,0|0,1:1|0:0,0:0:0:0:
80,66,124706,6,0,P|129:59|150:59,1,53.9999983520508,10|2,2:2|2:2,0:0:0:0:
225,0,124949,1,2,0:0:0:0:
225,0,125030,2,0,P|219:50|205:184,1,175.499991966248,2|0,1:2|0:0,0:0:0:0:
216,258,125355,6,0,P|166:251|117:246,1,99.0000030212403,10|2,2:2|2:2,0:0:0:0:
5,91,125679,1,4,1:2:0:0:
205,174,125841,1,2,2:2:0:0:
11,327,126003,1,10,2:2:0:0:
110,131,126166,1,2,3:2:0:0:
110,131,126247,1,8,0:2:0:0:
110,131,126328,2,0,P|105:83|98:32,1,99.0000030212403,0|2,1:1|3:2,0:0:0:0:
216,258,126652,1,10,2:2:0:0:
24,188,126814,1,2,2:2:0:0:
193,73,126976,6,0,P|287:58|359:122,1,198.000006042481,2|8,1:2|2:2,0:0:0:0:
422,306,127463,1,2,0:0:0:0:
422,306,127544,1,2,0:0:0:0:
422,306,127625,1,2,1:2:0:0:
257,155,127787,1,0,0:0:0:0:
467,91,127949,2,0,B|459:141|453:190,1,99.0000030212403,8|0,2:2|0:0,0:0:0:0:
345,355,128274,6,0,P|324:311|335:263,1,99.0000030212403,2|0,1:2|0:0,0:0:0:0:
190,73,128598,2,0,B|182:123|176:172,1,99.0000030212403,10|2,2:2|3:2,0:0:0:0:
176,171,128841,1,8,0:2:0:0:
176,171,128922,1,2,1:2:0:0:
345,19,129084,1,0,3:3:0:0:
228,265,129247,2,0,P|155:272|96:230,1,148.50000453186,10|0,2:2|0:0,0:0:0:0:
78,184,129571,6,0,B|127:178|177:170,1,99.0000030212403,0|0,1:1|0:0,0:0:0:0:
345,19,129895,6,0,L|333:80,1,53.9999983520508,14|2,2:2|1:2,0:0:0:0:
373,160,130138,1,0,1:1:0:0:
373,160,130220,2,0,B|323:152|253:140,1,116.999994644165,14|0,2:2|3:3,0:0:0:0:
257,140,130463,1,8,2:2:0:0:
257,140,130544,1,10,2:2:0:0:
128,52,130706,2,0,L|118:2,1,49.5000015106202,8|8,2:2|2:2,0:0:0:0:
96,230,130868,5,4,1:2:0:0:
231,47,131030,1,2,2:2:0:0:
19,1,131193,1,10,2:2:0:0:
176,170,131355,1,2,3:2:0:0:
176,170,131436,1,8,0:2:0:0:
176,170,131517,1,2,1:2:0:0:
0,248,131679,1,2,3:2:0:0:
128,52,131841,1,10,2:2:0:0:
227,249,132003,1,0,0:0:0:0:
0,133,132166,6,0,B|68:122|68:122|116:149|116:149|189:136,1,198.000006042481,2|8,1:2|2:2,0:0:0:0:
422,130,132652,1,2,0:0:0:0:
422,130,132733,1,2,0:0:0:0:
422,130,132814,1,2,1:2:0:0:
244,0,132976,1,0,0:0:0:0:
227,249,133138,5,10,2:2:0:0:
231,225,133219,1,8,2:2:0:0:
234,200,133300,1,10,2:2:0:0:
238,176,133381,1,8,2:2:0:0:
241,151,133463,6,0,P|292:144|339:139,1,99.0000030212403,4|0,1:2|0:0,0:0:0:0:
435,352,133787,2,0,P|384:345|337:340,1,99.0000030212403,10|2,2:2|2:2,0:0:0:0:
144,154,134111,1,4,1:2:0:0:
338,239,134274,1,0,0:0:0:0:
170,378,134436,2,0,P|149:334|160:286,1,99.0000030212403,10|2,2:2|2:2,0:0:0:0:
350,140,134760,6,0,P|343:189|337:238,1,99.0000030212403,4|0,1:2|0:0,0:0:0:0:
144,154,135084,2,0,P|150:105|157:56,1,99.0000030212403,10|2,2:2|0:0,0:0:0:0:
158,56,135327,1,2,0:0:0:0:
166,63,135409,2,0,L|156:15,3,49.5000015106202,2|0|8|8,1:2|1:2|0:2|2:2,0:0:0:0:
19,103,135733,5,8,2:2:0:0:
4,149,135814,1,8,2:2:0:0:
9,198,135895,1,8,2:2:0:0:
34,240,135976,1,8,2:2:0:0:
74,269,136057,6,0,P|123:261|172:255,1,99.0000030212403,4|2,1:2|2:2,0:0:0:0:
315,46,136382,1,10,2:2:0:0:
144,154,136544,1,2,3:2:0:0:
144,154,136625,1,8,0:2:0:0:
144,154,136706,1,0,1:1:0:0:
326,259,136868,1,2,3:2:0:0:
185,354,137030,2,0,P|178:304|171:255,1,99.0000030212403,10|0,2:2|0:0,0:0:0:0:
315,46,137355,6,0,P|362:35|406:56,1,99.0000030212403,2|0,1:2|0:0,0:0:0:0:
512,308,137679,2,0,P|461:301|414:296,1,99.0000030212403,10|2,2:2|2:2,0:0:0:0:
413,295,137922,1,2,0:0:0:0:
413,295,138003,1,2,1:2:0:0:
263,196,138166,1,0,0:0:0:0:
356,125,138328,2,0,P|349:176|336:279,1,148.50000453186,10|0,2:2|0:0,0:0:0:0:
333,307,138652,5,2,1:2:0:0:
188,205,138814,1,0,0:0:0:0:
288,62,138976,1,8,2:2:0:0:
429,161,139138,5,2,2:2:0:0:
429,161,139220,1,2,0:0:0:0:
429,161,139301,1,2,1:2:0:0:
270,239,139463,1,2,2:2:0:0:
190,84,139625,1,10,2:2:0:0:
349,9,139787,5,0,3:3:0:0:
349,9,139868,1,0,3:3:0:0:
349,9,139949,2,0,L|397:19,1,49.5000015106202,0|0,1:1|0:0,0:0:0:0:
306,157,140111,2,0,L|258:147,1,49.5000015106202,0|0,1:1|0:0,0:0:0:0:
418,112,140274,6,0,L|428:160,1,49.5000015106202,12|0,2:2|0:0,0:0:0:0:
280,287,140436,2,0,L|270:239,1,49.5000015106202,0|8,3:3|2:2,0:0:0:0:
221,6,140598,5,0,1:1:0:0:
171,0,140679,1,0,3:3:0:0:
129,23,140760,1,8,2:2:0:0:
108,67,140841,1,8,2:2:0:0:
95,114,140922,1,10,2:2:0:0:
57,144,141003,1,8,2:2:0:0:
9,147,141084,2,0,L|3:86,1,49.5000015106202,10|8,2:2|2:2,0:0:0:0:
41,273,141247,6,0,P|92:266|139:261,1,99.0000030212403,4|2,1:2|2:2,0:0:0:0:
358,232,141571,1,8,2:2:0:0:
190,84,141733,1,2,3:2:0:0:
190,84,141814,1,8,0:2:0:0:
190,84,141895,1,2,1:2:0:0:
375,5,142057,1,2,3:2:0:0:
249,187,142220,2,0,P|199:180|150:174,1,99.0000030212403,10|2,2:2|2:2,0:0:0:0:
401,340,142544,6,0,P|464:268|450:173,1,198.000006042481,2|8,1:2|2:2,0:0:0:0:
253,61,143030,1,0,0:0:0:0:
375,5,143193,2,0,P|368:54|364:103,1,99.0000030212403,2|0,1:2|0:0,0:0:0:0:
358,232,143517,1,8,2:2:0:0:
469,56,143679,1,0,0:0:0:0:
253,61,143841,6,0,P|203:54|154:50,1,99.0000030212403,2|0,1:2|0:0,0:0:0:0:
259,242,144166,2,0,P|308:235|357:231,1,99.0000030212403,10|2,2:2|3:2,0:0:0:0:
357,230,144409,1,8,0:2:0:0:
357,230,144490,1,2,1:2:0:0:
158,127,144652,1,0,3:3:0:0:
326,0,144814,2,0,P|349:68|323:136,1,148.50000453186,10|0,2:2|0:0,0:0:0:0:
256,174,145138,2,0,P|206:167|157:163,1,99.0000030212403,0|0,1:1|0:0,0:0:0:0:
0,151,145463,6,0,L|49:142,1,49.5000015106202,10|2,2:2|0:0,0:0:0:0:
233,17,145625,1,2,2:2:0:0:
233,17,145706,1,2,0:0:0:0:
233,17,145787,2,0,B|149:-2|149:-2|105:33|128:75,1,175.499991966248,2|0,1:2|0:0,0:0:0:0:
157,163,146111,6,0,P|150:213|145:262,1,99.0000030212403,10|10,2:2|2:2,0:0:0:0:
145,261,146355,5,8,2:2:0:0:
145,261,146436,1,4,1:2:0:0:
270,88,146598,1,2,2:2:0:0:
48,142,146760,1,8,2:2:0:0:
228,332,146922,1,2,3:2:0:0:
228,332,147003,1,8,0:2:0:0:
228,332,147084,2,0,P|233:282|239:233,1,99.0000030212403,2|2,1:2|3:2,0:0:0:0:
153,74,147409,1,10,2:2:0:0:
340,210,147571,1,2,2:2:0:0:
436,38,147733,6,0,P|341:23|269:87,1,198.000006042481,2|8,1:2|2:2,0:0:0:0:
239,233,148220,1,2,0:0:0:0:
239,233,148301,1,2,0:0:0:0:
239,233,148382,1,2,1:2:0:0:
372,117,148544,1,0,0:0:0:0:
128,0,148706,2,0,P|134:49|139:98,1,99.0000030212403,8|0,2:2|0:0,0:0:0:0:
40,354,149030,6,0,P|89:347|138:343,1,99.0000030212403,2|0,1:2|0:0,0:0:0:0:
296,141,149355,2,0,P|246:145|197:151,1,99.0000030212403,10|2,2:2|3:2,0:0:0:0:
197,151,149598,1,8,0:2:0:0:
197,151,149679,1,2,1:2:0:0:
51,252,149841,1,0,3:3:0:0:
224,378,150003,2,0,P|272:323|273:250,1,148.50000453186,10|0,2:2|0:0,0:0:0:0:
195,184,150328,2,0,P|188:233|183:282,1,99.0000030212403,0|0,1:1|0:0,0:0:0:0:
338,358,150652,6,0,L|414:345,1,72,14|2,2:2|3:2,0:0:0:0:
483,383,150895,5,8,3:2:0:0:
488,357,150976,1,6,1:2:0:0:
491,330,151057,1,8,0:2:0:0:
495,303,151138,2,0,L|486:254,1,49.5000015106202,8|8,3:2|2:2,0:0:0:0:
512,168,151301,2,0,P|463:173|414:180,1,99.0000030212403,2|10,1:2|2:2,0:0:0:0:
413,180,151544,5,8,2:2:0:0:
413,180,151625,1,4,1:2:0:0:
275,384,151787,1,2,2:2:0:0:
486,254,151949,1,10,2:2:0:0:
279,110,152111,1,0,3:3:0:0:
279,110,152193,1,8,0:2:0:0:
279,110,152274,2,0,P|273:162|266:208,1,99.0000030212403,2|2,1:2|3:2,0:0:0:0:
215,321,152598,1,10,2:2:0:0:
413,180,152760,1,2,2:2:0:0:
198,62,152922,6,0,P|103:47|31:111,1,198.000006042481,2|8,1:2|2:2,0:0:0:0:
0,234,153409,1,0,3:3:0:0:
0,234,153491,1,8,2:2:0:0:
0,234,153572,2,0,P|52:227|98:221,1,99.0000030212403,2|8,1:2|2:2,0:0:0:0:
327,276,153895,5,10,2:2:0:0:
345,230,153976,1,8,2:2:0:0:
342,181,154057,1,10,2:2:0:0:
318,138,154138,1,8,2:2:0:0:
278,109,154220,6,0,P|228:114|179:121,1,99.0000030212403,4|8,1:2|2:2,0:0:0:0:
179,121,154463,1,8,2:2:0:0:
185,128,154544,2,0,L|176:177,1,49.5000015106202,2|0,3:2|0:0,0:0:0:0:
94,357,154706,2,0,L|85:308,1,49.5000015106202,10|8,2:2|2:2,0:0:0:0:
31,110,154868,1,4,1:2:0:0:
224,253,155030,1,0,3:3:0:0:
0,345,155193,1,2,3:2:0:0:
179,121,155355,5,2,3:2:0:0:
179,121,155436,1,0,3:0:0:0:
179,121,155517,2,0,P|228:127|277:134,1,99.0000030212403,4|0,1:2|0:0,0:0:0:0:
237,351,155841,2,0,P|229:301|223:252,1,99.0000030212403,10|0,2:2|0:0,0:0:0:0:
432,96,156166,1,2,1:2:0:0:
237,8,156328,1,8,2:2:0:0:
237,8,156409,1,8,2:2:0:0:
237,8,156490,1,8,2:2:0:0:
341,250,156652,2,0,L|350:201,1,49.5000015106202,0|0,3:3|3:3,0:0:0:0:
439,9,156814,6,0,P|389:15|340:22,1,99.0000030212403,4|2,1:2|2:2,0:0:0:0:
249,213,157138,1,10,2:2:0:0:
432,96,157301,1,2,3:2:0:0:
432,96,157382,1,8,0:2:0:0:
432,96,157463,1,2,1:2:0:0:
237,8,157625,1,2,3:2:0:0:
365,200,157787,2,0,P|414:192|463:186,1,99.0000030212403,10|0,2:2|0:0,0:0:0:0:
185,267,158111,6,0,P|164:223|175:175,1,99.0000030212403,2|0,1:2|0:0,0:0:0:0:
339,10,158436,2,0,P|360:54|349:102,1,99.0000030212403,10|2,2:2|2:2,0:0:0:0:
349,101,158679,1,2,0:0:0:0:
349,101,158760,1,2,1:2:0:0:
148,46,158922,1,0,0:0:0:0:
249,213,159084,2,0,P|259:139|272:66,1,148.50000453186,10|0,2:2|0:0,0:0:0:0:
280,33,159409,5,4,1:2:0:0:
386,11,159571,1,0,0:0:0:0:
457,93,159733,1,8,2:2:0:0:
432,205,159895,5,2,3:2:0:0:
432,205,159976,1,8,0:2:0:0:
432,205,160057,1,0,1:1:0:0:
280,33,160220,1,2,3:2:0:0:
488,0,160382,1,10,2:2:0:0:
308,193,160544,5,0,3:3:0:0:
308,193,160625,1,0,3:3:0:0:
308,193,160706,2,0,L|318:145,1,49.5000015106202,12|2,1:2|0:0,0:0:0:0:
482,85,160868,2,0,L|472:133,1,49.5000015106202,2|2,2:2|0:0,0:0:0:0:
435,321,161030,5,2,1:2:0:0:
410,317,161111,1,0,3:0:0:0:
385,313,161192,1,2,3:2:0:0:
361,310,161273,1,0,3:3:0:0:
336,307,161355,6,0,L|346:355,1,49.5000015106202,2|0,3:2|3:3,0:0:0:0:
194,207,161517,2,0,L|204:159,1,49.5000015106202,8|8,2:2|2:2,0:0:0:0:
356,182,161679,6,0,L|308:192,1,49.5000015106202,8|8,2:2|2:2,0:0:0:0:
165,347,161841,2,0,L|213:337,1,49.5000015106202,8|8,2:2|2:2,0:0:0:0:
453,243,162003,6,0,P|465:156|415:84,1,180,4|8,1:2|2:2,0:0:0:0:
278,14,162490,2,0,P|289:80|308:200,1,180,2|0,3:2|1:1,0:0:0:0:
354,279,162976,2,0,P|309:284|264:292,1,90,10|0,2:2|0:0,0:0:0:0:
142,373,163301,6,0,P|156:284|170:195,1,180,2|8,1:2|2:2,0:0:0:0:
133,104,163787,1,2,3:2:0:0:
133,104,163868,1,0,3:3:0:0:
133,104,163949,2,0,P|179:111|275:127,1,135,0|0,1:1|0:0,0:0:0:0:
298,113,164274,2,0,P|290:68|284:23,1,90,10|0,2:2|0:0,0:0:0:0:
512,152,164598,6,0,P|425:140|353:190,1,180,2|8,1:2|2:2,0:0:0:0:
310,360,165084,1,0,3:3:0:0:
194,275,165247,2,0,P|238:267|283:261,1,90,2|0,1:2|1:1,0:0:0:0:
435,323,165571,2,0,P|441:278|449:234,1,90,10|0,2:2|0:0,0:0:0:0:
457,74,165895,6,0,P|370:62|298:112,1,180,2|8,1:2|2:2,0:0:0:0:
219,248,166382,1,2,3:2:0:0:
219,248,166463,1,10,2:2:0:0:
219,248,166544,1,2,1:2:0:0:
113,151,166706,2,0,L|157:160,1,45,8|8,2:2|2:2,0:0:0:0:
299,195,166868,1,0,1:1:0:0:
149,351,167030,2,0,L|139:307,1,45,8|8,2:2|2:2,0:0:0:0:
16,106,167193,6,0,P|88:55|175:67,1,180,4|8,1:2|2:2,0:0:0:0:
328,17,167679,2,0,P|313:105|299:194,1,180,2|0,3:2|1:1,0:0:0:0:
339,288,168166,2,0,P|294:280|249:274,1,90,10|0,2:2|0:0,0:0:0:0:
12,374,168490,6,0,P|-2:287|53:220,1,180,2|8,1:2|2:2,0:0:0:0:
161,161,168976,1,10,2:2:0:0:
161,161,169057,1,8,2:2:0:0:
161,161,169138,2,0,P|153:205|147:250,1,90,0|0,1:1|1:1,0:0:0:0:
190,363,169463,1,10,2:2:0:0:
53,220,169625,5,8,2:2:0:0:
53,220,169706,1,8,0:2:0:0:
53,220,169787,1,14,2:2:0:0:
253,169,169949,2,0,L|245:213,1,45,0|0,3:3|3:3,0:0:0:0:
190,363,170111,1,0,3:3:0:0:
64,107,170274,1,12,2:2:0:0:
64,107,170598,1,8,2:2:0:0:
141,44,170760,1,10,2:2:0:0:
234,75,170922,1,14,2:2:0:0:
253,169,171084,5,0,1:1:0:0:
190,363,171247,6,0,L|234:354,1,45,10|0,2:2|3:3,0:0:0:0:
399,188,171409,2,0,L|355:179,1,45,2|0,3:2|3:3,0:0:0:0:
159,137,171571,2,0,L|169:183,1,45,2|0,3:2|3:3,0:0:0:0:
246,264,171733,5,10,2:2:0:0:
328,89,171896,1,10,2:2:0:0:
153,7,172058,1,10,2:2:0:0:
72,182,172220,1,10,2:2:0:0:
80,190,172544,5,0,1:1:0:0:
80,190,172625,1,0,1:1:0:0:
80,190,172706,1,8,2:2:0:0:
137,362,172949,5,8,2:2:0:0:
137,362,173030,2,0,P|181:354|203:353,3,45,0|8|8|8,0:0|2:2|2:2|2:2,0:0:0:0:
44,267,173355,1,8,2:2:0:0:
44,267,173436,2,0,P|0:259|-22:258,1,45,8|8,2:2|2:2,0:0:0:0:
282,195,173679,22,1,B|281:130|271:108|219:108|188:79|190:12|214:-16|259:-30|296:-21|315:11|315:11|319:23|330:27|343:19|343:19|374:-4|418:8|439:36|443:76|424:121|397:135|368:124|344:131|320:162,1,617.399994347534,4|0,1:2|0:0,0:0:0:0:
325,169,176030,1,8,2:2:0:0:
328,176,176111,1,0,3:3:0:0:
332,183,176193,1,0,3:3:0:0:
335,191,176274,1,0,1:1:0:0:
