osu file format v14

[General]
AudioFilename: audio.mp3
AudioLeadIn: 0
PreviewTime: 59375
Countdown: 0
SampleSet: Soft
StackLeniency: 0.8
Mode: 0
LetterboxInBreaks: 0
WidescreenStoryboard: 0

[Editor]
Bookmarks: 187312
DistanceSpacing: 0.7
BeatDivisor: 4
GridSize: 8
TimelineZoom: 3.999998

[Metadata]
Title:Esoa
TitleUnicode:エソア
Artist:momosumomosu
ArtistUnicode:ももすももす
Creator:Dailycare
Version:Love
Source:魔王学院の不適合者 Ⅱ
Tags:Japanese Rock Clammbon HeTo too pnky Morinaga ~史上最強の魔王の始祖、転生して子孫たちの学校へ通う~ Maou Gakuin no Futekigousha: Shijou Saikyou no Maou no Shiso, Tensei shite Shison-tachi no Gakkou e Kayou II
BeatmapID:4160997
BeatmapSetID:2001099

[Difficulty]
HPDrainRate:6
CircleSize:4
OverallDifficulty:9
ApproachRate:9
SliderMultiplier:1.82
SliderTickRate:1

[Events]
//Background and Video events
0,0,"213255.jpg",0,0
//Break Periods
2,102269,111469
//Storyboard Layer 0 (Background)
//Storyboard Layer 1 (Fail)
//Storyboard Layer 2 (Pass)
//Storyboard Layer 3 (Foreground)
//Storyboard Layer 4 (Overlay)
//Storyboard Sound Samples

[TimingPoints]
-597,333.333333333333,4,2,1,70,1,0
402,-400,4,2,1,70,0,0
486,-400,4,2,99,70,0,0
652,-400,4,2,99,5,0,0
736,333.333333333333,4,2,99,85,1,1
736,-86.9565217391304,4,2,99,85,0,1
819,-86.9565217391304,4,2,99,75,0,0
1069,-86.9565217391304,4,2,99,55,0,0
1236,-86.9565217391304,4,2,99,75,0,0
1569,-86.9565217391304,4,2,99,55,0,0
1736,-86.9565217391304,4,2,99,75,0,0
1902,-86.9565217391304,4,2,99,65,0,0
2069,-86.9565217391304,4,2,99,75,0,0
2402,-86.9565217391304,4,2,99,55,0,0
2569,-86.9565217391304,4,2,99,75,0,0
2902,-86.9565217391304,4,2,99,55,0,0
3069,-86.9565217391304,4,2,99,75,0,0
3152,-86.9565217391304,4,2,99,40,0,0
3236,-86.9565217391304,4,2,99,60,0,0
3319,-86.9565217391304,4,2,99,50,0,0
3402,-86.9565217391304,4,2,99,70,0,0
4569,-86.9565217391304,4,2,99,50,0,0
4736,-86.9565217391304,4,2,99,80,0,0
4902,-86.9565217391304,4,2,99,50,0,0
5402,-86.9565217391304,4,2,99,70,0,0
5569,-86.9565217391304,4,2,99,50,0,0
5736,-86.9565217391304,4,2,99,80,0,0
5902,-86.9565217391304,4,2,99,50,0,0
6069,-125,4,2,99,70,0,1
6152,-125,4,2,99,70,0,0
8069,-125,4,2,99,60,0,0
8736,-125,4,2,99,70,0,0
10652,-125,4,2,99,50,0,0
10736,-125,4,2,99,60,0,0
10902,-125,4,2,99,70,0,0
11069,-125,4,2,99,60,0,0
11402,-125,4,2,99,75,0,0
14402,-125,4,2,69,75,0,0
15236,-125,4,2,99,50,0,0
15402,-125,4,2,99,70,0,1
15486,-125,4,2,99,60,0,1
15569,-125,4,2,99,70,0,1
15819,-125,4,2,99,60,0,1
15902,-125,4,2,99,70,0,1
16069,-125,4,2,99,80,0,1
16152,-125,4,2,99,60,0,1
16236,-125,4,2,99,70,0,1
16319,-125,4,2,99,80,0,1
16569,-125,4,2,99,70,0,1
16652,-125,4,2,99,60,0,0
16735,-86.9565217391304,4,2,99,90,0,1
16902,-86.9565217391304,4,2,99,5,0,1
17069,-86.9565217391304,4,2,99,80,0,1
18652,-86.9565217391304,4,2,99,50,0,1
18736,-86.9565217391304,4,2,99,80,0,1
21319,-86.9565217391304,4,2,99,50,0,1
21402,-86.9565217391304,4,2,99,80,0,1
21902,-86.9565217391304,4,2,99,50,0,1
22069,-86.9565217391304,4,2,99,90,0,1
22236,-86.9565217391304,4,2,99,5,0,1
22402,-86.9565217391304,4,2,99,80,0,1
23986,-86.9565217391304,4,2,99,50,0,1
24069,-86.9565217391304,4,2,99,80,0,1
24569,-86.9565217391304,4,2,99,5,0,1
24736,-86.9565217391304,4,2,99,90,0,1
24902,-86.9565217391304,4,2,99,60,0,1
25069,-86.9565217391304,4,2,69,80,0,1
25319,-86.9565217391304,4,2,99,60,0,1
25402,-86.9565217391304,4,2,69,70,0,1
25569,-86.9565217391304,4,2,99,60,0,1
25736,-86.9565217391304,4,2,69,80,0,1
25902,-86.9565217391304,4,2,99,50,0,1
26069,-86.9565217391304,4,2,99,90,0,1
26236,-86.9565217391304,4,2,99,60,0,1
26319,-86.9565217391304,4,2,99,50,0,1
26402,-86.9565217391304,4,2,99,70,0,1
26652,-86.9565217391304,4,2,99,55,0,1
26736,-86.9565217391304,4,2,99,75,0,1
26902,-86.9565217391304,4,2,99,80,0,1
26986,-86.9565217391304,4,2,99,60,0,1
27069,-86.9565217391304,4,2,99,80,0,1
27319,-86.9565217391304,4,2,99,60,0,0
27402,-100,4,2,89,90,0,1
27485,-100,4,2,89,80,0,0
32486,-100,4,2,89,60,0,0
32569,-100,4,2,89,75,0,0
32652,-100,4,2,89,60,0,0
32736,-100,4,2,89,90,0,0
32902,-100,4,2,89,80,0,0
35402,-100,4,2,99,80,0,0
35569,-100,4,2,99,70,0,0
35902,-100,4,2,99,50,0,0
36069,-100,4,2,99,70,0,0
36236,-100,4,2,99,50,0,0
36402,-100,4,2,69,80,0,0
36569,-100,4,2,99,80,0,0
36652,-100,4,2,99,65,0,0
36736,-100,4,2,69,80,0,0
36902,-100,4,2,99,60,0,0
37069,-100,4,2,69,80,0,0
37236,-100,4,2,99,70,0,0
37319,-100,4,2,99,50,0,0
37402,-100,4,2,99,80,0,0
37569,-100,4,2,99,60,0,0
37736,-100,4,2,99,70,0,0
37902,-100,4,2,99,50,0,0
38069,-133.333333333333,4,2,89,60,0,0
39986,-133.333333333333,4,2,89,45,0,0
40069,-133.333333333333,4,2,89,60,0,0
40569,-133.333333333333,4,2,89,50,0,0
40652,-133.333333333333,4,2,89,40,0,0
40736,-133.333333333333,4,2,89,60,0,0
42652,-133.333333333333,4,2,89,40,0,0
42736,-133.333333333333,4,2,89,60,0,0
45236,-133.333333333333,4,2,89,50,0,0
45319,-133.333333333333,4,2,89,40,0,0
45402,-133.333333333333,4,2,89,60,0,0
45902,-133.333333333333,4,2,89,50,0,0
45986,-133.333333333333,4,2,89,40,0,0
46069,-133.333333333333,4,2,89,60,0,0
48735,-133.333333333333,4,2,89,75,0,0
49069,-133.333333333333,4,2,89,65,0,0
51402,-133.333333333333,4,2,69,65,0,0
51736,-133.333333333333,4,2,89,65,0,0
51902,-133.333333333333,4,2,89,55,0,0
51986,-133.333333333333,4,2,89,45,0,0
52069,-133.333333333333,4,2,89,65,0,0
53319,-133.333333333333,4,2,89,45,0,0
53402,-133.333333333333,4,2,89,65,0,0
53569,-133.333333333333,4,2,89,50,0,0
53736,-133.333333333333,4,2,89,65,0,0
54069,-133.333333333333,4,2,69,75,0,0
54402,-133.333333333333,4,2,89,65,0,0
56736,-133.333333333333,4,2,69,65,0,0
57069,-133.333333333333,4,2,89,65,0,0
58069,-133.333333333333,4,2,89,75,0,0
58486,-133.333333333333,4,2,89,50,0,0
58569,-133.333333333333,4,2,89,75,0,0
58902,-133.333333333333,4,2,89,55,0,0
59069,-133.333333333333,4,2,69,80,0,0
59402,-100,4,2,79,90,0,1
59485,-100,4,2,79,80,0,0
64569,-100,4,2,79,70,0,0
64652,-100,4,2,79,60,0,0
64736,-100,4,2,79,80,0,0
67069,-100,4,2,99,80,0,0
67236,-100,4,2,79,60,0,0
67319,-100,4,2,79,50,0,0
67402,-100,4,2,79,80,0,0
67736,-100,4,2,69,80,0,0
68736,-100,4,2,79,80,0,0
68902,-100,4,2,79,70,0,0
68986,-100,4,2,79,50,0,0
69069,-100,4,2,99,80,0,0
69236,-100,4,2,99,70,0,0
69402,-100,4,2,99,60,0,0
69735,-100,4,2,99,80,0,1
69819,-100,4,2,99,90,0,0
70069,-86.9565217391304,4,2,99,90,0,1
70236,-86.9565217391304,4,2,99,70,0,1
70402,-86.9565217391304,4,2,99,80,0,1
75319,-86.9565217391304,4,2,99,60,0,1
75402,-86.9565217391304,4,2,99,90,0,1
75652,-86.9565217391304,4,2,99,5,0,1
75735,-86.9565217391304,4,2,99,80,0,1
79236,-86.9565217391304,4,2,99,50,0,1
79319,-86.9565217391304,4,2,99,30,0,1
79402,-86.9565217391304,4,2,99,70,0,1
79486,-86.9565217391304,4,2,99,50,0,1
79569,-86.9565217391304,4,2,99,80,0,1
79736,-86.9565217391304,4,2,99,70,0,1
79819,-86.9565217391304,4,2,99,50,0,1
79902,-86.9565217391304,4,2,99,80,0,1
80152,-86.9565217391304,4,2,99,60,0,1
80236,-86.9565217391304,4,2,99,70,0,1
80319,-86.9565217391304,4,2,99,80,0,1
80569,-86.9565217391304,4,2,99,60,0,1
80652,-86.9565217391304,4,2,99,50,0,0
80735,-86.9565217391304,4,2,99,90,0,1
80902,-86.9565217391304,4,2,99,5,0,1
81069,-86.9565217391304,4,2,99,80,0,1
82652,-86.9565217391304,4,2,99,50,0,1
82736,-86.9565217391304,4,2,99,80,0,1
85319,-86.9565217391304,4,2,99,50,0,1
85402,-86.9565217391304,4,2,99,80,0,1
85902,-86.9565217391304,4,2,99,50,0,1
86069,-86.9565217391304,4,2,99,90,0,1
87986,-86.9565217391304,4,2,99,50,0,1
88069,-86.9565217391304,4,2,99,80,0,1
88569,-86.9565217391304,4,2,99,5,0,1
88736,-86.9565217391304,4,2,99,90,0,1
88902,-86.9565217391304,4,2,99,60,0,1
89069,-86.9565217391304,4,2,69,80,0,1
89319,-86.9565217391304,4,2,99,60,0,1
89402,-86.9565217391304,4,2,69,70,0,1
89569,-86.9565217391304,4,2,99,60,0,1
89736,-86.9565217391304,4,2,69,80,0,1
89902,-86.9565217391304,4,2,99,50,0,1
89985,-86.9565217391304,4,2,99,30,0,1
90069,-86.9565217391304,4,2,99,90,0,1
90236,-86.9565217391304,4,2,99,60,0,1
90402,-86.9565217391304,4,2,99,70,0,1
90569,-86.9565217391304,4,2,99,65,0,1
90736,-86.9565217391304,4,2,69,80,0,1
90902,-86.9565217391304,4,2,99,70,0,1
90986,-86.9565217391304,4,2,99,50,0,1
91069,-86.9565217391304,4,2,99,80,0,1
91152,-86.9565217391304,4,2,99,35,0,1
91236,-86.9565217391304,4,2,99,70,0,1
91319,-86.9565217391304,4,2,99,60,0,0
91402,-100,4,2,89,90,0,1
91485,-100,4,2,89,80,0,0
96152,-100,4,2,89,60,0,0
96236,-100,4,2,89,80,0,0
96402,-100,4,2,89,90,0,0
96569,-100,4,2,89,55,0,0
96652,-100,4,2,89,65,0,0
96736,-100,4,2,89,90,0,0
97069,-100,4,2,89,80,0,0
99402,-100,4,2,89,90,0,0
99569,-100,4,2,89,80,0,0
99652,-100,4,2,89,60,0,0
99736,-100,4,2,89,80,0,0
100652,-100,4,2,89,60,0,0
100736,-100,4,2,89,90,0,0
100902,-100,4,2,89,80,0,0
100986,-100,4,2,89,55,0,0
101069,-100,4,2,89,80,0,0
101152,-100,4,2,89,55,0,0
101236,-100,4,2,89,70,0,0
101319,-100,4,2,89,60,0,0
101402,-100,4,2,89,80,0,0
101652,-100,4,2,89,60,0,0
101736,-100,4,2,89,80,0,0
101902,-100,4,2,89,70,0,0
112069,-100,4,2,89,85,0,0
112152,-100,4,2,89,70,0,0
112236,-100,4,2,89,60,0,0
112402,-100,4,2,89,80,0,0
112486,-100,4,2,89,70,0,0
112652,-100,4,2,89,60,0,0
112735,-100,4,2,79,80,0,1
112819,-100,4,2,79,80,0,0
120402,-100,4,2,99,80,0,0
120569,-100,4,2,79,80,0,0
121069,-100,4,2,69,80,0,0
121902,-100,4,2,99,65,0,0
121986,-100,4,2,99,55,0,0
122069,-100,4,2,99,80,0,0
122152,-100,4,2,99,60,0,0
122235,-100,4,2,99,50,0,0
122402,-100,4,2,99,70,0,0
122486,-100,4,2,99,60,0,0
122569,-100,4,2,99,50,0,0
122735,-100,4,2,99,80,0,0
122902,-100,4,2,99,70,0,0
123069,-100,4,2,69,90,0,1
123152,-100,4,2,99,80,0,0
123402,-86.9565217391304,4,2,99,90,0,1
123569,-86.9565217391304,4,2,99,70,0,1
123736,-86.9565217391304,4,2,99,80,0,1
128652,-86.9565217391304,4,2,99,60,0,1
128736,-86.9565217391304,4,2,99,90,0,1
128985,-86.9565217391304,4,2,99,5,0,1
129069,-86.9565217391304,4,2,99,80,0,1
133236,-86.9565217391304,4,2,99,60,0,1
133319,-86.9565217391304,4,2,99,35,0,1
133402,-86.9565217391304,4,2,99,80,0,1
133485,-86.9565217391304,4,2,99,70,0,1
133652,-86.9565217391304,4,2,99,80,0,1
133735,-86.9565217391304,4,2,99,70,0,1
133985,-86.9565217391304,4,2,99,80,0,0
134069,-86.9565217391304,4,2,99,90,0,1
134236,-86.9565217391304,4,2,99,5,0,1
134402,-86.9565217391304,4,2,99,80,0,1
135986,-86.9565217391304,4,2,99,50,0,1
136069,-86.9565217391304,4,2,99,80,0,1
138652,-86.9565217391304,4,2,99,50,0,1
138736,-86.9565217391304,4,2,99,80,0,1
139236,-86.9565217391304,4,2,99,50,0,1
139402,-86.9565217391304,4,2,99,90,0,1
139569,-86.9565217391304,4,2,99,5,0,1
139736,-86.9565217391304,4,2,99,80,0,1
141319,-86.9565217391304,4,2,99,50,0,1
141402,-86.9565217391304,4,2,99,80,0,1
141902,-86.9565217391304,4,2,99,5,0,1
142069,-86.9565217391304,4,2,99,90,0,1
142236,-86.9565217391304,4,2,99,60,0,1
142402,-86.9565217391304,4,2,69,80,0,1
142652,-86.9565217391304,4,2,99,60,0,1
142736,-86.9565217391304,4,2,69,70,0,1
142902,-86.9565217391304,4,2,99,60,0,1
143069,-86.9565217391304,4,2,69,80,0,1
143236,-86.9565217391304,4,2,99,50,0,1
143402,-86.9565217391304,4,2,99,90,0,1
143569,-86.9565217391304,4,2,99,60,0,1
143652,-86.9565217391304,4,2,99,50,0,1
143736,-86.9565217391304,4,2,99,70,0,1
143986,-86.9565217391304,4,2,99,55,0,1
144069,-86.9565217391304,4,2,99,75,0,1
144236,-86.9565217391304,4,2,99,80,0,1
144319,-86.9565217391304,4,2,99,60,0,1
144402,-86.9565217391304,4,2,99,80,0,1
144486,-86.9565217391304,4,2,99,45,0,1
144569,-86.9565217391304,4,2,99,70,0,1
144652,-86.9565217391304,4,2,99,60,0,0
144735,-86.9565217391304,4,2,89,90,0,1
144819,-86.9565217391304,4,2,89,80,0,0
144985,-86.9565217391304,4,2,89,5,0,0
145069,-86.9565217391304,4,2,89,80,0,0
146069,-86.9565217391304,4,2,8,80,0,0
146235,-86.9565217391304,4,2,89,80,0,0
146652,-86.9565217391304,4,2,8,50,0,0
146735,-86.9565217391304,4,2,8,80,0,0
146902,-86.9565217391304,4,2,89,80,0,0
146986,-86.9565217391304,4,2,8,50,0,0
147069,-86.9565217391304,4,2,89,80,0,0
147402,-86.9565217391304,4,2,8,80,0,0
147569,-86.9565217391304,4,2,89,80,0,0
148402,-86.9565217391304,4,2,8,80,0,0
148486,-86.9565217391304,4,2,8,50,0,0
148569,-86.9565217391304,4,2,89,80,0,0
148735,-86.9565217391304,4,2,8,80,0,0
148902,-86.9565217391304,4,2,89,80,0,0
149069,-86.9565217391304,4,2,8,80,0,0
149319,-86.9565217391304,4,2,89,50,0,0
149402,-86.9565217391304,4,2,89,80,0,0
149735,-86.9565217391304,4,2,8,80,0,0
149902,-86.9565217391304,4,2,89,80,0,0
150402,-86.9565217391304,4,2,8,80,0,0
150569,-86.9565217391304,4,2,89,80,0,0
150986,-86.9565217391304,4,2,8,50,0,0
151069,-86.9565217391304,4,2,8,80,0,0
151235,-86.9565217391304,4,2,89,80,0,0
151402,-86.9565217391304,4,2,8,80,0,0
151569,-86.9565217391304,4,2,89,80,0,0
151652,-86.9565217391304,4,2,8,50,0,0
151736,-86.9565217391304,4,2,89,80,0,0
152402,-86.9565217391304,4,2,8,80,0,0
152486,-86.9565217391304,4,2,8,50,0,0
152569,-86.9565217391304,4,2,8,80,0,0
152736,-86.9565217391304,4,2,89,90,0,0
152902,-86.9565217391304,4,2,89,80,0,0
153069,-86.9565217391304,4,2,69,80,0,0
153236,-86.9565217391304,4,2,89,70,0,0
153319,-86.9565217391304,4,2,89,60,0,0
153402,-86.9565217391304,4,2,69,80,0,0
153569,-86.9565217391304,4,2,89,55,0,0
153736,-86.9565217391304,4,2,69,85,0,0
153902,-86.9565217391304,4,2,89,70,0,0
154069,-86.9565217391304,4,2,69,90,0,0
154236,-86.9565217391304,4,2,89,80,0,0
154319,-86.9565217391304,4,2,89,50,0,0
154402,-86.9565217391304,4,2,89,70,0,0
154652,-86.9565217391304,4,2,89,50,0,0
154736,-86.9565217391304,4,2,89,70,0,0
155069,-86.9565217391304,4,2,89,80,0,0
155236,-86.9565217391304,4,2,89,60,0,0
155402,-133.333333333333,4,2,89,75,0,0
155735,-133.333333333333,4,2,89,65,0,0
160402,-133.333333333333,4,2,69,75,0,0
160735,-133.333333333333,4,2,89,85,0,0
161069,-133.333333333333,4,2,89,75,0,0
163069,-133.333333333333,4,2,69,85,0,0
163402,-133.333333333333,4,2,89,90,0,0
163569,-133.333333333333,4,2,89,70,0,0
163735,-133.333333333333,4,2,89,60,0,0
163902,-133.333333333333,4,2,89,70,0,0
164069,-133.333333333333,4,2,89,80,0,0
164152,-133.333333333333,4,2,89,60,0,0
164402,-133.333333333333,4,2,89,80,0,0
164486,-133.333333333333,4,2,89,60,0,0
164735,-133.333333333333,4,2,99,90,0,0
164902,-133.333333333333,4,2,99,80,0,0
165236,-133.333333333333,4,2,99,70,0,0
165402,-133.333333333333,4,2,99,80,0,0
165569,-133.333333333333,4,2,99,85,0,0
165735,-133.333333333333,4,2,99,90,0,1
165819,-133.333333333333,4,2,99,95,0,0
166069,-86.9565217391304,4,2,99,90,0,1
166236,-86.9565217391304,4,2,99,70,0,1
166402,-86.9565217391304,4,2,99,80,0,1
171319,-86.9565217391304,4,2,99,60,0,1
171402,-86.9565217391304,4,2,99,90,0,1
171652,-86.9565217391304,4,2,99,5,0,1
171735,-86.9565217391304,4,2,99,80,0,1
175236,-86.9565217391304,4,2,99,60,0,1
175319,-86.9565217391304,4,2,99,35,0,1
175402,-86.9565217391304,4,2,99,80,0,1
175485,-86.9565217391304,4,2,99,70,0,1
175569,-86.9565217391304,4,2,99,80,0,1
175819,-86.9565217391304,4,2,99,60,0,1
175986,-86.9565217391304,4,2,99,70,0,1
176069,-86.9565217391304,4,2,99,80,0,1
176319,-86.9565217391304,4,2,99,60,0,1
176569,-86.9565217391304,4,2,99,70,0,1
176652,-86.9565217391304,4,2,99,70,0,0
176735,-86.9565217391304,4,2,99,90,0,1
176902,-86.9565217391304,4,2,99,5,0,1
177069,-86.9565217391304,4,2,99,80,0,1
178652,-86.9565217391304,4,2,99,50,0,1
178736,-86.9565217391304,4,2,99,80,0,1
181319,-86.9565217391304,4,2,99,50,0,1
181402,-86.9565217391304,4,2,99,80,0,1
181902,-86.9565217391304,4,2,99,50,0,1
182069,-86.9565217391304,4,2,99,90,0,1
182236,-86.9565217391304,4,2,99,5,0,1
182402,-86.9565217391304,4,2,99,80,0,1
183986,-86.9565217391304,4,2,99,50,0,1
184069,-86.9565217391304,4,2,99,80,0,1
184736,-86.9565217391304,4,2,99,90,0,1
184902,-86.9565217391304,4,2,99,60,0,1
185069,-86.9565217391304,4,2,69,80,0,1
185319,-86.9565217391304,4,2,99,60,0,1
185402,-86.9565217391304,4,2,69,70,0,1
185569,-86.9565217391304,4,2,99,60,0,1
185736,-86.9565217391304,4,2,69,80,0,1
185902,-86.9565217391304,4,2,99,50,0,1
186069,-86.9565217391304,4,2,99,90,0,1
186236,-86.9565217391304,4,2,99,60,0,1
186402,-86.9565217391304,4,2,99,70,0,1
186569,-86.9565217391304,4,2,99,55,0,1
186735,-86.9565217391304,4,2,99,80,0,1
186985,-86.9565217391304,4,2,99,60,0,1
187235,-86.9565217391304,4,2,99,80,0,1
187319,-86.9565217391304,4,2,99,60,0,0
187402,-100,4,2,89,90,0,1
187485,-100,4,2,89,80,0,0
188319,-100,4,2,8,50,0,0
188402,-100,4,2,8,80,0,0
188569,-100,4,2,89,80,0,0
189069,-100,4,2,8,80,0,0
189235,-100,4,2,89,80,0,0
189319,-100,4,2,89,50,0,0
189402,-100,4,2,8,80,0,0
189569,-100,4,2,89,80,0,0
189735,-100,4,2,8,80,0,0
189902,-100,4,2,89,80,0,0
190319,-100,4,2,8,50,0,0
190402,-100,4,2,8,80,0,0
190569,-100,4,2,89,80,0,0
190735,-100,4,2,8,80,0,0
190902,-100,4,2,89,80,0,0
191402,-100,4,2,8,80,0,0
191569,-100,4,2,89,80,0,0
191652,-100,4,2,8,50,0,0
191736,-100,4,2,8,80,0,0
191902,-100,4,2,89,80,0,0
192486,-100,4,2,89,50,0,0
192569,-100,4,2,89,70,0,0
192652,-100,4,2,89,50,0,0
192736,-100,4,2,89,80,0,0
193069,-100,4,2,8,80,0,0
193235,-100,4,2,89,80,0,0
193735,-100,4,2,8,80,0,0
193902,-100,4,2,89,80,0,0
194319,-100,4,2,8,50,0,0
194402,-100,4,2,8,80,0,0
194569,-100,4,2,89,80,0,0
195069,-100,4,2,8,80,0,0
195152,-100,4,2,8,50,0,0
195235,-100,4,2,8,65,0,0
195402,-100,4,2,89,90,0,0
195569,-100,4,2,89,80,0,0
195736,-100,4,2,89,65,0,0
195902,-100,4,2,69,80,0,0
196069,-100,4,2,89,80,0,0
196236,-100,4,2,89,65,0,0
196402,-100,4,2,69,80,0,0
196652,-100,4,2,89,40,0,0
196736,-100,4,2,89,90,0,0
196902,-100,4,2,89,80,0,0
197069,-100,4,2,89,65,0,0
197236,-100,4,2,69,80,0,0
197402,-100,4,2,89,80,0,0
197569,-100,4,2,89,65,0,0
197736,-100,4,2,69,80,0,0
197902,-100,4,2,89,65,0,0
198402,269.662921348315,4,2,99,50,1,0
198469,-100,4,2,99,70,0,0
198538,348.33091436865,4,2,99,60,1,0
198886,331.491712707182,4,2,99,60,1,0
199217,440.366972477065,4,2,99,60,1,0
199437,333.333333333333,4,2,99,80,1,0
199520,-100,4,2,99,20,0,0
204937,-100,4,2,99,40,0,0

[Colours]
Combo1 : 248,175,154
Combo2 : 209,221,224
Combo3 : 187,210,181

[HitObjects]
289,81,402,6,0,L|296:47,1,34.125,2|0,0:0|0:0,0:0:0:0:
223,18,736,5,12,0:1:0:0:
256,192,902,1,0,3:0:0:0:
289,365,1069,1,0,3:0:0:0:
296,48,1235,5,12,0:0:0:0:
256,192,1402,1,0,3:0:0:0:
216,336,1569,1,0,3:0:0:0:
340,119,1735,5,12,0:1:0:0:
172,265,1902,1,0,3:0:0:0:
45,73,2069,5,12,0:1:0:0:
256,192,2235,1,0,3:0:0:0:
467,311,2402,1,0,3:0:0:0:
78,156,2569,5,12,0:0:0:0:
256,192,2735,1,0,3:0:0:0:
434,228,2902,1,0,3:0:0:0:
91,242,3069,6,0,L|76:299,1,52.3250009980202,8|8,0:0|0:0,0:0:0:0:
421,142,3235,2,0,L|436:85,1,52.3250009980202,8|8,0:0|0:0,0:0:0:0:
256,24,3402,5,4,3:2:0:0:
256,24,3735,5,10,0:0:0:0:
357,200,3902,1,0,3:0:0:0:
421,142,4069,1,2,0:0:0:0:
189,72,4235,5,8,0:0:0:0:
3,221,4402,1,8,0:3:0:0:
234,300,4569,1,4,0:3:0:0:
496,167,4736,5,4,3:1:0:0:
508,91,4902,1,0,0:0:0:0:
433,66,5069,1,0,0:0:0:0:
421,142,5235,1,0,0:0:0:0:
415,151,5402,5,12,0:3:0:0:
512,84,5569,1,4,0:3:0:0:
429,58,5735,1,12,0:0:0:0:
500,176,5902,1,4,0:3:0:0:
390,365,6069,5,4,3:1:0:0:
83,326,7402,5,4,3:1:0:0:
83,326,8069,1,4,0:2:0:0:
122,19,8736,5,4,3:1:0:0:
429,58,10069,5,4,3:1:0:0:
429,58,10652,1,8,0:3:0:0:
429,58,10735,1,4,0:3:0:0:
429,58,10902,1,0,3:0:0:0:
256,192,11069,5,12,3:2:0:0:
256,192,11402,6,0,L|352:208,1,72.8,4|0,3:1|0:0,0:0:0:0:
182,243,11735,2,0,L|86:259,1,72.8,0|0,3:0|0:0,0:0:0:0:
312,358,12069,2,0,B|327:323|327:323|318:279,1,72.8,0|0,3:0|0:0,0:0:0:0:
39,210,12402,2,0,B|24:245|24:245|33:289,1,72.8,0|0,3:0|0:0,0:0:0:0:
225,167,12735,5,4,3:1:0:0:
206,32,12902,1,0,0:0:0:0:
73,145,13069,5,0,3:0:0:0:
143,186,13235,1,0,0:0:0:0:
76,57,13402,5,0,3:0:0:0:
30,279,13569,1,0,0:0:0:0:
297,223,13735,5,0,3:0:0:0:
270,89,13902,1,0,0:0:0:0:
459,183,14069,5,8,0:0:0:0:
459,183,14402,1,2,0:0:0:0:
459,184,14735,1,2,0:0:0:0:
459,184,15069,1,2,0:0:0:0:
483,100,15235,1,8,0:0:0:0:
415,47,15402,5,8,3:2:0:0:
415,47,15485,1,8,0:0:0:0:
415,47,15569,1,2,0:0:0:0:
285,116,15735,5,8,3:2:0:0:
285,116,15819,1,8,0:0:0:0:
285,116,15902,1,2,0:0:0:0:
145,184,16069,5,8,3:0:0:0:
109,178,16152,1,8,0:0:0:0:
73,172,16235,1,8,0:0:0:0:
36,166,16319,1,8,0:0:0:0:
0,160,16402,1,8,3:2:0:0:
205,239,16569,5,8,0:0:0:0:
229,233,16652,1,8,0:0:0:0:
250,228,16735,2,0,B|288:179|270:99,1,104.65000199604,4|0,3:1|0:0,0:0:0:0:
79,0,17069,2,0,B|41:49|59:129,1,104.65000199604,8|2,3:2|0:1,0:0:0:0:
214,362,17402,1,0,3:0:0:0:
403,246,17569,1,2,0:1:0:0:
294,61,17735,1,8,3:2:0:0:
109,178,17902,1,2,0:1:0:0:
311,345,18069,6,0,B|361:310|442:336,1,104.65000199604,0|2,3:0|0:1,0:0:0:0:
253,137,18402,2,0,B|196:200|82:172,1,156.975002994061,8|0,3:2|0:0,0:0:0:0:
93,171,18735,1,0,3:0:0:0:
250,253,18902,1,2,0:1:0:0:
407,335,19069,1,8,3:2:0:0:
250,253,19235,6,0,B|202:288|200:369,1,104.65000199604,2|0,0:1|3:0,0:0:0:0:
115,384,19569,1,2,0:1:0:0:
486,205,19735,6,0,B|490:206|542:101|461:-13,1,209.300003992081,8|0,3:2|3:0,0:0:0:0:
307,197,20235,1,2,0:1:0:0:
280,118,20402,1,8,3:2:0:0:
476,285,20569,1,2,0:1:0:0:
201,84,20735,6,0,B|144:72|81:114,1,104.65000199604,0|2,3:0|0:1,0:0:0:0:
327,347,21069,2,0,B|421:364|483:288,1,156.975002994061,8|0,3:2|0:0,0:0:0:0:
475,284,21402,1,0,3:0:0:0:
327,347,21569,1,2,0:1:0:0:
408,384,21735,1,8,3:2:0:0:
350,153,21902,1,2,0:1:0:0:
124,198,22069,6,0,B|83:152|106:80,1,104.65000199604,4|0,3:1|0:0,0:0:0:0:
395,0,22402,2,0,B|436:46|413:118,1,104.65000199604,8|2,3:2|0:1,0:0:0:0:
206,233,22735,1,0,3:0:0:0:
27,142,22902,1,2,0:1:0:0:
101,101,23069,1,8,3:2:0:0:
283,196,23235,6,0,B|337:228|398:200,1,104.65000199604,2|0,0:1|3:0,0:0:0:0:
464,174,23569,1,2,0:1:0:0:
225,0,23735,2,0,B|133:6|103:90,1,156.975002994061,8|0,3:2|0:0,0:0:0:0:
101,101,24069,1,0,3:0:0:0:
206,233,24235,1,2,0:1:0:0:
312,368,24402,2,0,B|317:310|263:258,1,104.65000199604,12|0,3:2|0:0,0:0:0:0:
125,207,24735,5,4,3:1:0:0:
17,287,24902,1,8,0:0:0:0:
171,355,25069,1,10,3:2:0:0:
348,125,25235,5,0,0:0:0:0:
348,125,25319,1,8,0:0:0:0:
348,125,25402,1,2,3:2:0:0:
502,193,25569,1,8,0:0:0:0:
394,273,25736,1,10,3:2:0:0:
235,199,25902,5,8,0:0:0:0:
90,319,26069,1,4,3:1:0:0:
257,384,26235,5,8,0:0:0:0:
257,384,26319,1,8,0:0:0:0:
257,384,26402,1,0,3:0:0:0:
430,207,26569,5,8,0:0:0:0:
430,207,26653,1,8,0:0:0:0:
430,207,26736,1,4,3:0:0:0:
82,177,26902,5,8,0:0:0:0:
82,177,26986,1,8,0:0:0:0:
82,177,27069,1,0,3:0:0:0:
241,22,27235,5,8,0:0:0:0:
241,22,27319,1,8,0:0:0:0:
241,22,27402,1,4,3:1:0:0:
328,62,27569,1,0,0:0:0:0:
424,43,27735,1,8,3:2:0:0:
504,94,27902,1,2,0:1:0:0:
424,43,28069,5,0,3:0:0:0:
504,94,28235,1,2,0:1:0:0:
388,228,28402,1,8,3:2:0:0:
289,160,28569,1,2,0:1:0:0:
141,244,28735,5,0,3:0:0:0:
129,336,28902,1,2,0:1:0:0:
221,349,29068,1,8,3:2:0:0:
234,256,29235,1,2,0:1:0:0:
133,237,29402,5,0,3:0:0:0:
118,338,29569,1,2,0:1:0:0:
242,252,29735,1,8,3:2:0:0:
225,355,29902,1,2,0:1:0:0:
97,141,30069,5,0,3:0:0:0:
0,155,30235,1,2,0:1:0:0:
175,162,30402,1,8,3:2:0:0:
292,145,30569,1,2,0:1:0:0:
160,36,30735,5,0,3:0:0:0:
136,153,30902,1,2,0:1:0:0:
136,153,30986,1,0,0:0:0:0:
136,153,31069,1,8,3:2:0:0:
106,261,31236,2,0,L|131:376,1,91,2|0,0:1|3:0,0:0:0:0:
323,362,31569,5,2,0:1:0:0:
415,277,31735,1,8,3:2:0:0:
511,329,31902,1,2,0:1:0:0:
411,384,32069,5,0,3:0:0:0:
233,301,32235,1,2,0:1:0:0:
389,197,32402,1,8,3:2:0:0:
401,166,32485,1,8,0:0:0:0:
386,133,32569,1,8,0:0:0:0:
394,103,32652,1,8,0:0:0:0:
384,70,32735,1,4,3:2:0:0:
465,40,32902,5,2,0:1:0:0:
465,40,32985,1,0,0:0:0:0:
465,40,33069,1,8,3:2:0:0:
306,99,33235,1,2,0:1:0:0:
128,165,33402,1,0,3:0:0:0:
78,326,33569,1,2,0:1:0:0:
251,381,33735,1,8,3:2:0:0:
293,211,33902,1,2,0:1:0:0:
61,101,34069,5,0,3:0:0:0:
130,252,34235,1,2,0:1:0:0:
245,140,34402,1,8,3:2:0:0:
130,252,34569,1,2,0:1:0:0:
65,105,34735,1,0,3:0:0:0:
187,9,34902,5,2,0:1:0:0:
187,9,34985,1,0,0:0:0:0:
187,9,35069,1,8,3:2:0:0:
260,55,35235,1,2,0:1:0:0:
13,43,35402,6,0,L|116:34,1,91,4|0,3:1|0:0,0:0:0:0:
331,8,35735,1,8,0:3:0:0:
354,235,35902,1,8,0:0:0:0:
328,88,36069,1,8,3:2:0:0:
345,313,36235,1,8,0:3:0:0:
331,8,36402,1,2,3:2:0:0:
354,235,36569,5,0,3:0:0:0:
354,235,36652,1,8,0:3:0:0:
354,235,36735,1,2,3:2:0:0:
217,211,36902,1,8,0:0:0:0:
470,163,37069,1,2,3:2:0:0:
352,349,37235,1,8,0:0:0:0:
318,343,37319,1,8,0:0:0:0:
282,336,37402,1,8,3:2:0:0:
40,152,37569,5,8,0:3:0:0:
172,135,37735,1,8,3:0:0:0:
303,122,37902,1,4,0:3:0:0:
390,199,38069,6,0,B|379:129|379:129|404:39,2,136.500005207062,4|10|2,3:1|3:2|3:2,0:0:0:0:
470,163,38902,1,0,3:0:0:0:
470,163,39235,1,8,0:0:0:0:
293,201,39402,5,2,0:0:0:0:
314,272,39569,1,0,3:0:0:0:
338,344,39735,1,10,3:2:0:0:
410,308,39985,5,10,0:0:0:0:
410,308,40069,1,2,3:2:0:0:
383,230,40235,1,0,3:0:0:0:
198,164,40403,5,10,3:2:0:0:
225,242,40569,1,8,0:0:0:0:
225,242,40652,1,8,0:0:0:0:
225,242,40736,2,0,B|160:257|160:257|77:224,1,136.500005207062,2|10,3:1|3:2,0:0:0:0:
36,41,41235,1,0,0:0:0:0:
114,72,41402,1,2,3:2:0:0:
21,203,41569,2,0,L|6:291,1,68.250002603531,0|2,3:0|0:0,0:0:0:0:
65,134,41902,5,8,0:0:0:0:
105,342,42069,1,2,0:0:0:0:
175,314,42235,1,0,3:0:0:0:
36,374,42402,1,10,3:2:0:0:
175,314,42569,2,0,L|184:266,1,34.1250013017655,0|2,0:0|0:0,0:0:0:0:
327,237,42735,6,0,L|309:327,1,68.250002603531,2|2,3:2|0:0,0:0:0:0:
220,180,43069,1,8,3:2:0:0:
220,180,43402,6,0,B|153:168|153:168|80:199,2,136.500005207062,2|10|2,3:1|3:2|3:2,0:0:0:0:
274,126,44235,1,0,3:0:0:0:
274,126,44569,1,8,0:0:0:0:
440,279,44735,5,2,0:0:0:0:
361,264,44902,1,0,3:0:0:0:
284,247,45069,1,10,3:2:0:0:
194,98,45235,5,2,0:0:0:0:
194,98,45319,1,10,0:0:0:0:
194,98,45402,1,2,3:2:0:0:
333,44,45569,1,0,3:0:0:0:
378,182,45735,1,10,3:2:0:0:
205,281,45902,5,8,0:0:0:0:
205,281,45985,1,8,0:0:0:0:
205,281,46069,2,0,B|44:249,1,136.500005207062,2|10,3:1|3:2,0:0:0:0:
233,357,46569,1,0,0:0:0:0:
304,315,46736,1,2,3:2:0:0:
266,174,46902,2,0,L|279:272,1,68.250002603531,0|2,3:0|0:0,0:0:0:0:
416,384,47235,5,8,0:0:0:0:
439,236,47402,1,0,0:0:0:0:
464,85,47569,1,0,3:0:0:0:
474,9,47735,1,10,3:2:0:0:
451,160,47902,5,0,0:0:0:0:
430,312,48069,5,2,3:2:0:0:
430,312,48235,1,0,3:0:0:0:
320,103,48402,6,0,B|353:91|353:91|409:103,1,68.250002603531,12|0,3:2|0:0,0:0:0:0:
290,174,48735,6,0,L|268:325,1,136.500005207062,4|10,3:1|3:2,0:0:0:0:
209,367,49235,1,0,0:0:0:0:
25,331,49402,1,2,3:2:0:0:
136,296,49569,1,0,3:0:0:0:
99,363,49735,1,2,0:0:0:0:
22,185,49902,1,8,0:0:0:0:
164,53,50069,5,2,0:2:0:0:
196,125,50235,1,0,3:0:0:0:
236,194,50402,1,10,3:2:0:0:
116,116,50569,1,0,0:0:0:0:
227,7,50735,2,0,B|264:13|264:13|314:2,1,68.250002603531,2|0,3:2|3:0,0:0:0:0:
367,21,51069,1,10,3:2:0:0:
150,23,51235,1,0,0:0:0:0:
350,106,51402,6,0,B|416:85|416:85|503:110,1,136.500005207062,2|10,3:2|3:2,0:0:0:0:
503,288,51902,1,2,0:0:0:0:
503,288,51985,1,2,0:0:0:0:
503,288,52069,1,2,3:2:0:0:
341,284,52235,1,0,3:0:0:0:
399,224,52402,1,2,0:0:0:0:
445,347,52569,1,8,0:0:0:0:
273,381,52735,6,0,L|267:299,1,68.250002603531,2|0,0:0|3:0,0:0:0:0:
244,163,53069,1,10,3:2:0:0:
229,12,53235,1,2,0:0:0:0:
229,12,53319,1,2,0:0:0:0:
229,12,53402,1,0,3:0:0:0:
249,166,53569,1,2,0:0:0:0:
63,260,53735,1,10,3:2:0:0:
63,260,54069,6,0,B|36:198|36:198|52:112,1,136.500005207062,2|10,3:2|3:2,0:0:0:0:
13,64,54569,1,0,0:0:0:0:
189,115,54735,1,2,3:2:0:0:
117,181,54902,1,0,3:0:0:0:
89,3,55069,1,2,0:0:0:0:
175,29,55235,1,8,0:0:0:0:
313,103,55402,5,2,0:0:0:0:
453,61,55569,1,0,3:0:0:0:
370,34,55735,1,10,3:2:0:0:
260,169,55902,1,0,0:0:0:0:
426,221,56069,1,2,3:2:0:0:
392,130,56235,1,0,3:0:0:0:
294,254,56402,1,10,3:2:0:0:
463,322,56569,1,0,0:0:0:0:
506,252,56735,6,0,B|447:218|447:218|370:234,1,136.500005207062,2|10,3:2|3:2,0:0:0:0:
254,340,57235,1,0,0:0:0:0:
139,305,57402,1,2,3:2:0:0:
254,340,57569,2,0,L|238:248,1,68.250002603531,0|2,3:0|0:0,0:0:0:0:
227,156,57902,1,8,0:0:0:0:
147,314,58069,5,2,3:1:0:0:
147,314,58402,1,8,0:3:0:0:
105,322,58486,1,8,0:3:0:0:
67,332,58569,1,4,0:3:0:0:
15,263,58735,1,8,0:0:0:0:
204,381,58902,1,0,3:0:0:0:
15,263,59069,1,10,3:2:0:0:
15,263,59402,5,14,3:1:0:0:
166,245,59569,1,0,0:0:0:0:
320,227,59735,1,10,3:2:0:0:
474,208,59902,1,2,0:1:0:0:
289,305,60069,5,0,0:0:0:0:
347,151,60235,1,2,3:1:0:0:
438,278,60402,1,10,3:2:0:0:
201,175,60569,1,0,0:0:0:0:
376,75,60735,5,2,3:1:0:0:
320,227,60902,1,0,3:0:0:0:
347,151,61069,1,10,3:2:0:0:
289,305,61235,1,2,0:1:0:0:
347,151,61402,5,2,0:1:0:0:
289,305,61569,1,0,3:0:0:0:
376,75,61735,1,14,3:2:0:0:
320,227,61902,1,0,0:0:0:0:
205,285,62069,5,2,3:1:0:0:
116,187,62235,1,0,0:0:0:0:
171,68,62402,1,10,3:2:0:0:
302,90,62569,1,2,0:1:0:0:
320,227,62735,1,0,0:0:0:0:
118,274,62902,5,2,3:1:0:0:
90,101,63069,1,10,3:2:0:0:
245,28,63235,1,0,0:0:0:0:
358,150,63402,1,2,3:1:0:0:
240,379,63569,5,2,3:1:0:0:
131,286,63735,1,8,3:2:0:0:
0,347,63902,1,2,0:1:0:0:
322,344,64069,5,2,0:1:0:0:
401,366,64235,1,0,3:0:0:0:
470,322,64402,1,14,3:2:0:0:
243,306,64569,5,8,0:0:0:0:
243,306,64652,1,8,0:0:0:0:
243,306,64735,2,0,L|217:209,1,91,6|0,3:1|0:0,0:0:0:0:
269,78,65069,2,0,L|295:175,1,91,10|2,3:2|0:1,0:0:0:0:
118,281,65402,6,0,L|146:183,1,91,0|2,0:0|3:1,0:0:0:0:
394,103,65735,1,10,3:2:0:0:
370,191,65902,1,0,0:0:0:0:
219,218,66069,5,2,3:1:0:0:
84,50,66236,1,2,3:1:0:0:
171,13,66402,2,0,L|266:38,1,91,10|2,3:2|0:1,0:0:0:0:
385,69,66735,5,0,0:0:0:0:
500,15,66902,1,2,3:1:0:0:
309,102,67069,1,12,3:2:0:0:
241,144,67235,5,8,0:0:0:0:
241,144,67319,1,8,0:0:0:0:
241,144,67402,1,4,3:1:0:0:
156,175,67569,1,0,0:0:0:0:
232,227,67736,1,10,3:2:0:0:
79,282,67902,1,0,3:0:0:0:
168,300,68069,1,2,0:0:0:0:
100,361,68236,1,0,0:0:0:0:
124,108,68402,5,10,3:2:0:0:
124,108,68736,1,4,3:1:0:0:
168,300,68902,2,0,L|106:323,1,45.5,8|8,0:0|0:0,0:0:0:0:
360,256,69069,1,8,3:2:0:0:
316,64,69236,1,4,0:3:0:0:
396,95,69402,5,8,3:0:0:0:
328,357,69569,5,8,0:3:0:0:
67,273,69735,5,12,3:2:0:0:
123,0,69902,5,0,3:0:0:0:
276,148,70069,5,4,3:1:0:0:
306,267,70235,1,0,0:0:0:0:
194,189,70402,2,0,B|160:137|200:61,1,104.65000199604,8|2,3:2|0:1,0:0:0:0:
399,203,70735,1,0,3:0:0:0:
330,341,70902,1,2,0:1:0:0:
111,193,71069,1,8,3:2:0:0:
231,8,71235,1,2,0:1:0:0:
369,106,71402,6,0,B|412:150|394:235,1,104.65000199604,0|2,3:0|0:1,0:0:0:0:
64,381,71735,2,0,B|-6:324|25:214|25:214,1,156.975002994061,8|0,3:2|0:0,0:0:0:0:
28,218,72069,1,0,3:0:0:0:
237,157,72235,1,2,0:1:0:0:
444,92,72402,1,8,3:2:0:0:
237,157,72569,6,0,B|189:113|222:24,1,104.65000199604,2|0,0:1|3:0,0:0:0:0:
266,0,72902,1,2,0:1:0:0:
275,227,73069,6,0,B|323:271|290:360,1,104.65000199604,8|2,3:2|0:1,0:0:0:0:
246,384,73402,1,0,3:0:0:0:
199,223,73569,1,2,0:1:0:0:
374,247,73735,1,8,3:2:0:0:
334,77,73902,1,2,0:1:0:0:
99,123,74069,6,0,B|56:80|-15:96,1,104.65000199604,0|2,3:0|0:1,0:0:0:0:
155,293,74402,1,8,3:2:0:0:
256,192,74569,1,2,0:1:0:0:
425,367,74735,5,0,3:0:0:0:
232,276,74902,1,2,0:1:0:0:
39,186,75069,1,8,3:2:0:0:
334,77,75235,5,2,0:0:0:0:
334,77,75319,1,8,0:0:0:0:
334,77,75402,2,0,B|418:41|487:108,1,156.975002994061,4|0,3:1|0:0,0:0:0:0:
488,117,75735,1,8,3:2:0:0:
305,152,75902,1,2,0:1:0:0:
141,40,76069,1,0,3:0:0:0:
305,152,76235,1,2,0:1:0:0:
488,117,76402,6,0,B|519:59|463:-15,1,104.65000199604,8|2,3:2|0:1,0:0:0:0:
209,148,76735,5,0,3:0:0:0:
236,256,76902,1,2,0:1:0:0:
409,176,77069,5,8,3:2:0:0:
384,50,77235,1,2,0:1:0:0:
96,113,77402,5,0,3:0:0:0:
156,339,77569,1,2,0:1:0:0:
321,167,77735,5,8,3:2:0:0:
286,0,77902,1,2,0:1:0:0:
96,113,78069,6,0,B|35:117|-13:66,1,104.65000199604,0|2,3:0|0:1,0:0:0:0:
312,328,78402,2,0,B|373:324|421:375,1,104.65000199604,8|2,3:2|0:1,0:0:0:0:
83,249,78735,1,0,3:0:0:0:
3,290,78902,1,2,0:1:0:0:
273,190,79069,1,12,3:2:0:0:
181,61,79235,2,0,B|203:89|202:138,1,52.3250009980202,8|8,0:0|0:0,0:0:0:0:
341,254,79402,5,8,3:2:0:0:
341,254,79485,1,8,0:0:0:0:
341,254,79569,1,2,0:0:0:0:
489,148,79735,5,8,3:2:0:0:
489,148,79818,1,8,0:0:0:0:
489,148,79902,1,2,0:0:0:0:
388,0,80069,5,8,3:0:0:0:
362,25,80152,1,8,0:0:0:0:
327,38,80235,1,8,0:0:0:0:
290,43,80319,1,8,0:0:0:0:
253,40,80402,1,8,0:0:0:0:
489,148,80569,5,8,0:0:0:0:
495,172,80652,1,8,0:0:0:0:
500,193,80735,2,0,B|504:251|463:291,1,104.65000199604,4|0,3:1|0:0,0:0:0:0:
218,135,81070,2,0,B|214:77|255:37,1,104.65000199604,8|2,3:2|0:1,0:0:0:0:
418,216,81403,1,0,3:0:0:0:
250,374,81570,1,2,0:1:0:0:
41,272,81736,1,8,3:2:0:0:
218,135,81903,1,2,0:1:0:0:
436,364,82070,6,0,B|385:391|306:369,1,104.65000199604,0|2,3:0|0:1,0:0:0:0:
56,183,82403,2,0,B|109:118|209:130,1,156.975002994061,8|0,3:2|0:0,0:0:0:0:
218,135,82736,1,0,3:0:0:0:
347,256,82903,1,2,0:1:0:0:
493,376,83070,1,8,3:2:0:0:
347,256,83236,6,0,B|343:198|392:159,1,104.65000199604,2|0,0:1|3:0,0:0:0:0:
467,122,83570,1,2,0:1:0:0:
192,369,83736,6,0,B|75:384|26:259,1,209.300003992081,8|0,3:2|3:0,0:0:0:0:
347,256,84236,1,2,0:1:0:0:
270,311,84403,1,8,3:2:0:0:
62,178,84570,1,2,0:1:0:0:
348,365,84736,6,0,B|415:373|454:300,1,104.65000199604,0|2,3:0|0:1,0:0:0:0:
265,19,85070,2,0,B|196:73|208:163,1,156.975002994061,8|0,3:2|0:0,0:0:0:0:
211,178,85403,1,0,3:0:0:0:
265,19,85570,1,2,0:1:0:0:
338,62,85736,1,8,3:2:0:0:
136,25,85903,1,2,0:1:0:0:
0,234,86070,6,0,B|43:291|143:262,1,104.65000199604,4|0,3:1|0:0,0:0:0:0:
338,62,86403,2,0,B|295:5|195:34,1,104.65000199604,8|2,3:2|0:1,0:0:0:0:
24,156,86736,1,0,3:0:0:0:
209,238,86903,1,2,0:1:0:0:
250,161,87070,1,8,3:2:0:0:
0,234,87236,6,0,B|-13:296|48:351,1,104.65000199604,2|0,0:1|3:0,0:0:0:0:
109,371,87570,1,2,0:1:0:0:
441,267,87736,2,0,B|435:166|318:142,1,156.975002994061,8|0,3:2|0:0,0:0:0:0:
330,145,88070,1,0,3:0:0:0:
166,100,88236,1,2,0:1:0:0:
3,52,88403,2,0,B|55:7|140:48,1,104.65000199604,12|0,3:2|0:0,0:0:0:0:
183,193,88736,5,4,3:1:0:0:
330,145,88903,1,8,0:0:0:0:
248,0,89070,1,10,3:2:0:0:
103,190,89236,5,0,0:0:0:0:
103,190,89319,1,8,0:0:0:0:
103,190,89402,1,2,3:2:0:0:
250,238,89569,1,8,0:0:0:0:
168,383,89736,1,10,3:2:0:0:
15,168,89902,6,0,L|6:112,1,52.3250009980202,8|8,0:0|0:0,0:0:0:0:
183,193,90069,1,4,3:1:0:0:
339,218,90236,5,8,0:0:0:0:
339,218,90319,1,8,0:0:0:0:
339,218,90402,1,0,3:0:0:0:
456,3,90569,5,8,0:0:0:0:
456,3,90652,1,8,0:0:0:0:
456,3,90736,1,2,3:2:0:0:
306,297,90902,5,8,0:0:0:0:
306,297,90986,1,8,0:0:0:0:
306,297,91069,2,0,B|229:281,1,52.3250009980202,8|4,3:2|0:3,0:0:0:0:
421,80,91236,5,4,0:3:0:0:
421,80,91320,1,4,0:3:0:0:
421,80,91403,1,4,3:1:0:0:
432,179,91569,1,0,0:0:0:0:
379,258,91735,1,8,3:2:0:0:
402,348,91902,1,2,0:1:0:0:
379,258,92069,5,0,3:0:0:0:
402,348,92236,1,2,0:1:0:0:
185,253,92402,1,8,3:2:0:0:
216,128,92569,1,2,0:1:0:0:
305,309,92735,5,0,3:0:0:0:
213,327,92902,1,2,0:1:0:0:
119,348,93069,1,8,3:2:0:0:
31,168,93235,5,2,0:1:0:0:
31,168,93319,1,0,0:0:0:0:
31,168,93402,1,0,3:0:0:0:
152,260,93569,1,2,0:1:0:0:
152,260,93652,1,0,0:0:0:0:
152,260,93735,1,8,3:2:0:0:
24,366,93902,1,2,0:1:0:0:
118,172,94069,5,0,3:0:0:0:
77,95,94235,1,2,0:1:0:0:
200,194,94402,5,8,3:2:0:0:
241,271,94568,1,2,0:1:0:0:
22,204,94735,5,0,3:0:0:0:
106,172,94901,1,2,0:1:0:0:
365,134,95069,5,8,3:2:0:0:
213,204,95235,1,2,0:1:0:0:
213,204,95319,1,0,0:0:0:0:
213,204,95402,1,0,3:0:0:0:
334,44,95569,5,2,0:1:0:0:
422,3,95735,1,8,3:2:0:0:
490,73,95902,1,2,0:1:0:0:
242,64,96069,5,0,3:0:0:0:
242,64,96152,1,8,0:0:0:0:
242,64,96235,1,2,3:1:0:0:
3,38,96402,5,12,3:2:0:0:
50,186,96569,5,8,0:0:0:0:
50,186,96652,1,8,0:0:0:0:
50,186,96735,2,0,B|131:149|131:149|258:173,1,182,4|8,3:1|3:2,0:0:0:0:
293,218,97235,1,2,0:1:0:0:
262,322,97402,1,0,3:0:0:0:
124,148,97569,5,2,0:1:0:0:
169,0,97735,1,8,3:2:0:0:
124,148,97902,2,0,L|139:251,1,91,2|0,0:1|3:0,0:0:0:0:
472,361,98235,5,2,0:1:0:0:
380,225,98402,1,8,3:2:0:0:
224,282,98569,1,2,0:1:0:0:
373,370,98735,5,0,3:0:0:0:
417,299,98902,2,0,L|466:291,1,45.5,2|0,0:1|0:0,0:0:0:0:
325,153,99069,1,12,3:2:0:0:
474,34,99235,1,0,0:0:0:0:
460,191,99402,5,4,3:1:0:0:
237,136,99569,1,0,0:0:0:0:
237,136,99652,1,8,0:0:0:0:
237,136,99735,1,0,3:0:0:0:
183,361,99902,1,8,0:0:0:0:
257,301,100069,5,0,3:0:0:0:
29,244,100235,1,8,0:0:0:0:
98,12,100402,1,12,0:0:0:0:
147,109,100569,5,0,0:0:0:0:
147,109,100652,1,8,0:0:0:0:
147,109,100735,1,4,3:1:0:0:
375,183,100902,5,8,0:0:0:0:
375,183,100985,1,8,0:0:0:0:
375,183,101068,1,8,3:2:0:0:
406,176,101152,1,8,0:0:0:0:
437,169,101235,1,8,0:0:0:0:
468,162,101319,1,8,0:0:0:0:
499,156,101402,1,0,3:2:0:0:
257,151,101569,5,8,0:3:0:0:
250,182,101652,1,8,0:3:0:0:
244,214,101735,1,4,3:0:0:0:
188,324,101902,1,4,0:3:0:0:
32,166,102069,5,4,3:1:0:0:
32,166,112069,5,2,0:0:0:0:
32,166,112152,1,8,0:0:0:0:
32,166,112235,1,8,0:0:0:0:
114,154,112402,5,8,3:2:0:0:
114,154,112485,2,0,L|97:79,1,45.5,8|4,0:3|0:3,0:0:0:0:
53,51,112652,5,4,0:3:0:0:
53,51,112736,1,14,3:1:0:0:
207,70,112902,1,0,0:0:0:0:
361,88,113069,1,10,3:2:0:0:
512,106,113236,1,2,0:1:0:0:
278,127,113402,5,0,0:0:0:0:
436,45,113569,1,2,3:1:0:0:
464,173,113736,1,10,3:2:0:0:
259,6,113903,1,0,0:0:0:0:
154,254,114069,5,2,3:1:0:0:
306,198,114236,1,0,3:0:0:0:
230,225,114403,1,10,3:2:0:0:
384,167,114569,1,2,0:1:0:0:
230,225,114736,5,2,0:1:0:0:
384,167,114903,1,0,3:0:0:0:
154,254,115069,1,14,3:2:0:0:
306,198,115236,1,0,0:0:0:0:
440,244,115403,5,2,3:1:0:0:
295,276,115569,1,0,0:0:0:0:
163,173,115736,1,10,3:2:0:0:
21,205,115903,1,2,0:1:0:0:
217,309,116069,5,0,0:0:0:0:
384,167,116236,5,2,3:1:0:0:
151,93,116403,1,10,3:2:0:0:
0,281,116569,1,0,0:0:0:0:
259,383,116736,5,2,3:1:0:0:
462,249,116903,5,2,3:1:0:0:
506,113,117069,1,8,3:2:0:0:
408,8,117236,1,2,0:1:0:0:
181,228,117403,5,2,0:1:0:0:
144,301,117569,1,0,3:0:0:0:
161,379,117736,1,14,3:2:0:0:
256,192,117903,5,0,0:0:0:0:
136,131,118070,2,0,L|24:162,1,91,6|0,3:1|0:0,0:0:0:0:
376,253,118403,2,0,L|488:222,1,91,10|2,3:2|0:1,0:0:0:0:
236,22,118736,6,0,L|213:127,1,91,0|2,0:0|3:1,0:0:0:0:
276,362,119070,1,10,3:2:0:0:
301,279,119236,1,0,0:0:0:0:
138,161,119403,5,2,3:1:0:0:
200,309,119570,1,2,3:1:0:0:
376,253,119736,2,0,B|499:274,1,91,10|2,3:2|0:1,0:0:0:0:
30,267,120070,5,0,0:0:0:0:
202,205,120236,1,2,3:1:0:0:
200,309,120402,1,12,3:2:0:0:
35,162,120569,1,0,3:0:0:0:
166,27,120735,5,4,3:1:0:0:
311,112,120902,1,0,0:0:0:0:
393,139,121069,1,10,3:2:0:0:
465,93,121235,1,0,3:0:0:0:
268,44,121402,5,2,0:0:0:0:
156,137,121569,1,0,3:0:0:0:
408,228,121735,1,10,3:2:0:0:
426,18,121902,5,8,0:0:0:0:
426,18,121985,1,8,0:0:0:0:
426,18,122069,1,8,3:2:0:0:
420,58,122152,1,8,0:0:0:0:
414,98,122235,1,8,0:0:0:0:
408,138,122319,1,8,0:0:0:0:
403,178,122402,1,8,3:2:0:0:
398,218,122485,1,8,0:0:0:0:
393,258,122569,1,8,0:0:0:0:
388,298,122652,1,8,0:0:0:0:
383,338,122736,5,8,3:0:0:0:
110,319,122902,1,4,3:0:0:0:
129,46,123069,1,10,3:2:0:0:
402,65,123236,1,0,3:0:0:0:
254,229,123402,5,4,3:1:0:0:
142,177,123568,1,0,0:0:0:0:
271,100,123735,2,0,B|333:115|352:193,1,104.65000199604,8|2,3:2|0:1,0:0:0:0:
177,252,124068,1,0,3:0:0:0:
58,299,124235,1,2,0:1:0:0:
186,98,124402,1,8,3:2:0:0:
399,231,124568,1,2,0:1:0:0:
201,349,124735,6,0,B|158:299|184:224,1,104.65000199604,0|2,3:0|0:1,0:0:0:0:
450,8,125069,2,0,B|519:76|486:197,1,156.975002994061,8|0,3:2|0:0,0:0:0:0:
492,170,125402,1,0,3:0:0:0:
310,256,125568,1,2,0:1:0:0:
117,344,125735,1,8,3:2:0:0:
310,256,125902,6,0,B|376:247|432:320,1,104.65000199604,2|0,0:1|3:0,0:0:0:0:
482,255,126235,1,2,0:1:0:0:
202,128,126402,6,0,B|136:137|80:64,1,104.65000199604,8|2,3:2|0:1,0:0:0:0:
30,129,126735,1,0,3:0:0:0:
157,223,126902,1,2,0:1:0:0:
275,100,127068,1,8,3:2:0:0:
133,0,127235,1,2,0:1:0:0:
12,221,127402,6,0,B|-6:282|47:329,1,104.65000199604,0|2,3:0|0:1,0:0:0:0:
238,202,127735,1,8,3:2:0:0:
91,175,127902,1,2,0:1:0:0:
249,345,128068,5,0,3:0:0:0:
166,186,128235,1,2,0:1:0:0:
83,27,128402,1,8,3:2:0:0:
316,221,128568,5,2,0:0:0:0:
316,221,128652,1,8,0:0:0:0:
316,221,128735,2,0,B|397:261|474:193,1,156.975002994061,4|0,3:1|0:0,0:0:0:0:
470,181,129068,1,8,3:2:0:0:
287,146,129235,1,2,0:1:0:0:
123,258,129402,1,0,3:0:0:0:
287,146,129568,1,2,0:1:0:0:
470,181,129735,6,0,B|523:219|510:302,1,104.65000199604,8|2,3:2|0:1,0:0:0:0:
221,185,130068,5,0,3:0:0:0:
248,77,130235,1,2,0:1:0:0:
392,198,130402,5,8,3:2:0:0:
364,320,130568,1,2,0:1:0:0:
128,224,130735,5,0,3:0:0:0:
175,9,130902,1,2,0:1:0:0:
304,221,131068,5,8,3:2:0:0:
266,375,131235,1,2,0:1:0:0:
38,267,131402,6,0,B|14:209|55:143,1,104.65000199604,0|2,3:0|0:1,0:0:0:0:
396,96,131735,2,0,B|420:154|379:220,1,104.65000199604,8|2,3:2|0:1,0:0:0:0:
191,285,132068,1,0,3:0:0:0:
139,188,132235,1,2,0:1:0:0:
273,9,132402,1,8,3:2:0:0:
320,143,132569,1,2,0:1:0:0:
239,193,132735,5,0,3:0:0:0:
147,372,132902,1,2,0:1:0:0:
361,228,133069,1,12,3:2:0:0:
179,17,133236,2,0,B|199:42|198:87,1,52.3250009980202,8|8,0:0|0:0,0:0:0:0:
165,142,133402,5,8,3:2:0:0:
128,137,133485,1,8,0:0:0:0:
91,142,133569,1,2,0:1:0:0:
57,155,133652,1,8,0:0:0:0:
28,178,133736,1,8,3:0:0:0:
273,9,133902,5,8,0:0:0:0:
297,15,133985,1,8,0:0:0:0:
318,20,134069,2,0,B|375:21|422:-9,1,104.65000199604,4|0,3:1|0:0,0:0:0:0:
502,208,134402,2,0,B|445:207|398:237,1,104.65000199604,8|2,3:2|0:1,0:0:0:0:
211,120,134735,1,0,3:0:0:0:
8,203,134902,1,2,0:1:0:0:
135,374,135068,1,8,3:2:0:0:
337,289,135235,1,2,0:1:0:0:
129,59,135402,6,0,B|91:105|119:177,1,104.65000199604,0|2,3:0|0:1,0:0:0:0:
396,384,135735,2,0,B|468:324|430:219,1,156.975002994061,8|0,3:2|0:0,0:0:0:0:
425,221,136068,1,0,3:0:0:0:
236,171,136235,1,2,0:1:0:0:
66,260,136402,1,8,3:2:0:0:
236,171,136569,6,0,B|298:163|342:215,1,104.65000199604,2|0,0:1|3:0,0:0:0:0:
358,280,136902,1,2,0:1:0:0:
4,192,137069,6,0,B|-22:54|105:-23,1,209.300003992081,8|0,3:2|3:0,0:0:0:0:
140,290,137568,1,2,0:1:0:0:
96,208,137735,1,8,3:2:0:0:
299,338,137902,1,2,0:1:0:0:
488,165,138069,6,0,B|461:118|397:106,1,104.65000199604,0|2,3:0|0:1,0:0:0:0:
49,279,138402,2,0,B|67:370|184:384,1,156.975002994061,8|0,3:2|0:0,0:0:0:0:
179,384,138735,1,0,3:0:0:0:
49,279,138902,1,2,0:1:0:0:
0,354,139068,1,8,3:2:0:0:
225,244,139235,1,2,0:1:0:0:
8,124,139402,6,0,B|-8:66|24:25,1,104.65000199604,4|0,3:1|0:0,0:0:0:0:
316,214,139735,2,0,B|332:271|299:312,1,104.65000199604,8|2,3:2|0:1,0:0:0:0:
77,188,140068,1,0,3:0:0:0:
281,116,140235,1,2,0:1:0:0:
383,156,140402,1,8,3:2:0:0:
157,227,140569,6,0,B|153:160|206:116,1,104.65000199604,2|0,0:1|3:0,0:0:0:0:
216,44,140902,1,2,0:1:0:0:
509,226,141069,2,0,B|516:320|424:353,1,156.975002994061,8|0,3:2|0:0,0:0:0:0:
408,350,141402,1,0,3:0:0:0:
246,261,141568,1,2,0:1:0:0:
57,218,141735,2,0,B|108:252|196:217,1,104.65000199604,12|0,3:2|0:0,0:0:0:0:
305,194,142068,5,4,3:1:0:0:
170,146,142235,1,8,0:0:0:0:
97,318,142402,1,10,3:2:0:0:
254,119,142569,5,0,0:0:0:0:
254,119,142652,1,8,0:0:0:0:
254,119,142735,1,2,3:2:0:0:
389,71,142902,1,8,0:0:0:0:
462,243,143069,1,10,3:2:0:0:
192,59,143235,5,8,0:0:0:0:
329,117,143402,1,4,3:1:0:0:
473,79,143569,5,8,0:0:0:0:
473,79,143652,1,8,0:0:0:0:
473,79,143735,1,0,3:0:0:0:
112,88,143902,5,8,0:0:0:0:
112,88,143985,1,8,0:0:0:0:
112,88,144068,1,0,3:0:0:0:
284,24,144235,5,8,0:0:0:0:
284,24,144318,1,8,0:0:0:0:
284,24,144402,2,0,L|270:100,1,52.3250009980202,8|0,3:0|0:0,0:0:0:0:
318,138,144569,2,0,L|304:214,1,52.3250009980202,8|8,0:0|0:0,0:0:0:0:
171,347,144735,6,0,B|95:369|95:369|13:304,1,156.975002994061,4|0,3:1|0:0,0:0:0:0:
12,301,145069,1,8,3:2:0:0:
123,242,145235,1,2,0:1:0:0:
279,321,145402,1,0,3:0:0:0:
407,384,145569,1,2,0:1:0:0:
511,293,145735,1,8,3:2:0:0:
306,190,145902,1,2,0:1:0:0:
130,341,146069,6,0,L|16:371,1,104.65000199604,2|2,3:2|0:1,0:0:0:0:
10,127,146402,2,0,L|124:97,1,104.65000199604,8|2,3:2|0:1,0:0:0:0:
111,100,146652,1,2,0:0:0:0:
111,100,146736,1,2,3:2:0:0:
257,271,146902,1,2,0:1:0:0:
215,263,146985,1,2,0:0:0:0:
173,255,147069,1,8,3:2:0:0:
40,38,147236,1,2,0:1:0:0:
139,8,147402,5,2,3:2:0:0:
257,124,147569,1,2,0:1:0:0:
38,246,147735,1,8,3:2:0:0:
133,353,147902,2,0,B|187:362|187:362|244:336,1,104.65000199604,2|0,0:1|3:0,0:0:0:0:
381,144,148235,1,2,0:1:0:0:
503,155,148402,1,10,3:2:0:0:
503,155,148485,1,2,0:0:0:0:
503,155,148569,1,2,0:1:0:0:
415,328,148736,5,2,3:2:0:0:
258,215,148902,1,2,0:1:0:0:
326,41,149069,2,0,B|400:18|400:18|497:74,1,156.975002994061,10|0,3:2|0:0,0:0:0:0:
484,79,149402,1,0,3:0:0:0:
174,72,149569,2,0,B|122:82|122:82|75:60,1,104.65000199604,2|10,0:1|3:2,0:0:0:0:
0,114,149902,1,2,0:1:0:0:
237,3,150069,5,4,3:1:0:0:
237,3,150236,1,0,0:0:0:0:
367,162,150402,1,10,3:2:0:0:
367,162,150569,2,0,L|340:296,1,104.65000199604,2|0,0:1|3:0,0:0:0:0:
279,323,150902,1,2,0:1:0:0:
279,323,150985,1,2,0:0:0:0:
279,323,151069,1,10,3:2:0:0:
10,248,151235,1,2,0:1:0:0:
78,169,151402,5,2,3:2:0:0:
247,194,151569,1,2,0:1:0:0:
207,199,151652,1,2,0:0:0:0:
167,204,151735,1,8,3:2:0:0:
346,264,151902,2,0,L|367:162,1,104.65000199604,2|0,0:1|3:0,0:0:0:0:
475,215,152235,1,2,0:1:0:0:
247,204,152402,1,14,3:2:0:0:
207,199,152485,1,2,0:0:0:0:
167,194,152568,1,2,0:0:0:0:
0,302,152735,5,4,3:1:0:0:
144,348,152902,1,0,0:0:0:0:
340,273,153069,1,10,3:2:0:0:
498,323,153235,1,0,0:0:0:0:
498,323,153319,1,8,0:0:0:0:
498,323,153402,1,2,3:2:0:0:
280,370,153569,5,8,0:0:0:0:
214,244,153735,1,10,3:2:0:0:
219,204,153818,1,0,0:0:0:0:
224,164,153901,1,0,0:0:0:0:
75,31,154069,5,2,3:2:0:0:
6,193,154235,5,8,0:0:0:0:
6,193,154319,1,8,0:0:0:0:
6,193,154402,1,8,3:2:0:0:
141,315,154569,5,8,0:0:0:0:
141,315,154652,1,8,0:0:0:0:
141,315,154735,1,8,3:2:0:0:
300,223,154902,5,8,0:0:0:0:
242,47,155069,5,8,3:2:0:0:
227,208,155236,1,8,3:2:0:0:
208,368,155402,1,4,3:1:0:0:
231,213,155735,5,2,0:0:0:0:
202,363,155902,2,0,B|265:334|265:334|346:355,1,136.500005207062,0|0,3:0|0:0,0:0:0:0:
407,377,156402,1,2,3:2:0:0:
475,329,156569,1,0,0:0:0:0:
426,138,156735,6,0,L|406:284,1,136.500005207062,2|2,3:2|0:0,0:0:0:0:
329,248,157236,1,0,3:0:0:0:
119,237,157402,1,2,0:0:0:0:
119,237,157569,1,0,3:0:0:0:
255,216,157735,1,2,3:2:0:0:
191,274,157902,1,0,0:0:0:0:
38,230,158069,1,2,3:2:0:0:
195,279,158402,5,2,0:0:0:0:
35,225,158569,2,0,B|19:159|19:159|56:88,1,136.500005207062,0|0,3:0|0:0,0:0:0:0:
126,65,159069,1,2,3:2:0:0:
63,8,159235,1,0,0:0:0:0:
163,142,159402,5,2,3:2:0:0:
348,110,159569,2,0,B|411:136|411:136|497:110,1,136.500005207062,0|2,3:0|3:2,0:0:0:0:
231,98,160069,1,2,0:0:0:0:
282,161,160235,1,0,3:0:0:0:
297,51,160402,5,2,0:0:0:0:
216,204,160569,1,0,0:0:0:0:
307,350,160735,1,4,3:2:0:0:
214,210,161069,5,2,0:0:0:0:
310,344,161236,2,0,L|451:328,1,136.500005207062,0|0,3:0|0:0,0:0:0:0:
493,264,161735,1,2,3:2:0:0:
447,199,161902,1,0,0:0:0:0:
245,294,162069,6,0,L|104:278,1,136.500005207062,2|2,3:2|0:0,0:0:0:0:
44,226,162569,1,0,3:0:0:0:
206,204,162735,1,2,0:0:0:0:
217,372,162902,1,0,3:0:0:0:
8,306,163069,5,2,3:2:0:0:
56,47,163235,1,0,0:0:0:0:
334,260,163402,5,4,3:1:0:0:
476,161,163569,1,0,3:0:0:0:
389,7,163735,1,8,3:2:0:0:
243,110,163902,1,8,0:0:0:0:
416,288,164069,5,8,3:2:0:0:
426,285,164152,1,8,0:0:0:0:
437,282,164235,1,8,0:0:0:0:
448,279,164319,1,8,0:0:0:0:
477,309,164402,5,8,3:2:0:0:
432,300,164485,1,8,0:0:0:0:
387,292,164568,1,8,0:0:0:0:
342,284,164652,1,8,0:0:0:0:
320,305,164735,5,4,3:2:0:0:
189,336,164902,1,2,0:0:0:0:
111,222,165069,1,0,0:0:0:0:
194,115,165235,1,2,3:2:0:0:
322,153,165402,5,8,3:0:0:0:
258,373,165569,5,2,3:2:0:0:
0,283,165735,5,12,3:2:0:0:
75,0,165902,5,0,3:0:0:0:
411,162,166069,5,4,3:1:0:0:
269,229,166235,1,0,0:0:0:0:
280,62,166402,2,0,B|333:42|388:73,1,104.65000199604,8|2,3:2|0:1,0:0:0:0:
485,215,166735,1,0,3:0:0:0:
338,290,166902,1,2,0:1:0:0:
165,104,167069,1,8,3:2:0:0:
434,0,167235,1,2,0:1:0:0:
426,285,167402,6,0,B|442:342|411:392,1,104.65000199604,0|2,3:0|0:1,0:0:0:0:
51,235,167735,2,0,B|20:147|72:73,1,156.975002994061,8|0,3:2|0:0,0:0:0:0:
77,66,168069,1,0,3:0:0:0:
260,142,168235,1,2,0:1:0:0:
436,210,168402,1,8,3:2:0:0:
260,142,168569,6,0,B|199:130|174:67,1,104.65000199604,2|0,0:1|3:0,0:0:0:0:
200,0,168902,1,2,0:1:0:0:
252,242,169069,6,0,B|313:254|338:317,1,104.65000199604,8|2,3:2|0:1,0:0:0:0:
312,384,169402,1,0,3:0:0:0:
369,214,169569,1,2,0:1:0:0:
422,302,169735,1,8,3:2:0:0:
182,300,169902,1,2,0:1:0:0:
9,155,170069,6,0,B|-17:99|12:42,1,104.65000199604,0|2,3:0|0:1,0:0:0:0:
220,208,170402,1,8,3:2:0:0:
45,242,170569,1,2,0:1:0:0:
190,113,170735,5,0,3:0:0:0:
121,315,170902,1,2,0:1:0:0:
330,376,171069,1,8,3:2:0:0:
106,179,171235,5,2,0:0:0:0:
106,179,171319,1,8,0:0:0:0:
106,179,171402,2,0,B|67:122|84:46|157:12,1,156.975002994061,4|0,3:1|0:0,0:0:0:0:
144,32,171735,1,8,3:2:0:0:
305,152,171902,1,2,0:1:0:0:
497,124,172069,1,0,3:0:0:0:
305,152,172235,1,2,0:1:0:0:
144,32,172402,6,0,B|212:8|268:75,1,104.65000199604,8|2,3:2|0:1,0:0:0:0:
216,283,172735,5,0,3:0:0:0:
88,303,172902,1,2,0:1:0:0:
280,116,173069,5,8,3:2:0:0:
431,157,173235,1,2,0:1:0:0:
279,377,173402,5,0,3:0:0:0:
37,211,173569,1,2,0:1:0:0:
340,181,173735,5,8,3:2:0:0:
468,79,173902,1,2,0:1:0:0:
468,338,174069,6,0,B|412:349|360:302,1,104.65000199604,0|2,3:0|0:1,0:0:0:0:
287,31,174402,2,0,B|343:20|394:66,1,104.65000199604,8|2,3:2|0:1,0:0:0:0:
129,125,174735,1,0,3:0:0:0:
19,176,174902,1,2,0:1:0:0:
100,15,175069,1,12,3:2:0:0:
304,148,175235,2,0,B|289:172|285:190|284:210,1,52.3250009980202,8|8,0:0|0:0,0:0:0:0:
227,306,175402,5,8,3:2:0:0:
227,306,175485,1,8,0:0:0:0:
227,306,175569,1,2,0:0:0:0:
0,284,175735,5,8,3:0:0:0:
28,257,175819,1,8,0:0:0:0:
64,241,175902,1,8,0:0:0:0:
101,235,175985,1,8,0:0:0:0:
141,238,176069,1,8,3:2:0:0:
325,304,176236,5,8,0:0:0:0:
366,308,176319,1,8,0:0:0:0:
404,292,176402,1,8,3:0:0:0:
499,142,176569,5,4,3:0:0:0:
159,371,176735,6,0,B|117:332|59:337,1,104.65000199604,4|0,3:1|0:0,0:0:0:0:
245,150,177069,2,0,B|286:111|345:116,1,104.65000199604,8|2,3:2|0:1,0:0:0:0:
482,231,177402,1,0,3:0:0:0:
261,291,177569,1,2,0:1:0:0:
73,149,177735,1,8,3:2:0:0:
291,78,177902,1,2,0:1:0:0:
436,383,178069,6,0,B|399:338|419:262,1,104.65000199604,0|2,3:0|0:1,0:0:0:0:
204,2,178402,2,0,B|137:58|152:147,1,156.975002994061,8|0,3:2|0:0,0:0:0:0:
162,164,178735,1,0,3:0:0:0:
365,225,178902,1,2,0:1:0:0:
512,375,179069,1,8,3:2:0:0:
365,225,179235,6,0,B|401:175|461:174,1,104.65000199604,2|0,0:1|3:0,0:0:0:0:
510,98,179569,1,2,0:1:0:0:
196,344,179735,6,0,B|71:379|7:250,1,209.300003992081,8|0,3:2|3:0,0:0:0:0:
289,291,180235,1,2,0:1:0:0:
346,372,180402,1,8,3:2:0:0:
145,261,180569,1,2,0:1:0:0:
304,101,180735,6,0,B|334:52|318:-3,1,104.65000199604,0|2,3:0|0:1,0:0:0:0:
0,100,181069,2,0,B|-46:180|15:277,1,156.975002994061,8|0,3:2|0:0,0:0:0:0:
18,270,181402,1,0,3:0:0:0:
0,100,181569,1,2,0:1:0:0:
84,176,181735,1,8,3:2:0:0:
236,40,181902,1,2,0:1:0:0:
404,116,182069,6,0,B|456:122|505:92,1,104.65000199604,4|0,3:1|0:0,0:0:0:0:
183,152,182402,2,0,B|131:146|82:176,1,104.65000199604,8|2,3:2|0:1,0:0:0:0:
244,369,182735,1,0,3:0:0:0:
291,129,182902,1,2,0:1:0:0:
183,152,183069,1,8,3:2:0:0:
351,348,183235,6,0,B|403:342|452:372,1,104.65000199604,2|0,0:1|3:0,0:0:0:0:
512,287,183569,1,2,0:1:0:0:
178,252,183735,2,0,B|186:166|274:131,1,156.975002994061,8|0,3:2|0:0,0:0:0:0:
291,129,184069,1,0,3:0:0:0:
256,304,184235,5,2,0:1:0:0:
3,194,184402,2,0,B|58:202|88:256,1,104.65000199604,8|2,3:2|0:1,0:0:0:0:
191,370,184736,5,4,3:1:0:0:
303,230,184903,1,8,0:0:0:0:
178,145,185070,1,10,3:2:0:0:
321,370,185236,5,0,0:0:0:0:
321,370,185320,1,8,0:0:0:0:
321,370,185403,1,2,3:2:0:0:
209,230,185569,1,8,0:0:0:0:
334,145,185735,1,10,3:2:0:0:
388,313,185902,5,8,0:0:0:0:
113,201,186069,1,4,3:1:0:0:
309,62,186235,5,8,0:0:0:0:
309,62,186319,1,8,0:0:0:0:
309,62,186402,1,0,3:0:0:0:
209,230,186569,5,8,0:0:0:0:
209,230,186652,1,8,0:0:0:0:
209,230,186735,1,0,3:0:0:0:
351,382,186902,5,8,0:0:0:0:
351,382,186985,1,8,0:0:0:0:
351,382,187069,1,0,3:0:0:0:
15,328,187235,5,8,0:0:0:0:
15,328,187319,1,8,0:0:0:0:
15,328,187402,2,0,B|61:337|61:337|112:316,1,91,4|0,3:1|0:0,0:0:0:0:
187,353,187735,1,8,3:2:0:0:
329,121,187902,2,0,B|229:136,1,91,2|0,0:1|3:0,0:0:0:0:
168,92,188235,5,2,0:1:0:0:
168,92,188319,1,2,0:0:0:0:
168,92,188402,1,10,3:2:0:0:
419,138,188569,2,0,B|465:127|465:127|517:134,1,91,2|0,0:1|3:0,0:0:0:0:
350,35,188902,1,2,0:1:0:0:
227,193,189069,1,10,3:2:0:0:
431,373,189235,5,2,0:1:0:0:
431,373,189319,1,0,0:0:0:0:
431,373,189402,1,2,3:2:0:0:
512,333,189569,1,2,0:1:0:0:
413,198,189735,5,10,3:2:0:0:
267,375,189902,5,2,0:1:0:0:
74,112,190069,5,0,3:0:0:0:
204,144,190235,1,2,0:1:0:0:
204,144,190319,1,2,0:0:0:0:
204,144,190402,1,10,3:2:0:0:
82,196,190569,1,2,0:1:0:0:
0,31,190735,1,2,3:2:0:0:
261,208,190902,6,0,B|271:254|271:254|248:333,1,91,2|8,0:1|3:2,0:0:0:0:
187,371,191235,1,2,0:1:0:0:
273,94,191402,5,2,3:2:0:0:
360,118,191569,1,2,0:1:0:0:
399,110,191652,1,2,0:0:0:0:
438,102,191735,1,10,3:2:0:0:
155,196,191902,5,2,0:1:0:0:
95,120,192069,2,0,B|52:108|52:108|-10:120,1,91,0|2,3:0|0:1,0:0:0:0:
242,323,192402,6,8,L|229:262,1,45.5,8|8,3:2|0:0,0:0:0:0:
274,161,192569,2,8,L|261:100,1,45.5
309,5,192735,1,4,3:2:0:0:
512,196,192902,5,0,0:0:0:0:
344,263,193069,1,10,3:2:0:0:
179,113,193235,1,2,0:1:0:0:
0,205,193402,5,0,3:0:0:0:
85,240,193569,1,2,0:1:0:0:
269,154,193735,1,10,3:2:0:0:
479,268,193902,1,2,0:1:0:0:
142,322,194069,5,0,3:0:0:0:
18,292,194235,1,2,0:1:0:0:
18,292,194319,1,2,0:0:0:0:
18,292,194402,1,10,3:2:0:0:
227,232,194569,1,2,0:1:0:0:
358,191,194735,5,0,3:0:0:0:
71,67,194902,1,2,0:1:0:0:
127,150,195069,1,14,3:2:0:0:
127,150,195152,1,2,0:0:0:0:
127,150,195236,1,2,0:0:0:0:
306,20,195402,5,4,3:1:0:0:
457,111,195569,6,0,L|355:92,1,91,0|0,3:0|3:0,0:0:0:0:
70,232,195902,5,10,3:2:0:0:
399,313,196069,1,0,3:0:0:0:
118,376,196235,1,0,3:0:0:0:
441,236,196402,6,0,B|474:176|474:176|454:99,1,136.5,10|0,3:2|0:0,0:0:0:0:
442,92,196736,5,4,3:1:0:0:
202,42,196902,1,0,3:0:0:0:
158,277,197069,1,0,3:0:0:0:
402,319,197235,1,10,3:2:0:0:
444,9,197402,5,0,3:0:0:0:
133,94,197569,1,0,3:0:0:0:
216,383,197735,1,10,3:2:0:0:
512,292,197902,1,0,3:0:0:0:
446,329,198402,5,4,0:3:0:0:
446,329,198469,2,0,L|380:314,1,45.5,8|0,0:0|3:0,0:0:0:0:
333,279,198886,5,0,3:0:0:0:
256,304,199437,5,4,3:1:0:0:
256,192,199520,12,0,204937,3:0:0:0:
