osu file format v14

[General]
AudioFilename: audio.mp3
AudioLeadIn: 0
PreviewTime: 152818
Countdown: 0
SampleSet: Soft
StackLeniency: 0.6
Mode: 0
LetterboxInBreaks: 0
WidescreenStoryboard: 0

[Editor]
DistanceSpacing: 1
BeatDivisor: 4
GridSize: 32
TimelineZoom: 2

[Metadata]
Title:Togameru Kage
TitleUnicode:咎める翳
Artist:momori
ArtistUnicode:momori
Creator:Kalibe
Version:Sorrow
Source:
Tags:dastinia meis clauson the root of heads
BeatmapID:1811243
BeatmapSetID:866301

[Difficulty]
HPDrainRate:7
CircleSize:4
OverallDifficulty:8
ApproachRate:9
SliderMultiplier:1.8
SliderTickRate:1

[Events]
//Background and Video events
0,0,"feels.jpg",0,0
//Break Periods
2,184852,186052
2,186852,188052
2,188852,190052
//Storyboard Layer 0 (Background)
//Storyboard Layer 1 (Fail)
//Storyboard Layer 2 (Pass)
//Storyboard Layer 3 (Foreground)
//Storyboard Sound Samples

[TimingPoints]
652,333.333333333333,6,1,1,65,1,0
652,-111.111111111111,6,1,1,65,0,0
16590,-125,6,2,1,50,0,0
47090,-200,6,2,1,35,0,0
48590,-111.111111111111,6,1,1,70,0,0
80590,-111.111111111111,6,1,1,60,0,0
88590,-142.857142857143,6,2,1,40,0,0
104590,-125,6,2,1,50,0,0
119590,-200,6,2,1,35,0,0
120590,-105.263157894737,6,1,1,70,0,0
152651,-105.263157894737,6,1,1,70,0,1
167985,-105.263157894737,6,1,1,80,0,0
168651,-105.263157894737,6,1,1,70,0,1
184651,-105.263157894737,6,2,1,45,0,0
190590,-105.263157894737,6,2,1,20,0,0
192590,-100,6,1,1,75,0,0
224757,-111.111111111111,6,1,1,75,0,0

[Colours]
Combo1 : 105,190,188
Combo2 : 217,147,204

[HitObjects]
442,309,652,5,4,0:0:0:0:
511,274,819,2,0,L|489:99,2,161.999995056153,0|0|0,0:0|3:0|0:0,0:0:0:0:
398,192,1652,1,8,0:0:0:0:
398,192,1986,5,8,0:0:0:0:
270,147,2152,1,8,0:0:0:0:
234,277,2319,5,8,0:0:0:0:
322,246,2486,1,8,0:0:0:0:
365,335,2652,5,4,0:0:0:0:
301,382,2819,2,0,P|213:369|133:361,1,161.999995056153,0|0,0:0|3:0,0:0:0:0:
140,361,3486,1,0,0:0:0:0:
37,283,3652,2,0,P|24:330|8:365,1,80.9999975280763,8|0,0:0|0:0,0:0:0:0:
162,232,3986,5,8,3:0:0:0:
283,164,4152,1,2,3:0:0:0:
201,131,4319,1,8,3:0:0:0:
245,241,4486,1,2,3:0:0:0:
389,165,4652,5,4,0:0:0:0:
389,165,4819,2,0,L|361:0,2,161.999995056153,0|0|0,0:0|3:0|0:0,0:0:0:0:
439,251,5652,2,0,P|399:258|357:268,1,80.9999975280763,8|0,0:0|0:0,0:0:0:0:
217,142,5986,5,8,0:0:0:0:
351,187,6152,1,8,0:0:0:0:
267,305,6319,5,8,0:0:0:0:
157,345,6486,1,8,0:0:0:0:
102,218,6652,5,4,0:0:0:0:
162,271,6819,2,0,P|219:293|250:397,2,161.999995056153,0|0|0,0:0|3:0|0:0,0:0:0:0:
87,296,7652,2,0,L|0:319,1,80.9999975280763,8|8,0:0|3:0,0:0:0:0:
189,181,7986,1,2,3:0:0:0:
94,125,8152,1,2,3:0:0:0:
30,219,8319,5,8,0:0:0:0:
210,153,8486,1,8,0:0:0:0:
312,230,8652,5,4,0:0:0:0:
312,230,8819,2,0,B|400:222|375:189|471:179,1,161.999995056153,0|0,3:0|3:0,0:0:0:0:
464,179,9486,1,0,0:0:0:0:
398,31,9652,2,0,P|389:70|375:113,1,80.9999975280763,8|0,0:0|0:0,0:0:0:0:
430,353,9986,5,8,0:0:0:0:
343,298,10152,1,0,3:0:0:0:
290,383,10319,5,8,0:0:0:0:
444,268,10486,1,8,0:0:0:0:
324,201,10652,5,4,0:0:0:0:
247,153,10819,2,0,P|219:251|216:320,2,161.999995056153,0|0|0,0:0|3:0|0:0,0:0:0:0:
348,95,11652,1,8,0:0:0:0:
348,95,11986,5,8,3:0:0:0:
261,168,12152,1,2,3:0:0:0:
149,96,12319,1,8,3:0:0:0:
199,220,12486,1,2,3:0:0:0:
17,277,12652,5,4,0:0:0:0:
122,184,12819,2,0,P|61:184|16:93,2,161.999995056153,0|0|0,3:0|3:0|0:0,0:0:0:0:
202,321,13652,2,0,P|162:308|110:301,1,80.9999975280763,8|0,0:0|0:0,0:0:0:0:
249,144,13986,5,2,3:0:0:0:
456,290,14152,5,8,0:0:0:0:
335,214,14319,1,8,0:0:0:0:
312,364,14486,1,8,0:0:0:0:
435,109,14652,6,0,L|422:26,1,80.9999975280763,4|0,0:0|0:0,0:0:0:0:
294,90,14986,1,8,3:0:0:0:
207,64,15152,1,0,3:0:0:0:
120,101,15319,1,0,3:0:0:0:
21,73,15486,1,8,3:0:0:0:
174,171,15652,5,10,0:0:0:0:
379,251,15819,1,10,0:0:0:0:
280,376,15986,5,8,0:0:0:0:
228,239,16152,1,8,3:0:0:0:
352,160,16319,5,0,3:0:0:0:
300,281,16486,1,0,3:0:0:0:
141,345,16652,6,0,P|69:355|-1:369,1,144,4|0,0:0|0:0,0:0:0:0:
60,269,17152,2,0,P|102:234|80:134,1,144,0|0,3:0|0:0,0:0:0:0:
0,76,17652,1,8,0:0:0:0:
0,76,17986,2,0,L|120:60,1,108,2|0,0:0|0:0,0:0:0:0:
109,49,18319,2,0,P|133:56|189:66,1,72,2|0,0:0|3:0,0:0:0:0:
307,147,18652,6,0,P|280:213|266:284,1,144,2|0,3:0|0:0,0:0:0:0:
400,177,19152,2,0,P|404:116|326:66,1,144,0|0,3:0|0:0,0:0:0:0:
442,266,19652,2,0,P|484:256|536:250,1,72,8|0,0:0|0:0,0:0:0:0:
320,376,19986,2,0,P|261:365|163:360,1,144,2|4,0:0|0:3,0:0:0:0:
177,359,20486,1,0,0:0:0:0:
50,309,20652,6,0,P|81:265|177:251,1,144,0|0,3:0|0:0,0:0:0:0:
231,160,21152,2,0,P|224:109|212:-3,1,144,2|0,3:0|0:0,0:0:0:0:
140,86,21652,2,0,P|101:92|48:103,1,72,8|0,0:0|0:0,0:0:0:0:
104,168,21986,1,2,0:0:0:0:
0,237,22152,2,0,P|61:242|146:270,1,144,2|0,0:0|0:0,0:0:0:0:
235,346,22652,6,0,P|253:312|264:254,1,72,0|0,3:0|0:0,0:0:0:0:
437,305,22986,2,0,P|418:262|414:223,1,72,2|0,0:0|3:0,0:0:0:0:
356,382,23319,2,0,L|340:294,1,72,0|0,0:0|3:0,0:0:0:0:
307,133,23652,5,8,0:0:0:0:
406,199,23819,1,2,0:0:0:0:
381,129,23986,1,4,3:0:0:0:
304,207,24152,1,8,3:0:0:0:
468,139,24319,5,0,1:0:0:0:
338,60,24486,1,8,0:0:0:0:
451,20,24652,6,0,P|386:31|290:57,1,144,4|0,0:1|0:0,0:0:0:0:
214,126,25152,2,0,P|155:135|99:58,1,144,0|0,3:0|0:0,0:0:0:0:
74,202,25652,2,0,P|39:210|4:220,1,72,8|0,0:0|0:0,0:0:0:0:
197,324,25986,2,0,P|137:309|78:303,1,108,2|0,0:0|0:0,0:0:0:0:
81,296,26319,2,0,P|59:322|54:371,1,72,2|0,0:0|3:0,0:0:0:0:
234,236,26652,6,0,L|218:78,1,144,2|0,3:0|0:0,0:0:0:0:
329,11,27152,2,0,P|383:29|396:124,1,144,0|0,3:0|0:0,0:0:0:0:
466,217,27652,2,0,P|433:203|382:194,1,72,8|0,0:0|0:0,0:0:0:0:
272,347,27986,1,2,0:0:0:0:
272,347,28152,2,0,P|309:320|410:304,1,144,2|0,0:0|0:0,0:0:0:0:
257,239,28652,6,0,B|205:226|205:226|182:196|182:196|123:185,1,144,2|0,3:2|0:0,0:0:0:0:
42,119,29152,2,0,B|3:151|3:151|32:259,1,144,0|0,3:0|0:0,0:0:0:0:
138,97,29652,2,0,P|109:41|19:29,1,144,8|0,0:0|0:0,0:0:0:0:
130,186,30152,2,0,P|193:166|288:148,1,144,2|0,0:0|3:0,0:0:0:0:
434,79,30652,6,0,P|394:33|298:36,1,144,0|0,3:0|0:0,0:0:0:0:
207,205,31152,2,0,P|201:238|187:282,1,72,0|0,3:0|0:0,0:0:0:0:
295,147,31486,1,0,3:0:0:0:
432,348,31652,2,0,P|424:307|419:216,1,108,8|0,0:0|0:0,0:0:0:0:
425,217,31986,1,8,0:0:0:0:
202,308,32152,1,8,0:0:0:0:
304,371,32319,1,0,3:0:0:0:
317,252,32486,1,0,3:0:0:0:
181,330,32652,6,0,P|107:344|26:371,1,144,4|0,0:0|0:0,0:0:0:0:
5,204,33152,2,0,P|41:241|131:246,1,144,0|0,3:0|0:0,0:0:0:0:
214,171,33652,2,0,P|206:136|203:80,1,72,8|0,0:0|0:0,0:0:0:0:
117,60,33986,1,2,0:0:0:0:
249,16,34152,2,0,P|296:29|399:47,1,144,2|0,0:0|0:0,0:0:0:0:
510,130,34652,6,0,P|452:133|395:204,1,144,2|0,3:2|0:0,0:0:0:0:
329,287,35152,2,0,P|361:294|412:318,1,72,0|0,3:0|0:0,0:0:0:0:
308,176,35486,1,0,3:0:0:0:
192,243,35652,2,0,P|184:293|159:392,2,144,8|2|4,0:0|0:0|0:3,0:0:0:0:
157,175,36486,1,0,0:0:0:0:
37,272,36652,6,0,P|5:235|50:149,1,144,0|0,3:0|0:0,0:0:0:0:
0,41,37152,2,0,P|55:53|153:70,1,144,2|0,3:2|0:0,0:0:0:0:
255,140,37652,2,0,P|222:147|182:160,1,72,8|0,0:0|0:0,0:0:0:0:
285,42,37986,1,2,0:0:0:0:
362,103,38152,2,0,P|346:146|325:253,1,144,2|0,0:0|3:0,0:0:0:0:
457,360,38652,6,0,P|472:297|416:236,1,144,2|0,3:0|0:0,0:0:0:0:
297,161,39152,1,0,3:0:0:0:
396,107,39319,2,0,P|445:122|471:128,1,72,2|0,0:0|3:0,0:0:0:0:
310,255,39652,2,0,P|275:263|240:274,1,72,8|0,0:0|0:0,0:0:0:0:
134,214,39986,1,4,3:0:0:0:
308,134,40152,1,8,0:0:0:0:
198,75,40319,1,8,0:0:0:0:
198,75,40652,6,0,P|142:61|48:31,1,144,4|0,0:1|0:0,0:0:0:0:
157,185,41152,2,0,P|216:186|270:121,1,144,0|0,3:0|0:0,0:0:0:0:
63,228,41652,2,0,P|42:261|33:314,1,72,8|0,0:0|0:0,0:0:0:0:
118,370,41986,1,2,0:0:0:0:
118,370,42152,2,0,P|174:355|270:344,1,144,2|0,0:0|3:0,0:0:0:0:
394,384,42652,6,0,P|428:342|409:252,1,144,2|0,3:2|0:0,0:0:0:0:
315,153,43152,2,0,P|266:176|245:266,1,144,0|0,3:0|0:0,0:0:0:0:
419,161,43652,2,0,B|406:108|428:75|400:8,1,144,8|2,0:0|0:0,0:0:0:0:
324,75,44152,1,0,0:0:0:0:
233,12,44319,2,0,P|225:57|217:84,1,72,6|0,3:0|0:0,0:0:0:0:
68,246,44652,6,0,P|22:225|23:135,1,144,2|0,3:2|0:0,0:0:0:0:
168,232,45152,2,0,P|126:343|117:374,1,144,0|0,3:0|0:0,0:0:0:0:
276,227,45652,2,0,P|260:175|256:139,1,72,8|0,0:0|0:0,0:0:0:0:
174,256,45986,1,2,0:0:0:0:
240,351,46152,2,0,B|295:337|295:337|312:315|312:315|377:300,1,144
508,246,46652,5,4,0:0:0:0:
470,111,46986,1,2,0:0:0:0:
446,37,47152,2,0,B|291:-7|327:158|145:104,1,315,2|0,0:0|0:0,0:0:0:0:
147,93,48652,5,4,0:0:0:0:
264,146,48819,2,0,P|310:152|358:167,1,80.9999975280763,0|0,3:0|0:0,0:0:0:0:
177,262,49152,2,0,B|117:280|117:280|102:311|102:311|35:335,1,161.999995056153,2|0,0:1|0:0,0:0:0:0:
46,218,49652,2,0,B|60:178|60:178|54:126,1,80.9999975280763,8|0,0:0|0:0,0:0:0:0:
274,358,49986,2,0,B|269:319|269:319|283:279,1,80.9999975280763,0|0,3:0|0:0,0:0:0:0:
170,220,50319,1,2,3:0:0:0:
124,340,50486,1,2,3:0:0:0:
265,184,50652,5,0,0:0:0:0:
174,122,50819,2,0,B|89:102|120:68|31:44,2,161.999995056153,0|0|0,0:0|3:0|0:0,0:0:0:0:
256,58,51652,2,0,P|311:48|354:38,1,80.9999975280763,8|0,0:0|0:0,0:0:0:0:
476,177,51986,1,0,3:0:0:0:
374,238,52152,1,0,0:0:0:0:
464,11,52319,1,0,3:0:0:0:
481,38,52402,1,0,3:0:0:0:
463,58,52486,1,2,3:0:0:0:
477,85,52569,1,2,3:0:0:0:
477,85,52652,6,0,B|388:101|430:139|320:162,1,161.999995056153,2|0,0:0|0:0,0:0:0:0:
206,199,53152,2,0,P|216:159|217:110,1,80.9999975280763,2|0,0:0|3:0,0:0:0:0:
322,246,53486,1,0,0:0:0:0:
152,350,53652,2,0,P|91:361|17:384,1,121.499996292114,8|0,0:0|0:0,0:0:0:0:
24,369,53986,2,0,P|34:324|37:285,1,80.9999975280763,0|0,3:0|0:0,0:0:0:0:
142,149,54319,1,2,3:0:0:0:
42,77,54486,1,2,3:0:0:0:
6,170,54652,5,0,3:0:0:0:
136,62,54819,2,0,P|179:51|222:39,1,80.9999975280763,0|0,3:0|0:0,0:0:0:0:
341,207,55152,2,0,B|283:191|283:191|262:158|262:158|194:142,1,161.999995056153,2|0,0:0|0:0,0:0:0:0:
120,268,55652,5,8,0:0:0:0:
337,175,55819,1,8,0:0:0:0:
219,121,55986,5,8,3:0:0:0:
281,278,56152,1,0,3:0:0:0:
256,196,56319,5,0,3:0:0:0:
202,278,56486,1,2,3:0:0:0:
396,383,56652,5,4,0:0:0:0:
450,286,56819,2,0,P|445:244|442:205,1,80.9999975280763,0|0,3:0|0:0,0:0:0:0:
260,22,57152,2,0,P|212:44|205:150,1,161.999995056153,2|0,0:0|0:0,0:0:0:0:
342,72,57652,2,0,L|467:56,1,121.499996292114,8|0,0:0|0:0,0:0:0:0:
479,53,57986,2,0,P|469:101|464:137,1,80.9999975280763,0|0,3:0|0:0,0:0:0:0:
281,319,58319,1,2,3:0:0:0:
353,213,58486,1,2,3:0:0:0:
420,298,58652,5,0,3:0:0:0:
249,233,58819,2,0,P|190:242|116:325,1,161.999995056153,0|0,3:0|0:0,0:0:0:0:
0,241,59319,2,0,P|34:231|94:221,1,80.9999975280763,2|0,0:0|0:0,0:0:0:0:
352,380,59652,2,0,P|279:361|185:351,1,161.999995056153,8|0,0:0|3:0,0:0:0:0:
108,298,60152,1,0,3:0:0:0:
246,166,60319,1,0,0:0:0:0:
256,139,60402,1,0,0:0:0:0:
251,105,60486,1,0,0:0:0:0:
263,78,60569,1,0,0:0:0:0:
263,78,60652,6,0,B|173:62|206:18|120:5,1,161.999995056153,4|0,0:2|3:0,0:0:0:0:
338,238,61152,2,0,B|428:222|395:178|481:165,1,161.999995056153,8|0,0:0|3:0,0:0:0:0:
378,81,61652,2,0,B|392:44|392:44|371:-7,1,80.9999975280763,8|0,0:0|0:0,0:0:0:0:
293,154,61986,1,0,3:0:0:0:
423,228,62152,1,8,3:0:0:0:
309,359,62319,2,0,P|267:367|212:382,1,80.9999975280763,8|0,0:0|0:0,0:0:0:0:
0,240,62652,5,2,0:0:0:0:
85,182,62819,2,0,P|138:182|207:275,2,161.999995056153,0|8|0,3:0|0:0|3:0,0:0:0:0:
85,182,63569,1,0,3:0:0:0:
85,182,63652,5,8,0:0:0:0:
197,159,63819,1,8,3:0:0:0:
257,34,63986,5,8,3:0:0:0:
394,72,64152,1,0,3:0:0:0:
499,264,64319,5,10,0:0:0:0:
499,264,64652,5,4,0:0:0:0:
396,306,64819,2,0,P|370:325|330:378,1,80.9999975280763,0|0,3:0|0:0,0:0:0:0:
408,200,65152,2,0,B|327:178|359:143|258:116,1,161.999995056153,2|0,0:0|3:0,0:0:0:0:
93,264,65652,2,0,P|156:240|255:224,1,161.999995056153,8|0,0:0|0:0,0:0:0:0:
248,224,66152,1,0,3:0:0:0:
131,160,66319,1,2,0:0:0:0:
302,72,66486,1,2,0:0:0:0:
207,19,66652,6,0,P|202:58|192:109,1,80.9999975280763,0|0,3:0|0:0,0:0:0:0:
349,347,66986,1,0,3:0:0:0:
349,347,67152,2,0,P|341:289|335:180,1,161.999995056153,2|0,0:0|0:0,0:0:0:0:
243,313,67652,2,0,P|203:328|165:346,1,80.9999975280763,8|0,0:0|0:0,0:0:0:0:
148,149,67986,1,0,3:0:0:0:
248,223,68152,1,0,3:0:0:0:
72,292,68319,1,0,3:0:0:0:
61,268,68402,1,0,3:0:0:0:
67,237,68486,1,2,3:0:0:0:
56,213,68569,1,2,3:0:0:0:
56,213,68652,6,0,P|34:324|15:393,1,161.999995056153,2|0,0:0|0:0,0:0:0:0:
161,129,69152,2,0,P|153:89|149:48,1,80.9999975280763,2|0,0:0|0:0,0:0:0:0:
40,121,69486,1,0,3:0:0:0:
237,202,69652,2,0,P|290:194|346:96,2,161.999995056153,8|0|0,0:0|3:0|0:0,0:0:0:0:
160,282,70486,1,2,3:0:0:0:
374,345,70652,5,2,0:0:0:0:
262,381,70819,2,0,P|268:341|291:297,1,80.9999975280763,0|0,3:0|0:0,0:0:0:0:
477,384,71152,2,0,P|473:316|424:222,1,161.999995056153,2|0,3:0|3:0,0:0:0:0:
332,7,71652,5,8,0:0:0:0:
233,109,71819,1,0,3:0:0:0:
328,215,71986,1,8,0:0:0:0:
432,120,72152,1,8,3:0:0:0:
346,108,72319,5,8,3:0:0:0:
146,227,72486,5,8,0:0:0:0:
17,306,72652,5,4,0:0:0:0:
132,364,72819,2,0,P|177:374|242:396,1,80.9999975280763,0|0,3:0|0:0,0:0:0:0:
441,253,73152,2,0,P|398:249|312:349,1,161.999995056153,2|0,0:0|0:0,0:0:0:0:
196,216,73652,2,0,P|189:189|187:132,1,80.9999975280763,8|0,0:0|0:0,0:0:0:0:
278,22,73986,1,0,3:0:0:0:
406,98,74152,1,2,3:0:0:0:
388,20,74319,1,2,3:0:0:0:
261,101,74486,1,0,3:0:0:0:
363,178,74652,5,0,0:0:0:0:
363,178,74819,2,0,P|323:183|284:197,1,80.9999975280763,0|0,3:0|0:0,0:0:0:0:
29,44,75152,2,0,B|117:66|78:111|178:128,1,161.999995056153,2|0,3:0|0:0,0:0:0:0:
39,277,75652,2,0,B|48:238|48:238|54:175,1,80.9999975280763,8|0,0:0|0:0,0:0:0:0:
304,324,75986,2,0,B|295:285|295:285|289:222,1,80.9999975280763,2|0,0:0|0:0,0:0:0:0:
128,384,76319,1,0,0:0:0:0:
141,361,76402,1,0,0:0:0:0:
130,330,76486,1,0,0:0:0:0:
143,304,76569,1,0,0:0:0:0:
143,304,76652,6,0,P|158:230|170:135,1,161.999995056153,4|0,0:2|3:0,0:0:0:0:
332,9,77152,2,0,P|387:32|388:137,1,161.999995056153,8|0,0:0|3:0,0:0:0:0:
269,219,77652,2,0,P|231:224|180:236,1,80.9999975280763,8|0,0:0|0:0,0:0:0:0:
294,103,77986,1,0,3:0:0:0:
451,218,78152,1,8,3:0:0:0:
305,384,78319,2,0,P|291:357|292:304,1,80.9999975280763,8|0,0:0|0:0,0:0:0:0:
402,127,78652,5,2,0:0:0:0:
402,127,78819,2,0,P|441:115|487:105,1,80.9999975280763,0|0,3:0|0:0,0:0:0:0:
214,248,79152,2,0,P|174:256|135:268,1,80.9999975280763,12|0,0:2|0:0,0:0:0:0:
216,134,79486,5,0,3:0:0:0:
216,134,79569,1,0,3:0:0:0:
216,134,79652,1,8,0:0:0:0:
389,276,79819,1,8,0:0:0:0:
330,175,79986,5,8,3:0:0:0:
199,236,80152,1,0,0:0:0:0:
47,315,80319,5,10,3:0:0:0:
131,374,80486,1,0,3:0:0:0:
117,140,80652,5,4,3:1:0:0:
117,140,80819,2,0,P|56:153|-2:245,2,161.999995056153,0|0|0,0:0|3:0|0:0,0:0:0:0:
191,45,81652,2,0,P|155:30|103:19,1,80.9999975280763,8|0,0:0|0:0,0:0:0:0:
201,264,81986,1,8,0:0:0:0:
313,143,82152,1,8,0:0:0:0:
208,170,82319,1,8,0:0:0:0:
288,309,82486,1,8,0:0:0:0:
427,186,82652,5,4,0:0:0:0:
507,150,82819,2,0,P|496:222|487:322,2,161.999995056153,0|0|0,0:0|3:0|0:0,0:0:0:0:
470,34,83652,2,0,P|429:23|371:3,1,80.9999975280763,8|0,0:0|0:0,0:0:0:0:
221,143,83986,1,8,3:0:0:0:
311,96,84152,1,2,3:0:0:0:
238,72,84319,1,8,3:0:0:0:
289,169,84486,1,2,3:0:0:0:
186,276,84652,5,4,0:0:0:0:
186,276,84819,2,0,P|114:290|27:318,1,161.999995056153,0|0,3:0|0:0,0:0:0:0:
129,195,85319,2,0,P|91:185|46:167,1,80.9999975280763,2|0,0:0|3:0,0:0:0:0:
251,341,85652,2,0,P|306:350|382:372,1,121.499996292114,8|0,0:0|0:0,0:0:0:0:
383,357,85986,1,8,0:0:0:0:
468,154,86152,1,8,0:0:0:0:
349,206,86319,1,8,0:0:0:0:
451,294,86486,1,8,0:0:0:0:
373,108,86652,6,0,B|291:94|322:46|223:37,1,161.999995056153,4|8,0:0|3:0,0:0:0:0:
158,10,87152,1,2,0:0:0:0:
113,96,87319,1,0,3:0:0:0:
142,209,87486,1,2,0:0:0:0:
84,353,87652,1,12,0:0:0:0:
84,353,88652,5,2,0:0:0:0:
84,353,89652,2,0,P|140:334|218:318,1,125.999996154785,2|0,0:0|0:0,0:0:0:0:
310,244,90152,2,0,P|274:203|194:201,1,125.999996154785
112,249,90652,5,2,0:0:0:0:
112,249,90986,1,0,0:0:0:0:
33,188,91152,2,0,P|48:129|58:51,1,125.999996154785
134,1,91652,2,0,P|156:38|234:70,1,125.999996154785,2|0,0:0|0:0,0:0:0:0:
401,133,92152,2,0,P|341:146|282:172,1,125.999996154785,2|0,0:0|0:0,0:0:0:0:
193,242,92652,5,2,0:0:0:0:
193,242,92986,2,0,P|221:312|337:323,1,188.999994232178,2|0,0:0|0:0,0:0:0:0:
409,384,93652,2,0,P|422:352|428:306,1,62.9999980773926,2|0,0:0|0:0,0:0:0:0:
512,239,93986,1,2,0:0:0:0:
512,239,94152,2,0,P|491:204|506:122,1,125.999996154785,2|0,0:0|0:0,0:0:0:0:
390,165,94652,6,0,P|327:176|252:201,1,125.999996154785,2|0,0:0|0:0,0:0:0:0:
211,130,95152,1,0,0:0:0:0:
279,64,95319,1,2,0:0:0:0:
279,64,95652,2,0,P|271:30|265:-7,1,62.9999980773926,2|0,0:0|0:0,0:0:0:0:
124,116,95986,2,0,B|144:186|92:221|102:311,1,188.999994232178,2|0,0:0|0:0,0:0:0:0:
15,226,96652,5,2,0:0:0:0:
15,226,96986,2,0,L|222:200,1,188.999994232178,2|0,0:0|0:0,0:0:0:0:
290,267,97652,2,0,B|300:295|300:295|288:329,1,62.9999980773926,2|0,0:0|0:0,0:0:0:0:
394,206,97986,1,2,0:0:0:0:
394,206,98152,2,0,L|369:60,1,125.999996154785,2|0,0:0|0:0,0:0:0:0:
443,4,98652,6,0,P|487:53|462:130,1,125.999996154785,2|0,0:0|0:0,0:0:0:0:
312,258,99152,2,0,P|268:209|293:132,1,125.999996154785
358,77,99652,2,0,L|372:149,1,62.9999980773926,2|0,0:0|0:0,0:0:0:0:
480,197,99986,1,2,0:0:0:0:
480,197,100152,2,0,P|464:259|451:333,1,125.999996154785,2|0,0:0|0:0,0:0:0:0:
378,384,100652,6,0,B|316:369|336:338|251:325,1,125.999996154785,2|0,0:0|0:0,0:0:0:0:
132,279,101152,2,0,B|194:264|174:233|259:220,1,125.999996154785,2|0,0:0|0:0,0:0:0:0:
141,373,101652,2,0,P|60:361|32:310,1,125.999996154785,2|0,0:0|0:0,0:0:0:0:
167,139,102152,2,0,P|235:183|239:242,1,125.999996154785,2|0,0:0|0:0,0:0:0:0:
140,253,102652,6,0,B|107:165|174:169|131:68,1,188.999994232178,2|0,0:0|0:0,0:0:0:0:
53,13,103319,2,0,P|46:41|30:92,1,62.9999980773926,2|0,0:0|0:0,0:0:0:0:
218,38,103652,2,0,P|226:80|243:144,1,94.499997116089,2|0,0:0|0:0,0:0:0:0:
238,130,103986,5,8,0:0:0:0:
43,254,104152,1,8,0:0:0:0:
120,167,104319,5,8,3:0:0:0:
202,236,104486,1,0,3:0:0:0:
70,354,104652,6,0,P|133:335|221:324,1,144,4|0,0:0|0:0,0:0:0:0:
321,381,105152,2,0,P|363:342|342:255,1,144,0|0,3:0|0:0,0:0:0:0:
429,207,105652,2,0,P|465:219|519:230,1,72,8|0,0:0|0:0,0:0:0:0:
356,135,105986,1,2,0:0:0:0:
409,55,106152,1,0,0:0:0:0:
409,55,106319,2,0,P|445:43|499:32,1,72,2|0,0:0|3:0,0:0:0:0:
344,146,106652,6,0,B|279:131|291:106|206:92,1,144,2|0,3:2|0:0,0:0:0:0:
79,240,107152,2,0,B|144:225|132:200|217:186,1,144,2|0,3:0|0:0,0:0:0:0:
144,40,107652,2,0,P|95:60|77:157,1,144,8|2,0:0|0:0,0:0:0:0:
165,252,108152,1,0,0:0:0:0:
165,252,108319,2,0,P|149:288|135:333,1,72,4|0,3:0|0:0,0:0:0:0:
299,248,108652,6,0,P|366:228|453:214,1,144,0|0,3:0|0:0,0:0:0:0:
419,376,109152,2,0,P|373:343|378:261,1,144,0|0,3:0|0:0,0:0:0:0:
489,149,109652,2,0,P|478:116|472:71,1,72,8|0,0:0|0:0,0:0:0:0:
396,130,109986,1,2,0:0:0:0:
322,12,110152,2,0,P|316:102|299:160,1,144,2|0,0:0|0:0,0:0:0:0:
189,268,110652,6,0,P|152:222|188:141,2,144,0|2|0,3:0|0:0|0:0,0:0:0:0:
283,302,111486,1,0,3:0:0:0:
179,369,111652,2,0,P|145:374|99:387,1,72,8|0,0:0|0:0,0:0:0:0:
281,211,111986,1,4,3:0:0:0:
410,306,112152,1,8,0:0:0:0:
269,384,112319,1,8,0:0:0:0:
269,384,112652,6,0,P|277:345|286:291,1,72,4|0,0:0|0:0,0:0:0:0:
163,220,112986,1,2,0:0:0:0:
94,294,113152,2,0,P|70:248|87:158,1,144,0|0,3:0|0:0,0:0:0:0:
147,54,113652,2,0,P|109:45|69:30,1,72,8|0,0:0|0:0,0:0:0:0:
217,152,113986,1,2,0:0:0:0:
217,152,114152,2,0,P|270:142|294:50,1,144,2|2,0:0|3:0,0:0:0:0:
415,56,114652,6,0,P|443:65|490:76,1,72,2|0,0:0|0:0,0:0:0:0:
423,243,114986,2,0,P|451:233|498:223,1,72,0|2,0:0|3:2,0:0:0:0:
401,149,115319,2,0,B|377:146|377:146|358:139|358:139|330:137,1,72,0|0,0:0|3:0,0:0:0:0:
186,281,115652,2,0,B|244:240|244:240|330:258,1,144,8|0,0:0|0:0,0:0:0:0:
412,364,116152,2,0,P|372:353|316:345,1,72,0|2,0:0|3:2,0:0:0:0:
241,384,116486,1,2,0:0:0:0:
123,203,116652,6,0,P|70:232|80:324,1,144,2|0,3:0|0:0,0:0:0:0:
248,205,117152,2,0,P|234:164|225:57,1,144,2|0,3:0|0:0,0:0:0:0:
361,216,117652,2,0,P|335:264|339:303,1,72,8|0,0:0|0:0,0:0:0:0:
469,134,117986,1,2,0:0:0:0:
388,74,118152,2,0,P|340:73|268:142,1,144,2|0,0:0|0:0,0:0:0:0:
184,250,118652,5,4,0:0:0:0:
304,304,118986,1,2,0:0:0:0:
304,304,119152,1,2,0:0:0:0:
441,362,119486,1,2,0:0:0:0:
441,362,119652,2,0,L|421:173,1,180,2|0,0:0|0:0,0:0:0:0:
240,20,120652,5,4,0:0:0:0:
329,200,120819,2,0,B|325:159|325:159|351:118,1,85.4999977169037
185,208,121152,2,0,B|95:210|116:267|6:253,1,170.999995433807,2|0,0:0|0:0,0:0:0:0:
184,327,121652,2,0,P|232:317|331:383,1,170.999995433807,8|0,0:0|0:0,0:0:0:0:
418,312,122152,1,0,0:0:0:0:
301,204,122319,1,2,3:0:0:0:
460,109,122486,1,2,3:0:0:0:
412,215,122652,5,0,0:0:0:0:
326,83,122819,2,0,P|342:14|344:-14,1,85.4999977169037,0|0,3:0|0:0,0:0:0:0:
153,181,123152,2,0,P|167:241|172:353,1,170.999995433807,2|0,0:0|3:0,0:0:0:0:
79,268,123652,2,0,B|47:277|47:277|28:290|28:290|-7:299,1,85.4999977169037,8|0,0:0|0:0,0:0:0:0:
178,158,123986,1,0,0:0:0:0:
266,226,124152,1,2,3:0:0:0:
48,167,124319,1,0,3:0:0:0:
56,139,124402,1,2,3:0:0:0:
45,119,124486,1,0,3:0:0:0:
57,88,124569,1,2,3:0:0:0:
57,88,124652,6,0,B|148:73|110:35|224:11,1,170.999995433807,2|0,0:0|0:0,0:0:0:0:
460,205,125152,2,0,B|369:190|407:152|293:128,1,170.999995433807,2|0,0:0|3:0,0:0:0:0:
188,254,125652,2,0,B|165:293|165:293|178:343,1,85.4999977169037,8|0,0:0|0:0,0:0:0:0:
276,383,125986,2,0,B|299:344|299:344|286:294,1,85.4999977169037,0|0,3:0|0:0,0:0:0:0:
130,164,126319,1,2,3:0:0:0:
26,240,126486,1,2,0:0:0:0:
235,176,126652,5,4,3:2:0:0:
159,79,126819,2,0,L|63:59,1,85.4999977169037,0|0,3:0|0:0,0:0:0:0:
155,319,127152,2,0,L|65:339,1,85.4999977169037,2|0,0:0|0:0,0:0:0:0:
136,196,127486,1,0,3:0:0:0:
257,380,127652,5,8,0:0:0:0:
360,145,127819,1,8,0:0:0:0:
254,200,127986,5,8,3:0:0:0:
359,345,128152,1,0,3:0:0:0:
386,247,128319,5,8,3:0:0:0:
279,293,128486,1,2,3:0:0:0:
51,155,128652,5,4,0:0:0:0:
163,214,128819,2,0,P|205:202|244:73,1,170.999995433807,0|0,3:0|0:0,0:0:0:0:
170,21,129319,2,0,P|155:74|139:114,1,85.4999977169037,2|0,0:0|0:0,0:0:0:0:
472,372,129652,2,0,P|463:314|456:229,1,128.249996575356,8|0,0:0|0:0,0:0:0:0:
475,230,129986,2,0,P|483:192|496:137,1,85.4999977169037,0|0,3:0|0:0,0:0:0:0:
273,274,130319,1,2,3:0:0:0:
369,372,130486,1,2,3:0:0:0:
360,215,130652,5,0,0:0:0:0:
186,336,130819,2,0,B|166:299|166:299|175:247,1,85.4999977169037,0|0,3:0|0:0,0:0:0:0:
308,302,131152,2,0,B|394:316|368:371|471:367,1,170.999995433807,2|0,0:0|0:0,0:0:0:0:
265,225,131652,5,8,0:0:0:0:
173,256,131819,1,8,3:0:0:0:
107,99,131986,5,8,0:0:0:0:
217,151,132151,1,8,3:0:0:0:
38,366,132319,1,0,0:0:0:0:
49,336,132402,1,0,0:0:0:0:
35,296,132486,1,0,0:0:0:0:
47,266,132569,1,8,3:0:0:0:
47,266,132652,6,0,P|113:266|184:347,1,170.999995433807,4|0,0:2|3:0,0:0:0:0:
416,136,133152,2,0,P|350:136|279:217,1,170.999995433807,8|0,0:0|3:0,0:0:0:0:
366,333,133652,2,0,P|406:325|464:320,1,85.4999977169037,8|0,0:0|0:0,0:0:0:0:
377,225,133986,1,0,3:0:0:0:
268,319,134152,1,8,3:0:0:0:
149,138,134319,2,0,B|163:96|163:96|152:45,1,85.4999977169037,8|0,0:0|3:0,0:0:0:0:
260,191,134652,5,4,0:2:0:0:
151,262,134819,2,0,P|109:270|64:286,1,85.4999977169037,2|0,0:0|0:0,0:0:0:0:
343,112,135152,2,0,P|385:104|430:88,1,85.4999977169037,10|0,0:0|0:0,0:0:0:0:
122,44,135486,5,0,3:0:0:0:
122,44,135569,1,0,3:0:0:0:
122,44,135652,1,8,0:0:0:0:
338,149,135819,1,8,3:0:0:0:
434,223,135986,5,8,3:0:0:0:
289,282,136152,1,0,3:0:0:0:
100,384,136319,5,10,0:0:0:0:
100,384,136652,5,4,0:0:0:0:
29,263,136819,2,0,P|18:304|0:348,1,85.4999977169037,0|0,3:0|0:0,0:0:0:0:
181,226,137152,2,0,P|130:148|52:154,1,170.999995433807,2|0,0:0|0:0,0:0:0:0:
180,329,137652,2,0,P|238:314|335:301,1,128.249996575356,8|0,0:0|0:0,0:0:0:0:
315,319,137986,2,0,P|355:326|411:343,1,85.4999977169037,2|0,0:0|0:0,0:0:0:0:
299,144,138319,1,2,3:0:0:0:
181,226,138486,1,2,3:0:0:0:
280,40,138652,5,2,0:0:0:0:
280,40,138819,2,0,P|319:56|361:65,1,85.4999977169037,0|0,3:0|0:0,0:0:0:0:
464,255,139152,2,0,P|428:197|306:184,1,170.999995433807,2|0,0:0|0:0,0:0:0:0:
188,298,139652,2,0,P|181:340|167:394,1,85.4999977169037,8|0,0:0|0:0,0:0:0:0:
281,282,139986,1,0,3:0:0:0:
133,203,140152,1,2,3:0:0:0:
268,23,140319,1,0,3:0:0:0:
257,49,140402,1,0,3:0:0:0:
273,80,140486,1,2,3:0:0:0:
261,104,140569,1,2,3:0:0:0:
267,117,140652,6,0,P|172:99|79:86,1,170.999995433807,4|0,0:2|0:0,0:0:0:0:
12,185,141152,2,0,B|-11:223|-11:223|4:279,1,85.4999977169037,2|0,0:0|0:0,0:0:0:0:
106,175,141486,1,0,3:0:0:0:
236,372,141652,2,0,B|260:315|260:315|245:237,1,128.249996575356,10|0,0:0|0:0,0:0:0:0:
237,229,141986,5,0,3:0:0:0:
351,282,142152,1,0,0:0:0:0:
453,135,142319,1,0,3:0:0:0:
335,189,142486,1,2,0:0:0:0:
433,374,142652,1,4,3:2:0:0:
433,374,142819,2,0,P|483:328|453:230,2,170.999995433807,0|0|0,3:0|3:0|0:0,0:0:0:0:
226,268,143652,5,8,0:0:0:0:
367,113,143819,1,0,3:0:0:0:
363,227,143986,5,8,0:0:0:0:
188,119,144152,1,8,3:0:0:0:
281,45,144319,5,8,3:0:0:0:
324,340,144486,5,8,0:0:0:0:
91,226,144652,5,4,0:0:0:0:
91,226,144819,2,0,L|173:205,1,85.4999977169037,0|0,3:0|0:0,0:0:0:0:
452,114,145152,2,0,B|388:93|388:93|373:65|373:65|303:45,1,170.999995433807,2|0,0:0|0:0,0:0:0:0:
300,150,145652,2,0,B|314:188|314:188|294:246,1,85.4999977169037,8|0,0:0|0:0,0:0:0:0:
195,76,145986,1,0,3:0:0:0:
108,131,146152,1,2,0:0:0:0:
230,342,146319,1,2,3:0:0:0:
146,297,146486,1,2,3:0:0:0:
226,185,146652,5,0,0:0:0:0:
318,280,146819,2,0,P|358:289|422:310,1,85.4999977169037,0|0,3:0|0:0,0:0:0:0:
313,176,147152,1,0,3:0:0:0:
155,285,147319,2,0,P|148:327|137:368,1,85.4999977169037,2|0,0:0|0:0,0:0:0:0:
442,210,147652,6,0,L|418:29,1,170.999995433807,10|0,0:0|0:0,0:0:0:0:
348,8,148152,1,0,3:0:0:0:
226,240,148319,1,0,0:0:0:0:
237,217,148402,1,0,0:0:0:0:
226,185,148486,1,0,0:0:0:0:
238,151,148569,1,0,3:0:0:0:
238,151,148652,6,0,B|173:127|173:127|160:89|160:89|100:66,1,170.999995433807,4|0,0:2|3:0,0:0:0:0:
314,239,149152,2,0,B|358:224|411:215|411:215|432:183|396:141,1,170.999995433807,8|0,0:0|3:0,0:0:0:0:
212,265,149652,2,0,B|189:303|189:303|201:351,1,85.4999977169037,8|0,0:0|0:0,0:0:0:0:
264,160,149986,5,0,3:0:0:0:
327,95,150152,2,0,P|320:53|318:7,1,85.4999977169037,8|8,3:0|0:0,0:0:0:0:
151,155,150486,5,0,3:0:0:0:
151,155,150569,1,0,3:0:0:0:
151,155,150652,1,8,3:0:0:0:
300,260,150819,2,0,L|431:303,1,128.249996575356,2|0,0:0|0:0,0:0:0:0:
440,308,151152,5,12,0:0:0:0:
405,200,151319,1,2,0:0:0:0:
181,366,151486,5,8,0:0:0:0:
181,366,151569,1,8,0:0:0:0:
181,366,151652,1,8,0:0:0:0:
0,261,151819,5,8,0:0:0:0:
154,114,151986,1,8,3:0:0:0:
150,235,152152,5,0,3:0:0:0:
34,172,152319,1,8,0:3:0:0:
64,80,152486,5,10,3:3:0:0:
95,312,152652,5,4,0:0:0:0:
181,366,152819,2,0,B|242:351|242:351|264:314|264:314|343:297,1,170.999995433807,0|0,3:0|0:0,0:0:0:0:
402,197,153319,2,0,B|386:160|386:160|400:105,1,85.4999977169037,2|0,0:0|0:0,0:0:0:0:
512,368,153652,2,0,P|472:359|418:351,1,85.4999977169037,8|0,0:0|0:0,0:0:0:0:
199,209,153986,5,8,0:0:0:0:
308,115,154152,1,8,0:0:0:0:
186,62,154319,1,8,0:0:0:0:
311,225,154486,1,8,0:0:0:0:
158,340,154652,5,4,0:0:0:0:
64,384,154819,2,0,P|27:342|70:238,1,170.999995433807,0|0,3:0|0:0,0:0:0:0:
135,77,155319,2,0,L|143:172,1,85.4999977169037,2|0,0:0|0:0,0:0:0:0:
268,316,155652,2,0,B|289:277|289:277|274:226,1,85.4999977169037,8|0,0:0|0:0,0:0:0:0:
238,38,155986,5,8,3:0:0:0:
133,76,156152,1,2,3:0:0:0:
212,74,156319,1,8,3:0:0:0:
139,42,156486,1,2,3:0:0:0:
244,209,156652,5,4,0:0:0:0:
323,128,156819,2,0,B|400:126|400:188|489:188,1,170.999995433807,0|0,3:0|0:0,0:0:0:0:
438,318,157319,2,0,P|396:326|355:339,1,85.4999977169037,2|0,0:0|0:0,0:0:0:0:
276,219,157652,2,0,L|358:240,1,85.4999977169037,8|0,0:0|0:0,0:0:0:0:
512,25,157986,5,8,0:0:0:0:
332,112,158152,1,8,0:0:0:0:
273,3,158319,1,8,0:0:0:0:
461,132,158486,1,8,0:0:0:0:
280,242,158652,5,4,0:0:0:0:
198,353,158819,2,0,P|274:334|373:326,1,170.999995433807,0|0,3:0|0:0,0:0:0:0:
212,167,159319,2,0,P|182:201|161:251,1,85.4999977169037,2|0,0:0|0:0,0:0:0:0:
357,139,159652,5,8,0:0:0:0:
209,55,159819,1,8,3:0:0:0:
280,252,159986,5,10,3:0:0:0:
480,154,160152,1,8,3:0:0:0:
480,154,160236,1,8,3:0:0:0:
480,154,160319,1,10,0:0:0:0:
351,42,160486,1,10,0:0:0:0:
370,380,160652,5,4,0:0:0:0:
370,380,160819,2,0,B|415:279|358:313|403:206,1,170.999995433807,0|0,3:0|0:0,0:0:0:0:
364,125,161319,2,0,B|320:118|320:118|277:93,1,85.4999977169037,2|0,0:0|0:0,0:0:0:0:
64,287,161652,2,0,B|99:266|99:266|143:259,1,85.4999977169037,8|0,0:0|0:0,0:0:0:0:
284,201,161986,5,8,0:0:0:0:
204,156,162152,1,0,3:0:0:0:
130,378,162319,5,8,0:0:0:0:
307,284,162486,1,8,0:0:0:0:
174,288,162652,5,4,0:0:0:0:
270,384,162819,2,0,P|313:375|385:370,1,85.4999977169037,0|0,3:0|0:0,0:0:0:0:
136,213,163152,2,0,P|82:215|-2:294,1,170.999995433807,2|0,0:0|0:0,0:0:0:0:
278,125,163652,2,0,P|270:84|267:23,1,85.4999977169037,8|0,0:0|0:0,0:0:0:0:
176,108,163986,5,8,3:0:0:0:
290,155,164152,1,0,3:0:0:0:
309,262,164319,1,8,3:0:0:0:
169,320,164486,1,0,3:0:0:0:
378,101,164652,5,4,0:0:0:0:
471,195,164819,2,0,P|457:256|437:376,1,170.999995433807,0|0,3:0|0:0,0:0:0:0:
271,249,165319,2,0,P|280:291|287:352,1,85.4999977169037,2|0,0:0|0:0,0:0:0:0:
377,184,165652,2,0,P|337:173|290:155,1,85.4999977169037,8|0,0:0|0:0,0:0:0:0:
372,288,165986,5,8,0:0:0:0:
478,178,166152,1,8,3:0:0:0:
309,139,166319,5,0,3:0:0:0:
475,285,166486,1,8,0:0:0:0:
303,348,166651,6,0,P|205:369|128:386,1,170.999995433807,4|8,0:0|3:0,0:0:0:0:
261,258,167151,1,0,3:0:0:0:
174,159,167319,2,0,P|168:200|156:256,1,85.4999977169037,8|0,3:0|3:0,0:0:0:0:
299,384,167652,1,8,0:0:0:0:
397,92,167902,5,8,0:0:0:0:
397,92,167986,1,8,0:0:0:0:
311,111,168152,5,8,0:0:0:0:
196,137,168319,5,8,0:0:0:0:
61,173,168486,5,8,0:0:0:0:
290,254,168652,5,4,0:0:0:0:
115,384,168819,2,0,P|196:366|305:354,1,170.999995433807,0|0,3:0|0:0,0:0:0:0:
219,204,169319,2,0,P|259:219|301:227,1,85.4999977169037,2|0,0:0|0:0,0:0:0:0:
107,303,169652,2,0,P|122:263|130:221,1,85.4999977169037,8|0,0:0|0:0,0:0:0:0:
305,327,169986,1,8,0:0:0:0:
192,379,170152,1,8,0:0:0:0:
270,134,170319,1,8,0:0:0:0:
338,236,170486,1,8,0:0:0:0:
107,303,170652,5,4,0:0:0:0:
191,245,170819,2,0,B|293:261|265:318|358:314,1,170.999995433807,0|0,3:0|0:0,0:0:0:0:
146,162,171319,2,0,P|108:178|80:236,1,85.4999977169037,2|0,0:0|0:0,0:0:0:0:
277,93,171652,2,0,P|269:51|261:-1,1,85.4999977169037,8|0,0:0|0:0,0:0:0:0:
162,73,171986,5,4,3:0:0:0:
267,176,172152,1,2,3:0:0:0:
395,23,172319,5,4,3:0:0:0:
252,93,172486,1,2,3:0:0:0:
381,256,172652,5,4,0:0:0:0:
381,256,172819,2,0,P|440:210|397:129,1,170.999995433807,0|0,3:0|0:0,0:0:0:0:
242,205,173319,2,0,P|233:246|214:297,1,85.4999977169037,2|0,0:0|0:0,0:0:0:0:
344,384,173652,2,0,P|384:369|425:360,1,85.4999977169037,8|0,0:0|0:0,0:0:0:0:
477,221,173986,5,8,0:0:0:0:
362,125,174152,1,8,0:0:0:0:
207,306,174319,1,8,0:0:0:0:
367,236,174486,1,8,0:0:0:0:
319,42,174652,5,4,0:0:0:0:
238,0,174819,2,0,P|232:58|209:183,1,170.999995433807,0|0,3:0|0:0,0:0:0:0:
368,113,175319,2,0,P|407:117|465:127,1,85.4999977169037,2|0,0:0|0:0,0:0:0:0:
332,373,175652,5,8,0:0:0:0:
223,276,175819,1,8,0:0:0:0:
195,352,175986,1,0,3:0:0:0:
320,293,176152,1,8,3:0:0:0:
158,212,176319,5,8,0:0:0:0:
0,138,176486,1,8,0:0:0:0:
18,259,176652,5,4,0:0:0:0:
168,118,176819,2,0,B|255:107|236:61|331:45,1,170.999995433807,0|0,3:0|0:0,0:0:0:0:
400,0,177319,2,0,P|403:48|413:99,1,85.4999977169037,2|0,0:0|0:0,0:0:0:0:
216,367,177652,2,0,P|213:319|203:268,1,85.4999977169037,8|0,0:0|0:0,0:0:0:0:
257,174,177986,5,8,0:0:0:0:
316,267,178152,1,0,3:0:0:0:
464,173,178319,5,8,0:0:0:0:
363,362,178486,1,8,0:0:0:0:
471,287,178652,5,4,0:0:0:0:
347,178,178819,2,0,P|290:181|216:284,1,170.999995433807,0|0,3:0|0:0,0:0:0:0:
119,336,179319,2,0,L|33:360,1,85.4999977169037,2|0,0:0|0:0,0:0:0:0:
169,155,179652,2,0,L|36:121,1,128.249996575356,8|0,0:0|0:0,0:0:0:0:
29,138,179986,1,8,3:0:0:0:
88,228,180152,1,2,3:0:0:0:
0,272,180319,1,8,3:0:0:0:
42,376,180486,1,2,3:0:0:0:
224,285,180652,5,4,0:0:0:0:
299,375,180819,2,0,P|310:301|332:194,1,170.999995433807,0|0,3:0|0:0,0:0:0:0:
469,326,181319,2,0,P|428:332|379:353,1,85.4999977169037,2|0,0:0|0:0,0:0:0:0:
490,158,181652,2,0,P|496:199|517:248,1,85.4999977169037,8|0,0:0|0:0,0:0:0:0:
329,207,181986,5,8,3:0:0:0:
419,61,182152,5,8,0:0:0:0:
272,126,182319,1,8,0:0:0:0:
430,253,182486,1,8,0:0:0:0:
214,208,182652,6,0,B|150:187|150:187|140:154|140:154|71:132,1,170.999995433807,4|0,0:0|3:0,0:0:0:0:
0,203,183152,1,8,3:0:0:0:
98,306,183319,2,0,B|76:342|76:342|88:402,1,85.4999977169037,2|0,0:0|0:0,0:0:0:0:
259,103,183652,2,0,L|249:-6,1,85.4999977169037,12|0,0:2|0:0,0:0:0:0:
156,137,183986,1,2,0:0:0:0:
379,259,184152,5,8,3:0:0:0:
198,346,184319,5,10,0:0:0:0:
249,212,184486,1,10,0:0:0:0:
402,367,184652,5,4,0:0:0:0:
38,251,186652,5,2,0:0:0:0:
478,121,188652,5,2,0:0:0:0:
45,82,190652,5,2,0:0:0:0:
64,8,190986,1,2,0:0:0:0:
64,8,191152,1,2,0:0:0:0:
64,8,192652,6,0,B|177:19|128:78|231:89,1,180,4|0,0:0|0:0,0:0:0:0:
326,159,193152,2,0,P|322:115|323:47,1,90,2|0,0:0|0:0,0:0:0:0:
226,176,193486,1,0,3:0:0:0:
37,364,193652,2,0,P|48:297|55:230,1,135,8|0,0:0|0:0,0:0:0:0:
78,207,193986,1,0,3:0:0:0:
199,286,194152,1,2,0:0:0:0:
172,357,194319,1,2,3:0:0:0:
86,299,194486,1,2,3:0:0:0:
147,166,194652,5,2,0:0:0:0:
274,250,194819,2,0,P|322:251|405:344,2,180,0|0|0,3:0|3:0|0:0,0:0:0:0:
376,182,195652,2,0,L|496:160,1,90,8|0,0:0|0:0,0:0:0:0:
345,69,195986,1,0,3:0:0:0:
440,13,196152,1,0,3:0:0:0:
239,170,196319,1,0,3:0:0:0:
195,179,196402,1,0,3:0:0:0:
150,169,196486,1,2,3:0:0:0:
115,140,196569,1,2,3:0:0:0:
88,146,196652,6,0,P|109:94|234:70,1,180,4|0,0:2|0:0,0:0:0:0:
318,302,197152,2,0,P|231:293|185:219,1,180,2|0,0:0|3:0,0:0:0:0:
457,98,197652,2,0,P|492:133|472:239,1,135,8|0,0:0|0:0,0:0:0:0:
475,230,197986,1,0,3:0:0:0:
372,144,198152,1,2,0:0:0:0:
282,219,198319,1,2,3:0:0:0:
389,331,198486,1,2,3:0:0:0:
377,240,198652,5,2,0:0:0:0:
235,342,198819,2,0,P|188:355|138:378,1,90,0|0,3:0|0:0,0:0:0:0:
276,23,199152,2,0,P|346:51|375:151,1,180,2|0,0:0|0:0,0:0:0:0:
264,262,199652,5,8,0:0:0:0:
68,140,199819,1,8,0:0:0:0:
244,166,199986,5,0,3:0:0:0:
356,122,200152,1,0,3:0:0:0:
155,218,200319,5,8,0:3:0:0:
88,304,200486,1,2,3:0:0:0:
164,117,200652,5,4,0:0:0:0:
164,117,200819,2,0,P|170:64|171:0,1,90,0|0,3:0|0:0,0:0:0:0:
335,223,201152,1,0,3:0:0:0:
278,81,201319,1,2,3:0:0:0:
156,216,201486,1,0,3:0:0:0:
361,126,201652,2,0,B|447:106|420:59|522:40,1,180,8|0,0:0|0:0,0:0:0:0:
511,131,202152,2,0,B|491:173|491:173|508:229,1,90,2|0,3:0|3:0,0:0:0:0:
366,349,202486,1,2,0:0:0:0:
509,362,202652,5,4,0:2:0:0:
431,266,202819,2,0,L|324:244,1,90,0|0,3:0|0:0,0:0:0:0:
16,384,203152,2,0,B|81:369|81:369|109:327|109:327|190:305,1,180,2|0,0:0|3:0,0:0:0:0:
110,84,203652,5,8,0:0:0:0:
15,273,203819,1,0,3:0:0:0:
194,329,203986,5,8,3:0:0:0:
152,206,204152,1,0,3:0:0:0:
301,57,204319,5,8,3:0:0:0:
338,32,204402,1,8,3:0:0:0:
384,25,204486,1,8,3:0:0:0:
426,40,204569,1,8,3:0:0:0:
447,64,204652,5,2,3:0:0:0:
429,153,204819,1,0,3:0:0:0:
406,265,204986,1,0,0:0:0:0:
272,96,205152,5,8,0:0:0:0:
295,239,205319,1,0,0:0:0:0:
313,316,205486,1,0,3:0:0:0:
170,138,205652,5,8,0:0:0:0:
109,292,205819,1,0,0:0:0:0:
174,332,205986,1,0,3:0:0:0:
216,265,206152,1,2,3:0:0:0:
73,176,206319,5,8,0:0:0:0:
43,81,206486,1,0,3:0:0:0:
191,16,206652,5,0,3:0:0:0:
289,47,206819,1,8,3:0:0:0:
306,70,207152,5,8,0:0:0:0:
232,100,207319,1,0,0:0:0:0:
137,209,207486,5,0,3:0:0:0:
137,209,207569,1,0,3:0:0:0:
137,209,207652,1,8,0:0:0:0:
327,310,207819,1,8,3:0:0:0:
247,122,207986,5,8,0:3:0:0:
130,346,208152,1,8,3:0:0:0:
244,230,208319,5,10,0:0:0:0:
244,230,208652,6,0,P|144:250|56:273,1,180,4|0,0:0|0:0,0:0:0:0:
333,148,209152,2,0,P|357:173|367:242,1,90,2|0,0:0|0:0,0:0:0:0:
211,142,209486,1,0,3:0:0:0:
359,23,209652,2,0,L|501:47,1,135,10|0,0:0|0:0,0:0:0:0:
512,64,209986,1,0,3:0:0:0:
417,113,210152,1,2,0:0:0:0:
345,146,210319,1,2,3:0:0:0:
447,229,210486,1,2,0:0:0:0:
509,277,210652,5,0,3:0:0:0:
398,358,210819,2,0,B|353:365|353:365|302:390,1,90,2|0,3:0|0:0,0:0:0:0:
188,188,211152,2,0,B|278:187|247:263|351:276,1,180,2|0,0:0|0:0,0:0:0:0:
134,384,211652,2,0,P|147:347|157:293,1,90,8|0,0:0|0:0,0:0:0:0:
326,71,211986,5,0,3:0:0:0:
183,152,212152,1,0,3:0:0:0:
422,276,212319,1,0,3:0:0:0:
442,250,212402,1,0,3:0:0:0:
441,216,212486,1,2,3:0:0:0:
457,182,212569,1,2,3:0:0:0:
457,182,212652,6,0,P|363:197|270:218,1,180,4|0,0:2|0:0,0:0:0:0:
441,84,213152,2,0,P|397:75|344:60,1,90,2|0,0:0|0:0,0:0:0:0:
474,265,213486,1,0,3:0:0:0:
355,341,213652,2,0,P|287:355|212:381,1,135,10|0,0:0|0:0,0:0:0:0:
204,365,213986,1,0,3:0:0:0:
100,261,214152,1,0,0:0:0:0:
7,359,214319,1,2,3:0:0:0:
197,262,214486,1,2,0:0:0:0:
121,106,214652,5,4,0:2:0:0:
41,198,214819,2,0,B|67:238|67:238|61:281,1,90,0|0,3:0|0:0,0:0:0:0:
228,177,215152,2,0,L|259:-5,1,180,2|0,0:0|3:0,0:0:0:0:
480,232,215652,2,0,L|463:134,1,90,8|0,0:0|0:0,0:0:0:0:
199,331,215986,5,8,0:0:0:0:
251,191,216152,1,0,3:0:0:0:
291,80,216319,1,8,3:0:0:0:
355,353,216486,5,8,0:0:0:0:
344,190,216652,6,0,B|271:196|290:258|169:246,1,180,4|0,0:0|0:0,0:0:0:0:
21,36,217152,2,0,P|80:26|158:144,1,180,2|0,0:0|3:0,0:0:0:0:
7,299,217652,2,0,B|17:263|17:263|15:244|15:244|26:200,1,90,10|0,0:0|0:0,0:0:0:0:
67,113,217986,5,0,3:0:0:0:
154,149,218152,1,0,0:0:0:0:
283,257,218319,5,2,3:0:0:0:
116,321,218486,1,2,0:0:0:0:
209,216,218652,5,4,0:2:0:0:
255,279,218819,2,0,B|266:323|266:323|244:374,1,90,0|0,3:0|0:0,0:0:0:0:
389,179,219152,2,0,L|372:-23,1,180,2|0,0:0|3:0,0:0:0:0:
261,66,219652,5,8,0:0:0:0:
406,160,219819,1,2,3:0:0:0:
476,64,219986,1,0,3:0:0:0:
303,160,220151,1,2,3:0:0:0:
449,290,220319,5,8,3:0:0:0:
488,269,220402,1,8,3:0:0:0:
512,231,220485,1,8,3:0:0:0:
512,185,220569,1,8,3:0:0:0:
484,149,220652,5,2,3:0:0:0:
356,227,220819,1,0,3:0:0:0:
228,307,220986,1,0,0:0:0:0:
180,88,221152,5,8,0:0:0:0:
326,139,221319,1,0,0:0:0:0:
326,139,221486,1,0,3:0:0:0:
75,296,221652,5,8,0:0:0:0:
270,203,221819,1,0,0:0:0:0:
201,167,221986,1,0,3:0:0:0:
151,229,222152,1,0,3:0:0:0:
304,356,222319,5,8,0:0:0:0:
362,239,222486,1,0,3:0:0:0:
59,220,222652,5,0,3:0:0:0:
75,296,222819,1,8,3:0:0:0:
95,325,223152,5,12,0:0:0:0:
190,140,223319,1,2,0:0:0:0:
97,80,223486,5,8,0:0:0:0:
97,80,223569,1,8,0:0:0:0:
97,80,223652,1,8,0:0:0:0:
201,291,223819,5,8,0:0:0:0:
380,384,223986,1,8,3:0:0:0:
404,254,224152,5,8,3:0:0:0:
297,297,224319,1,0,3:0:0:0:
323,214,224486,5,8,0:3:0:0:
495,334,224652,5,4,0:0:0:0:
484,256,224819,2,0,L|510:95,2,161.999995056153,0|0|0,0:0|3:0|0:0,0:0:0:0:
397,96,225652,1,8,0:0:0:0:
397,96,225986,5,8,0:0:0:0:
227,151,226152,1,8,0:0:0:0:
335,229,226319,1,8,0:0:0:0:
285,58,226486,1,8,0:0:0:0:
192,244,226652,5,4,0:0:0:0:
259,326,226819,2,0,P|319:329|430:375,1,161.999995056153,0|0,3:0|0:0,0:0:0:0:
413,364,227486,1,0,3:0:0:0:
246,310,227652,2,0,P|209:317|162:345,1,80.9999975280763,8|0,0:0|0:0,0:0:0:0:
352,217,227986,5,8,3:0:0:0:
261,162,228152,1,2,3:0:0:0:
223,228,228319,1,8,3:0:0:0:
345,168,228486,1,2,3:0:0:0:
215,77,228652,5,4,0:0:0:0:
146,38,228819,2,0,B|75:39|87:100|-23:98,2,161.999995056153,0|0|0,0:0|3:0|0:0,0:0:0:0:
112,159,229652,2,0,B|97:196|97:196|96:241,1,80.9999975280763,8|0,0:0|0:0,0:0:0:0:
331,373,229986,5,8,0:0:0:0:
200,207,230152,1,8,0:0:0:0:
119,332,230319,1,8,0:0:0:0:
351,203,230486,1,8,0:0:0:0:
254,322,230652,5,4,0:2:0:0:
274,251,230819,1,0,3:0:0:0:
448,231,230986,5,8,0:3:0:0:
423,135,231151,1,8,3:0:0:0:
207,176,231319,5,0,3:0:0:0:
258,53,231486,1,10,3:0:0:0:
407,330,231652,5,12,0:0:0:0:
