osu file format v14

[General]
AudioFilename: audio.mp3
AudioLeadIn: 0
PreviewTime: 9004
Countdown: 0
SampleSet: Normal
StackLeniency: 0.7
Mode: 1
LetterboxInBreaks: 0
WidescreenStoryboard: 0

[Editor]
DistanceSpacing: 1.4
BeatDivisor: 12
GridSize: 32
TimelineZoom: 4.099998

[Metadata]
Title:why did i enter the art course
TitleUnicode:why did i enter the art course
Artist:momone
ArtistUnicode:momone
Creator:dtn
Version:sketch
Source:
Tags:dtnt0r eriha roxy- kurokurokuro japanese dariacore dobicore 01 : afterthought momonesakai jade electronic instrumental hyperflip きんいろモザイク kinmoza kiniro golden mosaic Jumping!! Rhodanthe*
BeatmapID:4114450
BeatmapSetID:1981451

[Difficulty]
HPDrainRate:6
CircleSize:5
OverallDifficulty:7
ApproachRate:5
SliderMultiplier:1.4
SliderTickRate:1

[Events]
//Background and Video events
0,0,"Untitled.jpg",0,0
//Break Periods
2,81527,88621
//Storyboard Layer 0 (Background)
//Storyboard Layer 1 (Fail)
//Storyboard Layer 2 (Pass)
//Storyboard Layer 3 (Foreground)
//Storyboard Layer 4 (Overlay)
//Storyboard Sound Samples

[TimingPoints]
232,273.972602739726,4,1,0,100,1,0
232,-66.666666666667,4,1,0,100,0,0
368,-125,4,1,0,100,0,0
4318,-116.894197952218,4,1,0,100,0,0
4363,-113.976705490849,4,1,0,100,0,0
4409,-111.141157382369,4,1,0,100,0,0
4455,-108.44327176781,4,1,0,100,0,0
4500,-105.927835051546,4,1,0,100,0,0
4546,-103.474320241692,4,1,0,100,0,0
4592,-100,4,1,0,100,0,0
6802,-100,4,1,0,100,0,0
6939,-98.765432098765,4,1,0,100,0,0
7076,-97.560975609756,4,1,0,100,0,0
7213,-96.385542168675,4,1,0,100,0,0
7281,-95.812571028936,4,1,0,100,0,0
7350,-95.238095238095,4,1,0,100,0,0
7487,-94.117647058824,4,1,0,100,0,0
7624,-93.023255813953,4,1,0,100,0,0
7692,-92.489451476793,4,1,0,100,0,0
7761,-91.954022988506,4,1,0,100,0,0
7829,-91.432385083841,4,1,0,100,0,0
7898,-90.909090909091,4,1,0,100,0,0
8035,-89.887640449438,4,1,0,100,0,0
8172,-88.888888888889,4,1,0,100,0,0
8309,-87.912087912088,4,1,0,100,0,0
8377,-87.435181491823,4,1,0,100,0,0
8446,-86.95652173913,4,1,0,100,0,0
8514,-86.489898989899,4,1,0,100,0,0
8583,-86.021505376344,4,1,0,100,0,0
8651,-85.564837223827,4,1,0,100,0,0
8720,-85.106382978723,4,1,0,100,0,0
8788,-84.659354240692,4,1,0,100,0,0
8857,-84.210526315789,4,1,0,100,0,0
8925,-83.772834976687,4,1,0,100,0,0
8994,-83.333333333333,4,1,0,100,0,0
9204,-76.923076923077,4,1,0,100,0,0
9478,-71.428571428571,4,1,0,100,0,0
9679,-67.927927927928,4,1,0,100,0,0
9747,-70.520014964459,4,1,0,100,0,0
9816,-73.360575987546,4,1,0,100,0,0
9861,-75.339728217426,4,1,0,100,0,0
9907,-77.476366625565,4,1,0,100,0,0
9953,-79.737732656514,4,1,0,100,0,0
10090,-50,4,1,0,100,0,0
10363,-58.823529411765,4,1,0,100,0,0
10500,-60.512605545242,4,1,0,100,0,0
10569,-61.400577244417,4,1,0,100,0,0
10637,-62.30155060267,4,1,0,100,0,0
10774,-64.199491740788,4,1,0,100,0,0
10911,-66.216703253498,4,1,0,100,0,0
10980,-67.281443504894,4,1,0,100,0,0
11048,-68.364792639199,4,1,0,100,0,0
11185,-70.656924098871,4,1,0,100,0,0
11254,-71.870554765292,4,1,0,100,0,0
11322,-73.108088554478,4,1,0,100,0,0
11459,-75.735431890575,4,1,0,100,0,0
11596,-78.558656611988,4,1,0,100,0,0
11733,-81.600516816732,4,1,0,100,0,0
11802,-83.223521660352,4,1,0,100,0,0
11870,-84.887432795699,4,1,0,100,0,0
12007,-88.450260405269,4,1,0,100,0,0
12076,-90.360368416346,4,1,0,100,0,0
12144,-92.325262677021,4,1,0,100,0,0
12213,-94.408371093568,4,1,0,100,0,0
12286,-90.909090909091,4,1,0,100,0,1
12423,-100,4,1,0,100,0,1
12800,-66.666666666667,4,1,0,100,0,1
12868,-100,4,1,0,100,0,1
13896,-66.666666666667,4,1,0,100,0,1
13964,-100,4,1,0,100,0,1
14992,-66.666666666667,4,1,0,100,0,1
15060,-100,4,1,0,100,0,1
16088,-66.666666666667,4,1,0,100,0,1
16156,-100,4,1,0,100,0,1
17184,-66.666666666667,4,1,0,100,0,1
17252,-100,4,1,0,100,0,1
18279,-66.666666666667,4,1,0,100,0,1
18347,-100,4,1,0,100,0,1
18553,-50,4,1,0,100,0,1
18622,-100,4,1,0,100,0,1
18862,-105.263157894737,4,1,0,100,0,0
19136,-72.076811784822,4,1,0,100,0,0
19273,-73.399410661666,4,1,0,100,0,0
19341,-74.074074074074,4,1,0,100,0,0
19410,-74.771455860281,4,1,0,100,0,0
19547,-76.195773081201,4,1,0,100,0,0
19684,-77.675407512403,4,1,0,100,0,0
19752,-78.43137254902,4,1,0,100,0,0
19821,-79.213645562301,4,1,0,100,0,0
19958,-80.814039227253,4,1,0,100,0,0
20026,-81.632653061224,4,1,0,100,0,0
20095,-82.480433473811,4,1,0,100,0,0
20232,-84.216997080068,4,1,0,100,0,0
20368,-86.014754355674,4,1,0,100,0,0
20505,-87.90503689445,4,1,0,100,0,0
20574,-88.888888888889,4,1,0,100,0,0
20642,-89.880268984747,4,1,0,100,0,0
20779,-91.946308724832,4,1,0,100,0,0
20916,-94.109565516057,4,1,0,100,0,0
21053,-90.909090909091,4,1,0,100,0,1
21122,-100,4,1,0,100,0,1
21567,-66.666666666667,4,1,0,100,0,1
21635,-100,4,1,0,100,0,1
22663,-66.666666666667,4,1,0,100,0,1
22731,-100,4,1,0,100,0,1
23759,-66.666666666667,4,1,0,100,0,1
23827,-100,4,1,0,100,0,1
24855,-66.666666666667,4,1,0,100,0,1
24923,-100,4,1,0,100,0,1
25951,-66.666666666667,4,1,0,100,0,1
26019,-100,4,1,0,100,0,1
26528,-98.845108695652,4,1,0,100,0,1
26665,-94.449853943525,4,1,0,100,0,1
26802,-90.428837787446,4,1,0,100,0,1
26939,-86.736214605067,4,1,0,100,0,1
27076,-83.333333333333,4,1,0,100,0,1
27144,-81.741573033708,4,1,0,100,0,1
27213,-80.187379443373,4,1,0,100,0,1
27350,-77.270313329793,4,1,0,100,0,1
27487,-74.558032282859,4,1,0,100,0,1
27629,-72.029702970297,4,1,0,60,0,0
27898,-72.745048971967,4,1,0,60,0,0
28309,-74.466817586084,4,1,0,60,0,0
28446,-75.058996371148,4,1,0,60,0,0
28720,-76.272065508552,4,1,0,60,0,0
28994,-77.524988888085,4,1,0,60,0,0
29405,-79.483505582921,4,1,0,60,0,0
29542,-80.158521492103,4,1,0,60,0,0
29816,-81.543543164803,4,1,0,60,0,0
30090,-82.977268653843,4,1,0,60,0,0
30500,-85.219331834988,4,1,0,60,0,0
30637,-85.995762128842,4,1,0,60,0,0
30911,-87.591854658252,4,1,0,60,0,0
31185,-89.248314991813,4,1,0,60,0,0
31322,-90.100263573304,4,1,0,60,0,0
31596,-91.853905750544,4,1,0,60,0,0
31733,-92.756577059691,4,1,0,60,0,0
32007,-94.616211415509,4,1,0,60,0,0
32281,-96.551937218068,4,1,0,60,0,0
32692,-99.608736881529,4,1,0,60,0,0
32829,-100.671140939597,4,1,0,60,0,0
33103,-102.865419114864,4,1,0,60,0,0
33377,-105.15748384781,4,1,0,60,0,0
33788,-108.793724197755,4,1,0,60,0,0
33925,-110.062339308985,4,1,0,60,0,0
34199,-112.690446855185,4,1,0,60,0,0
34473,-115.447134448193,4,1,0,60,0,0
34610,-116.876681076263,4,1,0,60,0,0
34747,-118.34207486793,4,1,0,60,0,0
34884,-119.844681293044,4,1,0,60,0,0
35021,-121.3859360636,4,1,0,60,0,0
35295,-124.590512515532,4,1,0,60,0,0
44718,-121.951219512195,4,1,0,60,0,0
44786,-119.047619047619,4,1,0,60,0,0
44866,-116.894197952218,4,1,0,60,0,0
44911,-113.976705490849,4,1,0,60,0,0
44957,-111.141157382369,4,1,0,60,0,0
45003,-108.44327176781,4,1,0,60,0,0
45048,-105.927835051546,4,1,0,60,0,0
45094,-103.474320241692,4,1,0,60,0,0
45163,-100,4,1,0,100,0,0
47047,-92.592592592593,4,1,0,100,0,0
47116,-94.339622641509,4,1,0,100,0,0
47184,-96.153846153846,4,1,0,100,0,0
47253,-98.039215686275,4,1,0,100,0,0
47321,-100,4,1,0,100,0,0
49238,-92.592592592593,4,1,0,100,0,0
49307,-94.339622641509,4,1,0,100,0,0
49375,-96.153846153846,4,1,0,100,0,0
49444,-98.039215686275,4,1,0,100,0,0
49512,-100,4,1,0,100,0,0
51430,-92.592592592593,4,1,0,100,0,0
51499,-94.339622641509,4,1,0,100,0,0
51567,-96.153846153846,4,1,0,100,0,0
51636,-98.039215686275,4,1,0,100,0,0
51704,-100,4,1,0,100,0,0
53622,-92.592592592593,4,1,0,100,0,0
53691,-94.339622641509,4,1,0,100,0,0
53759,-96.153846153846,4,1,0,100,0,0
53828,-98.039215686275,4,1,0,100,0,0
53896,-100,4,1,0,100,0,0
55814,-92.592592592593,4,1,0,100,0,0
55883,-94.339622641509,4,1,0,100,0,0
55951,-96.153846153846,4,1,0,100,0,0
56020,-98.039215686275,4,1,0,100,0,0
56088,-100,4,1,0,100,0,0
58005,-92.592592592593,4,1,0,100,0,0
58074,-94.339622641509,4,1,0,100,0,0
58142,-96.153846153846,4,1,0,100,0,0
58211,-98.039215686275,4,1,0,100,0,0
58309,-99.840583010704,4,1,0,100,0,0
58446,-99.221437624479,4,1,0,100,0,0
58583,-98.609923973188,4,1,0,100,0,0
58720,-98.005901815255,4,1,0,100,0,0
58857,-97.409234324312,4,1,0,100,0,0
58994,-96.819787985866,4,1,0,100,0,0
59131,-96.237432497695,4,1,0,100,0,0
59268,-95.662040673824,4,1,0,100,0,0
59405,-95.093488351915,4,1,0,100,0,0
59542,-94.53165430395,4,1,0,100,0,0
59679,-93.976420150054,4,1,0,100,0,0
59816,-93.427670275339,4,1,0,100,0,0
59953,-92.88529174965,4,1,0,100,0,0
60090,-92.349174250084,4,1,0,100,0,0
60227,-91.819209986177,4,1,0,100,0,0
60363,-91.299096172269,4,1,0,100,0,0
60500,-90.414683888511,4,1,0,100,0,0
60569,-89.427678677372,4,1,0,100,0,0
60637,-88.475836431227,4,1,0,100,0,0
60706,-87.530486624598,4,1,0,100,0,0
60774,-86.61839635291,4,1,0,100,0,0
60843,-85.712119488987,4,1,0,100,0,0
60911,-84.837341938389,4,1,0,100,0,0
60980,-83.967764697144,4,1,0,100,0,0
61048,-83.128056178536,4,1,0,100,0,0
61117,-82.292993630573,4,1,0,100,0,0
61185,-81.486286805781,4,1,0,100,0,0
61254,-80.683724083788,4,1,0,100,0,0
61322,-79.90811097367,4,1,0,100,0,0
61391,-79.136187042806,4,1,0,100,0,0
61459,-78.389903962833,4,1,0,100,0,0
61528,-77.646897214877,4,1,0,100,0,0
61596,-76.92831138784,4,1,0,100,0,0
61665,-76.212626824418,4,1,0,100,0,0
61733,-75.520224456395,4,1,0,100,0,0
61802,-74.830382260467,4,1,0,100,0,0
61870,-74.162757896808,4,1,0,100,0,0
61939,-73.497383220102,4,1,0,100,0,0
62007,-72.853230223941,4,1,0,100,0,0
62076,-72.21104404203,4,1,0,100,0,0
62144,-71.589146059589,4,1,0,100,0,0
62213,-70.968956966634,4,1,0,100,0,0
62281,-70.368180262052,4,1,0,100,0,0
62350,-69.768877094455,4,1,0,100,0,0
62418,-69.188163652499,4,1,0,100,0,0
62487,-68.608708845395,4,1,0,100,0,0
62555,-68.047070153791,4,1,0,100,0,0
62624,-67.486493746829,4,1,0,100,0,0
62680,-66.844255016871,4,1,0,100,0,0
62954,-78.269910584321,4,1,0,100,0,0
63091,-85.584356525693,4,1,0,100,0,0
63160,-89.811500835123,4,1,0,100,0,0
63228,-94.406822172059,4,1,0,100,0,0
63365,-105.257270693512,4,1,0,100,0,0
63502,-118.925750394945,4,1,0,100,0,0
63548,-124.347538817311,4,1,0,100,0,0
63593,-130.15214384509,4,1,0,100,0,0
63633,-133.333333333333,4,1,0,100,0,0
63788,-250,4,1,0,60,0,0
64062,-253.392049512021,4,1,0,60,0,0
64336,-257.592256503327,4,1,0,60,0,0
64473,-259.745013115354,4,1,0,60,0,0
64542,-260.842930654251,4,1,0,60,0,0
64747,-264.160307711396,4,1,0,60,0,0
64884,-266.424727818796,4,1,0,60,0,0
65158,-271.072065189712,4,1,0,60,0,0
65432,-275.88441104056,4,1,0,60,0,0
65569,-278.355233052232,4,1,0,60,0,0
65637,-279.59813513691,4,1,0,60,0,0
65706,-280.870712401055,4,1,0,60,0,0
65774,-282.136231115823,4,1,0,60,0,0
65843,-283.432070824735,4,1,0,60,0,0
65980,-286.040575036947,4,1,0,60,0,0
66254,-291.404325212154,4,1,0,60,0,0
66528,-296.973078532571,4,1,0,60,0,0
66665,-299.838039574678,4,1,0,60,0,0
66733,-301.280690582325,4,1,0,60,0,0
66939,-305.737057514181,4,1,0,60,0,0
67076,-308.774474256708,4,1,0,60,0,0
67144,-310.304620317738,4,1,0,60,0,0
67281,-313.433934486566,4,1,0,60,0,0
67350,-315.034033737792,4,1,0,60,0,0
67418,-316.627007733492,4,1,0,60,0,0
67487,-318.259959638239,4,1,0,60,0,0
67624,-321.552635553542,4,1,0,60,0,0
67761,-324.914154902709,4,1,0,60,0,0
67898,-330.077519379845,4,1,0,60,0,0
68035,-331.852544618502,4,1,0,60,0,0
68172,-335.43406333701,4,1,0,60,0,0
68446,-342.834138486312,4,1,0,60,0,0
68720,-350.568088259509,4,1,0,60,0,0
68857,-354.5674077775,4,1,0,60,0,0
68925,-356.586550540156,4,1,0,60,0,0
69131,-362.846186621219,4,1,0,60,0,0
69268,-367.13226418348,4,1,0,60,0,0
69542,-376.015542211233,4,1,0,60,0,0
69816,-385.339366515837,4,1,0,60,0,0
69953,-390.176853294236,4,1,0,60,0,0
70021,-392.623328722914,4,1,0,60,0,0
70227,-400.225585111383,4,1,0,60,0,0
70363,-405.40797867276,4,1,0,60,0,0
70637,-416.267474826474,4,1,0,60,0,0
70911,-427.724761426419,4,1,0,60,0,0
71048,-433.693216541047,4,1,0,60,0,0
71117,-436.762744896912,4,1,0,60,0,0
71322,-446.144174350377,4,1,0,60,0,0
71459,-452.641649835229,4,1,0,60,0,0
71733,-466.221394941421,4,1,0,60,0,0
71870,-473.32147621165,4,1,0,60,0,0
72007,-480.641155886669,4,1,0,60,0,0
72144,-488.19078193075,4,1,0,60,0,0
72281,-58.823529411765,4,1,0,80,0,0
72555,-77.495621716287,4,1,0,80,0,0
72624,-78.684152033785,4,1,0,80,0,0
72692,-79.891672308734,4,1,0,80,0,0
72829,-82.440614811365,4,1,0,80,0,0
72898,-83.786982248521,4,1,0,80,0,0
72966,-85.157565552081,4,1,0,80,0,0
73103,-88.059701492537,4,1,0,80,0,0
73172,-89.597570235383,4,1,0,80,0,0
73240,-91.166623744527,4,1,0,80,0,0
73309,-92.815941269009,4,1,0,80,0,0
73377,-94.500800854245,4,1,0,80,0,0
73514,-98.088113050707,4,1,0,80,0,0
73651,-78.040444317858,4,1,0,80,0,0
73720,-79.207920792079,4,1,0,80,0,0
73788,-80.393163647033,4,1,0,80,0,0
73925,-82.89214944789,4,1,0,80,0,0
73994,-84.210526315789,4,1,0,80,0,0
74062,-85.551479197565,4,1,0,80,0,0
74199,-88.387096774194,4,1,0,80,0,0
74268,-89.887640449438,4,1,0,80,0,0
74336,-91.41713237134,4,1,0,80,0,0
74405,-93.023255813953,4,1,0,80,0,0
74473,-94.662290551045,4,1,0,80,0,0
74610,-98.146323990329,4,1,0,80,0,0
74747,-89.39505265736,4,1,0,80,0,0
74884,-86.492890995261,4,1,0,80,0,0
74953,-85.101422242947,4,1,0,80,0,0
75021,-83.773238466835,4,1,0,80,0,0
75158,-81.21940364931,4,1,0,80,0,0
75227,-79.991233837388,4,1,0,80,0,0
75295,-78.816670265601,4,1,0,80,0,0
75432,-76.552013422819,4,1,0,80,0,0
75500,-75.475599669148,4,1,0,80,0,0
75569,-74.413863404689,4,1,0,80,0,0
75637,-73.396340237281,4,1,0,80,0,0
75706,-72.391907973027,4,1,0,80,0,0
75843,-82.042069017142,4,1,0,80,0,0
75980,-79.593318809005,4,1,0,80,0,0
76048,-78.43137254902,4,1,0,80,0,0
76117,-77.286510119174,4,1,0,80,0,0
76254,-75.109649122807,4,1,0,80,0,0
76322,-74.074074074074,4,1,0,80,0,0
76391,-73.052056255416,4,1,0,80,0,0
76528,-71.104190995199,4,1,0,80,0,0
76596,-70.175438596491,4,1,0,80,0,0
76665,-69.257503949447,4,1,0,80,0,0
76733,-68.376068376068,4,1,0,80,0,0
76802,-67.50431140675,4,1,0,80,0,0
76910,-73.409243134628,4,1,0,80,0,0
77047,-77.68641905302,4,1,0,80,0,0
77115,-80,4,1,0,80,0,0
77184,-82.492849616137,4,1,0,80,0,0
77321,-84.745762711864,4,1,0,80,0,0
77458,-87.890938251804,4,1,0,80,0,0
77595,-82.455612398435,4,1,0,80,0,0
77663,-80,4,1,0,80,0,0
77732,-77.653393793397,4,1,0,80,0,0
77868,-73.379753615426,4,1,0,80,0,0
78005,-73.409243134628,4,1,0,80,0,0
78142,-77.68641905302,4,1,0,80,0,0
78210,-80,4,1,0,80,0,0
78279,-82.492849616137,4,1,0,80,0,0
78416,-84.745762711864,4,1,0,80,0,0
78553,-87.890938251804,4,1,0,80,0,0
78690,-82.455612398435,4,1,0,80,0,0
78758,-80,4,1,0,80,0,0
78827,-77.653393793397,4,1,0,80,0,0
78964,-73.379753615426,4,1,0,80,0,0
79131,-67.675208397654,4,1,0,80,0,0
79268,-71.934891047519,4,1,0,80,0,0
79336,-74.254742547425,4,1,0,80,0,0
79405,-76.766827764937,4,1,0,80,0,0
79542,-82.29463883466,4,1,0,80,0,0
79679,-88.680313941257,4,1,0,80,0,0
79816,-96.140350877193,4,1,0,80,0,0
79884,-100.329549615525,4,1,0,80,0,0
79953,-104.970788238674,4,1,0,80,0,0
80090,-115.587428812487,4,1,0,80,0,0
80227,-66.666666666667,4,1,0,80,0,0
80985,-41.6666666666667,4,1,0,80,0,0
81259,-50,4,1,0,80,0,0
81396,-52.631578947368,4,1,0,5,0,0
83519,-55.555555555556,4,1,0,5,0,0
84615,-58.823529411765,4,1,0,5,0,0
85711,-62.5,4,1,0,5,0,0
86807,-66.666666666667,4,1,0,5,0,0
87903,-71.428571428571,4,1,0,5,0,0
88999,-76.923076923077,4,1,0,5,0,0
89752,-153.846153846153,4,1,0,100,0,0
89855,-142.857142857143,4,1,0,100,0,0
89923,-133.333333333333,4,1,0,100,0,0
90095,-76.923076923077,4,1,0,100,0,0
90232,-90.909090909091,4,1,0,100,0,0
94473,-90.398976771053,4,1,0,100,0,0
94610,-89.388437844233,4,1,0,100,0,0
94747,-88.400242081904,4,1,0,100,0,0
94884,-87.433656570494,4,1,0,100,0,0
95021,-86.487980105001,4,1,0,100,0,0
95158,-85.562541492561,4,1,0,100,0,0
95295,-84.656697963757,4,1,0,100,0,0
95432,-83.769833683808,4,1,0,100,0,0
95569,-82.901358356351,4,1,0,100,0,0
95706,-82.050705913193,4,1,0,100,0,0
95843,-81.217333283909,4,1,0,100,0,0
95980,-80.400719239661,4,1,0,100,0,0
96117,-79.600363306085,4,1,0,100,0,0
96254,-78.815784740458,4,1,0,100,0,0
96391,-78.046521568767,4,1,0,100,0,0
96528,-77.292129678626,4,1,0,100,0,0
96665,-70.829280155642,4,1,0,100,0,0
96733,-70.24843222383,4,1,0,100,0,0
96802,-69.668699916278,4,1,0,100,0,0
96870,-69.106655593783,4,1,0,100,0,0
96939,-68.545540127089,4,1,0,100,0,0
97007,-68.001400887229,4,1,0,100,0,0
97076,-67.458019687319,4,1,0,100,0,0
97144,-66.930943352867,4,1,0,100,0,0
97213,-66.40446876425,4,1,0,100,0,0
97281,-65.893665158371,4,1,0,100,0,0
97350,-65.383320237962,4,1,0,100,0,0
97418,-64.888047231815,4,1,0,100,0,0
97487,-64.393101923502,4,1,0,100,0,0
97555,-63.912661838929,4,1,0,100,0,0
97624,-63.432429489274,4,1,0,100,0,0
97692,-62.966165819911,4,1,0,100,0,0
97761,-62.5,4,1,0,100,0,0
98862,-83.333333333333,4,1,0,100,0,1
102766,-84.745762711864,4,1,0,100,0,1
102868,-86.206896551724,4,1,0,100,0,1
102937,-87.719298245614,4,1,0,100,0,1
103074,-89.285714285714,4,1,0,100,0,1
103211,-83.333333333333,4,1,0,100,0,1
107149,-84.745762711864,4,1,0,100,0,1
107251,-86.206896551724,4,1,0,100,0,1
107320,-87.719298245614,4,1,0,100,0,1
107457,-89.285714285714,4,1,0,100,0,1
107595,-71.428571428571,4,1,0,100,0,1
107663,-71.942446043166,4,1,0,100,0,1
107732,-72.463768115942,4,1,0,100,0,1
107800,-72.992700729927,4,1,0,100,0,1
107869,-73.529411764706,4,1,0,100,0,1
107937,-74.074074074074,4,1,0,100,0,1
108006,-74.626865671642,4,1,0,100,0,1
108074,-75.187969924812,4,1,0,100,0,1
108143,-75.757575757576,4,1,0,100,0,1
108211,-76.335877862595,4,1,0,100,0,1
108280,-76.923076923077,4,1,0,100,0,1
108348,-77.519379844961,4,1,0,100,0,1
108417,-78.125,4,1,0,100,0,1
108485,-78.740157480315,4,1,0,100,0,1
108554,-79.365079365079,4,1,0,100,0,1
108622,-80,4,1,0,100,0,1
108690,-71.428571428571,4,1,0,100,0,1
108758,-71.942446043166,4,1,0,100,0,1
108827,-72.463768115942,4,1,0,100,0,1
108895,-72.992700729927,4,1,0,100,0,1
108964,-73.529411764706,4,1,0,100,0,1
109032,-74.074074074074,4,1,0,100,0,1
109101,-74.626865671642,4,1,0,100,0,1
109169,-75.187969924812,4,1,0,100,0,1
109238,-75.757575757576,4,1,0,100,0,1
109306,-76.335877862595,4,1,0,100,0,1
109375,-76.923076923077,4,1,0,100,0,1
109443,-77.519379844961,4,1,0,100,0,1
109512,-78.125,4,1,0,100,0,1
109580,-78.740157480315,4,1,0,100,0,1
109649,-79.365079365079,4,1,0,100,0,1
109717,-80,4,1,0,100,0,1
109786,-71.428571428571,4,1,0,100,0,1
109854,-71.942446043166,4,1,0,100,0,1
109923,-72.463768115942,4,1,0,100,0,1
109991,-72.992700729927,4,1,0,100,0,1
110060,-73.529411764706,4,1,0,100,0,1
110128,-74.074074074074,4,1,0,100,0,1
110197,-74.626865671642,4,1,0,100,0,1
110265,-75.187969924812,4,1,0,100,0,1
110334,-75.757575757576,4,1,0,100,0,1
110402,-76.335877862595,4,1,0,100,0,1
110471,-76.923076923077,4,1,0,100,0,1
110539,-77.519379844961,4,1,0,100,0,1
110608,-78.125,4,1,0,100,0,1
110676,-78.740157480315,4,1,0,100,0,1
110745,-79.365079365079,4,1,0,100,0,1
110813,-80,4,1,0,100,0,1
110882,-71.428571428571,4,1,0,100,0,1
110950,-71.942446043166,4,1,0,100,0,1
111019,-72.463768115942,4,1,0,100,0,1
111087,-72.992700729927,4,1,0,100,0,1
111156,-73.529411764706,4,1,0,100,0,1
111224,-74.074074074074,4,1,0,100,0,1
111293,-74.626865671642,4,1,0,100,0,1
111361,-75.187969924812,4,1,0,100,0,1
111430,-75.757575757576,4,1,0,100,0,1
111567,-76.923076923077,4,1,0,100,0,1
111635,-77.519379844961,4,1,0,100,0,1
111704,-78.125,4,1,0,100,0,1
111841,-79.365079365079,4,1,0,100,0,1
111978,-71.428571428571,4,1,0,100,0,1
112046,-71.942446043166,4,1,0,100,0,1
112115,-72.463768115942,4,1,0,100,0,1
112183,-72.992700729927,4,1,0,100,0,1
112252,-73.529411764706,4,1,0,100,0,1
112320,-74.074074074074,4,1,0,100,0,1
112389,-74.626865671642,4,1,0,100,0,1
112457,-75.187969924812,4,1,0,100,0,1
112526,-75.757575757576,4,1,0,100,0,1
112594,-76.335877862595,4,1,0,100,0,1
112663,-76.923076923077,4,1,0,100,0,1
112731,-77.519379844961,4,1,0,100,0,1
112800,-78.125,4,1,0,100,0,1
112868,-78.740157480315,4,1,0,100,0,1
112937,-79.365079365079,4,1,0,100,0,1
113005,-80,4,1,0,100,0,1
113074,-71.428571428571,4,1,0,100,0,1
113142,-71.942446043166,4,1,0,100,0,1
113211,-72.463768115942,4,1,0,100,0,1
113279,-72.992700729927,4,1,0,100,0,1
113348,-73.529411764706,4,1,0,100,0,1
113416,-74.074074074074,4,1,0,100,0,1
113485,-74.626865671642,4,1,0,100,0,1
113553,-75.187969924812,4,1,0,100,0,1
113622,-75.757575757576,4,1,0,100,0,1
113690,-76.335877862595,4,1,0,100,0,1
113759,-76.923076923077,4,1,0,100,0,1
113827,-77.519379844961,4,1,0,100,0,1
113896,-78.125,4,1,0,100,0,1
113964,-78.740157480315,4,1,0,100,0,1
114033,-79.365079365079,4,1,0,100,0,1
114101,-80,4,1,0,100,0,1
114170,-79.365079365079,4,1,0,100,0,1
114239,-78.740157480315,4,1,0,100,0,1
114307,-78.125,4,1,0,100,0,1
114376,-77.519379844961,4,1,0,100,0,1
114444,-76.923076923077,4,1,0,100,0,1
114513,-76.335877862595,4,1,0,100,0,1
114581,-75.757575757576,4,1,0,100,0,1
114650,-75.187969924812,4,1,0,100,0,1
114718,-74.626865671642,4,1,0,100,0,1
114787,-74.074074074074,4,1,0,100,0,1
114855,-73.529411764706,4,1,0,100,0,1
114924,-72.992700729927,4,1,0,100,0,1
114992,-72.463768115942,4,1,0,100,0,1
115061,-71.942446043166,4,1,0,100,0,1
115129,-71.428571428571,4,1,0,100,0,1
115198,-70.921985815603,4,1,0,100,0,1
115300,-70.422535211268,4,1,0,100,0,0
115540,-75.757575757576,4,1,0,100,0,0
115814,-84.7457627118644,4,1,0,100,0,0
115951,-89.285714285714,4,1,0,100,0,0
116019,-86.95652173913,4,1,0,100,0,0
116088,-66.666666666667,4,1,0,100,0,0
116396,-77.496165364108,4,1,0,100,0,1
116665,-82.446188515036,4,1,0,100,0,1
116802,-85.166158291861,4,1,0,100,0,1
116870,-86.583972580382,4,1,0,100,0,1
116939,-58.8235294117647,4,1,0,100,0,1
117076,-91.18253695428,4,1,0,100,0,1
117213,-94.521158129176,4,1,0,100,0,1
117281,-96.27075582978,4,1,0,100,0,1
117350,-98.113556500832,4,1,0,100,0,1
117487,-98.201094985661,4,1,0,100,0,1
117555,-96.490479036803,4,1,0,100,0,1
117624,-94.814566202383,4,1,0,100,0,1
117761,-91.653824316652,4,1,0,100,0,1
117898,-88.697017268446,4,1,0,100,0,1
118035,-58.8235294117647,4,1,0,100,0,1
118172,-83.321044093791,4,1,0,100,0,1
118309,-80.870249767409,4,1,0,100,0,1
118377,-79.706566974677,4,1,0,100,0,1
118446,-78.559510567297,4,1,0,100,0,1
118514,-77.460926789142,4,1,0,100,0,1
118583,-77.512590321874,4,1,0,100,0,1
118720,-79.909706546275,4,1,0,100,0,1
118788,-81.155433287483,4,1,0,100,0,1
118857,-82.459818308875,4,1,0,100,0,1
118994,-85.178055822907,4,1,0,100,0,1
119131,-58.8235294117647,4,1,0,100,0,1
119268,-91.190108191654,4,1,0,100,0,1
119336,-92.815941269009,4,1,0,100,0,1
119405,-94.526034712951,4,1,0,100,0,1
119473,-96.27413652434,4,1,0,100,0,1
119542,-98.115299334812,4,1,0,100,0,1
119679,-98.201094985661,4,1,0,100,0,1
119816,-94.814566202383,4,1,0,100,0,1
119884,-93.21894076885,4,1,0,100,0,1
119953,-91.653824316652,4,1,0,100,0,1
120090,-88.697017268446,4,1,0,100,0,1
120227,-58.8235294117647,4,1,0,100,0,1
120363,-83.339479312634,4,1,0,100,0,1
120500,-80.887616320687,4,1,0,100,0,1
120637,-78.575898755302,4,1,0,100,0,1
120706,-77.460926789142,4,1,0,100,0,1
120774,-77.495621716287,4,1,0,100,0,1
120911,-79.891672308734,4,1,0,100,0,1
121048,-82.440614811365,4,1,0,100,0,1
121185,-85.157565552081,4,1,0,100,0,1
121254,-86.594911937378,4,1,0,100,0,1
121322,-58.8235294117647,4,1,0,100,0,1
121459,-91.166623744527,4,1,0,100,0,1
121596,-94.500800854245,4,1,0,100,0,1
121665,-96.27413652434,4,1,0,100,0,1
121733,-98.088113050707,4,1,0,100,0,1
121870,-99.077924425963,4,1,0,100,0,1
121939,-97.257964326915,4,1,0,100,0,1
122007,-95.528632441384,4,1,0,100,0,1
122144,-92.224840121171,4,1,0,100,0,1
122281,-89.141927612851,4,1,0,100,0,1
122418,-58.8235294117647,4,1,0,100,0,1
122555,-83.555691087901,4,1,0,100,0,1
122692,-81.017149615612,4,1,0,100,0,1
122761,-79.796141244995,4,1,0,100,0,1
122829,-78.628309060908,4,1,0,100,0,1
122898,-77.477732221123,4,1,0,100,0,1
122966,-77.495621716287,4,1,0,100,0,1
123103,-79.891672308734,4,1,0,100,0,1
123240,-82.440614811365,4,1,0,100,0,1
123309,-83.786982248521,4,1,0,100,0,1
123377,-85.157565552081,4,1,0,100,0,1
123514,-58.8235294117647,4,1,0,100,0,1
123651,-91.166623744527,4,1,0,100,0,1
123720,-92.815941269009,4,1,0,100,0,1
123788,-94.500800854245,4,1,0,100,0,1
123925,-98.088113050707,4,1,0,100,0,1
124062,-98.243499225073,4,1,0,100,0,1
124131,-96.523136790458,4,1,0,100,0,1
124199,-94.885654885655,4,1,0,100,0,1
124268,-93.279921517332,4,1,0,100,0,1
124336,-91.749758764876,4,1,0,100,0,1
124473,-88.814509223943,4,1,0,100,0,1
124610,-58.8235294117647,4,1,0,100,0,1
124747,-83.473553295779,4,1,0,100,0,1
124889,-66.6666666666667,4,1,0,100,0,0
125163,-66.6666666666667,4,1,0,100,0,1
125432,-82.294850693628,4,1,0,100,0,1
125569,-85.034013605442,4,1,0,100,0,1
125637,-86.462450592885,4,1,0,100,0,1
125706,-58.8235294117647,4,1,0,100,0,1
125843,-91.098386257158,4,1,0,100,0,1
125980,-94.4669365722,4,1,0,100,0,1
126048,-96.23315919714,4,1,0,100,0,1
126117,-98.094170403587,4,1,0,100,0,1
126254,-98.202656941912,4,1,0,100,0,1
126322,-96.493473253135,4,1,0,100,0,1
126391,-94.818913480885,4,1,0,100,0,1
126528,-91.660588378313,4,1,0,100,0,1
126665,-88.705882352941,4,1,0,100,0,1
126802,-58.8235294117647,4,1,0,100,0,1
126939,-83.333333333333,4,1,0,100,0,1
127076,-80.88393048702,4,1,0,100,0,1
127144,-79.720871220131,4,1,0,100,0,1
127213,-78.574406002501,4,1,0,100,0,1
127281,-77.476366625565,4,1,0,100,0,1
127350,-77.496165364108,4,1,0,100,0,1
127487,-79.894578313253,4,1,0,100,0,1
127555,-81.14102171918,4,1,0,100,0,1
127624,-82.446188515036,4,1,0,100,0,1
127761,-85.166158291861,4,1,0,100,0,1
127898,-58.8235294117647,4,1,0,100,0,1
128035,-91.18253695428,4,1,0,100,0,1
128103,-92.809657102869,4,1,0,100,0,1
128172,-94.521158129176,4,1,0,100,0,1
128240,-96.27075582978,4,1,0,100,0,1
128309,-98.113556500832,4,1,0,100,0,1
128446,-98.201094985661,4,1,0,100,0,1
128583,-94.814566202383,4,1,0,100,0,1
128651,-93.21894076885,4,1,0,100,0,1
128720,-91.653824316652,4,1,0,100,0,1
128857,-88.697017268446,4,1,0,100,0,1
128994,-58.8235294117647,4,1,0,100,0,1
129131,-83.321044093791,4,1,0,100,0,1
129268,-80.870249767409,4,1,0,100,0,1
129405,-78.559510567297,4,1,0,100,0,1
129473,-77.460926789142,4,1,0,100,0,1
129542,-77.512590321874,4,1,0,100,0,1
129679,-79.909706546275,4,1,0,100,0,1
129816,-82.459818308875,4,1,0,100,0,1
129953,-85.178055822907,4,1,0,100,0,1
130021,-86.594911937378,4,1,0,100,0,1
130090,-58.8235294117647,4,1,0,100,0,1
130227,-91.190108191654,4,1,0,100,0,1
130363,-94.500800854245,4,1,0,100,0,1
130432,-96.27413652434,4,1,0,100,0,1
130500,-98.088113050707,4,1,0,100,0,1
130637,-98.774333093006,4,1,0,100,0,1
130706,-96.377066479071,4,1,0,100,0,1
130774,-94.125729989694,4,1,0,100,0,1
130911,-89.89501312336,4,1,0,100,0,1
131048,-86.028257456829,4,1,0,100,0,1
131185,-58.8235294117647,4,1,0,100,0,1
131322,-79.213645562301,4,1,0,100,0,1
131459,-76.195773081201,4,1,0,100,0,1
131528,-74.761255115962,4,1,0,100,0,1
131596,-73.399410661666,4,1,0,100,0,1
131665,-72.067332982641,4,1,0,100,0,1
131733,-72.08797176215,4,1,0,100,0,1
131870,-74.873096446701,4,1,0,100,0,1
131939,-76.358930112166,4,1,0,100,0,1
132007,-77.882076855383,4,1,0,100,0,1
132144,-81.143031784841,4,1,0,100,0,1
132281,-58.8235294117647,4,1,0,100,0,1
132418,-88.559039359573,4,1,0,100,0,1
132487,-90.645271423694,4,1,0,100,0,1
132555,-92.79972037749,4,1,0,100,0,1
132624,-95.093123209169,4,1,0,100,0,1
132692,-97.466960352423,4,1,0,100,0,1
132829,-67.753927329416,4,1,0,100,0,1
132966,-70.055796652201,4,1,0,100,0,1
133035,-71.275387914722,4,1,0,100,0,1
133103,-72.519573867283,4,1,0,100,0,1
133240,-75.162963948384,4,1,0,100,0,1
133377,-58.8235294117647,4,1,0,100,0,1
133514,-81.073324723777,4,1,0,100,0,1
133651,-84.391336818521,4,1,0,100,0,1
133720,-86.167454628641,4,1,0,100,0,1
133788,-87.99252452889,4,1,0,100,0,1
133857,-89.925194970555,4,1,0,100,0,1
133925,-90.9090909090909,4,1,0,100,0,1
134130,-100,4,1,0,100,0,1
134404,-111.111111111111,4,1,0,100,0,1
134610,-67.927927927928,4,1,0,100,0,1
134678,-70.520014964459,4,1,0,100,0,1
134747,-73.360575987546,4,1,0,100,0,1
134792,-75.339728217426,4,1,0,100,0,1
134838,-77.476366625565,4,1,0,100,0,1
134884,-79.737732656514,4,1,0,100,0,1
135026,-50,4,1,0,100,0,0
135266,-58.823529411765,4,1,0,100,0,0
135403,-60.512605545242,4,1,0,100,0,0
135472,-61.400577244417,4,1,0,100,0,0
135540,-62.30155060267,4,1,0,100,0,0
135677,-64.199491740788,4,1,0,100,0,0
135814,-66.216703253498,4,1,0,100,0,0
135883,-67.281443504894,4,1,0,100,0,0
135951,-68.364792639199,4,1,0,100,0,0
136088,-70.656924098871,4,1,0,100,0,0
136157,-71.870554765292,4,1,0,100,0,0
136225,-73.108088554478,4,1,0,100,0,0
136362,-75.735431890575,4,1,0,100,0,0
136499,-78.558656611988,4,1,0,100,0,0
136665,-78.444825614637,4,1,0,100,0,0
136733,-75.509080902587,4,1,0,100,0,0
136802,-72.746553552492,4,1,0,100,0,0
136870,-70.21494370522,4,1,0,100,0,0
136939,-67.820069204152,4,1,0,100,0,0
137007,-65.614538498326,4,1,0,100,0,0
137076,-63.518518518519,4,1,0,100,0,0
137144,-61.579892280072,4,1,0,100,0,0
137213,-59.730082716587,4,1,0,100,0,0
137281,-58.012684989429,4,1,0,100,0,0
137350,-56.368118323747,4,1,0,100,0,0
137418,-54.836131095124,4,1,0,100,0,0
137487,-53.364449630494,4,1,0,100,0,0
137555,-51.989389920424,4,1,0,100,0,0
137624,-50.664697193501,4,1,0,100,0,0
137692,-49.423631123919,4,1,0,100,0,0
137761,-48.224956063269,4,1,0,100,0,0
137829,-47.099210435977,4,1,0,100,0,0
137898,-46.009389671362,4,1,0,100,0,0
137966,-44.983606557377,4,1,0,100,0,0
138035,-43.988457839051,4,1,0,100,0,0
138103,-43.049890178852,4,1,0,100,0,0
138172,-42.137592137592,4,1,0,100,0,0
138240,-41.275571600481,4,1,0,100,0,0
138309,-40.43619216033,4,1,0,100,0,0
138377,-39.641722045652,4,1,0,100,0,0
138446,-38.866855524079,4,1,0,100,0,0
138514,-38.132295719844,4,1,0,100,0,0
138583,-37.414780474502,4,1,0,100,0,0
138651,-36.73360107095,4,1,0,100,0,0
138720,-36.067297581493,4,1,0,100,0,0
138788,-35.433884297521,4,1,0,100,0,0
138857,-34.813499111901,4,1,0,100,0,0

[HitObjects]
259,190,232,5,4,0:0:0:0:
259,190,505,1,8,0:0:0:0:
259,190,779,1,8,0:0:0:0:
259,190,916,1,0,0:0:0:0:
259,190,1053,1,8,0:0:0:0:
259,190,1327,1,0,0:0:0:0:
259,190,1464,1,0,0:0:0:0:
259,190,1601,1,0,0:0:0:0:
259,190,1738,1,8,0:0:0:0:
259,190,2012,1,0,0:0:0:0:
259,190,2423,1,8,0:0:0:0:
259,190,2697,1,0,0:0:0:0:
259,190,2971,1,8,0:0:0:0:
259,190,3245,1,0,0:0:0:0:
259,190,3519,1,8,0:0:0:0:
259,190,3656,1,8,0:0:0:0:
259,190,3793,1,8,0:0:0:0:
259,190,3930,1,0,0:0:0:0:
259,190,4204,1,8,0:0:0:0:
259,190,4341,1,8,0:0:0:0:
259,190,4387,1,8,0:0:0:0:
259,190,4432,1,8,0:0:0:0:
259,190,4478,1,8,0:0:0:0:
259,190,4524,1,8,0:0:0:0:
259,190,4569,1,8,0:0:0:0:
259,190,4615,1,0,0:0:0:0:
259,190,4752,1,0,0:0:0:0:
259,190,4889,1,8,0:0:0:0:
259,190,5026,1,0,0:0:0:0:
259,190,5163,1,0,0:0:0:0:
259,190,5300,1,8,0:0:0:0:
259,190,5437,1,0,0:0:0:0:
259,190,5505,1,8,0:0:0:0:
259,190,5574,1,0,0:0:0:0:
259,190,5642,1,0,0:0:0:0:
259,190,5711,1,8,0:0:0:0:
259,190,5848,1,0,0:0:0:0:
259,190,5985,1,8,0:0:0:0:
259,190,6122,1,0,0:0:0:0:
259,190,6190,1,8,0:0:0:0:
259,190,6259,1,0,0:0:0:0:
259,190,6396,1,0,0:0:0:0:
259,190,6533,1,8,0:0:0:0:
259,190,6601,1,8,0:0:0:0:
259,190,6670,1,8,0:0:0:0:
259,190,6738,1,8,0:0:0:0:
259,190,6807,1,0,0:0:0:0:
259,190,6944,1,0,0:0:0:0:
259,190,7081,1,8,0:0:0:0:
259,190,7218,1,0,0:0:0:0:
256,192,7286,1,0,0:0:0:0:
259,190,7355,1,8,0:0:0:0:
259,190,7492,1,8,0:0:0:0:
259,190,7629,1,0,0:0:0:0:
259,190,7697,1,0,0:0:0:0:
259,190,7766,1,0,0:0:0:0:
259,190,7834,1,0,0:0:0:0:
259,190,7903,1,8,0:0:0:0:
259,190,8040,1,8,0:0:0:0:
259,190,8177,1,8,0:0:0:0:
259,190,8314,1,0,0:0:0:0:
259,190,8382,1,0,0:0:0:0:
259,190,8451,1,8,0:0:0:0:
259,190,8519,1,8,0:0:0:0:
259,190,8588,1,0,0:0:0:0:
259,190,8656,1,0,0:0:0:0:
259,190,8725,1,8,0:0:0:0:
259,190,8793,1,8,0:0:0:0:
259,190,8862,1,8,0:0:0:0:
259,190,8930,1,8,0:0:0:0:
259,190,8999,1,0,0:0:0:0:
259,190,9273,1,0,0:0:0:0:
259,190,9547,1,8,0:0:0:0:
259,190,9684,1,0,0:0:0:0:
259,190,9752,1,0,0:0:0:0:
259,190,9821,1,8,0:0:0:0:
259,190,9866,1,8,0:0:0:0:
259,190,9912,1,8,0:0:0:0:
259,190,9958,1,0,0:0:0:0:
259,190,10095,1,4,0:0:0:0:
259,190,10368,1,0,0:0:0:0:
259,190,10505,1,8,0:0:0:0:
259,190,10574,1,8,0:0:0:0:
259,190,10642,1,0,0:0:0:0:
259,190,10779,1,8,0:0:0:0:
259,190,10916,1,0,0:0:0:0:
259,190,10985,1,8,0:0:0:0:
259,190,11053,1,0,0:0:0:0:
259,190,11190,1,8,0:0:0:0:
259,190,11259,1,8,0:0:0:0:
259,190,11327,1,8,0:0:0:0:
259,190,11464,1,0,0:0:0:0:
259,190,11601,1,8,0:0:0:0:
259,190,11738,1,0,0:0:0:0:
259,190,11807,1,0,0:0:0:0:
259,190,11875,1,0,0:0:0:0:
259,190,12012,1,8,0:0:0:0:
259,190,12081,1,8,0:0:0:0:
259,190,12149,1,8,0:0:0:0:
259,190,12218,1,8,0:0:0:0:
259,190,12286,1,4,0:0:0:0:
259,190,12560,1,0,0:0:0:0:
259,190,12834,1,12,0:0:0:0:
259,190,12971,1,0,0:0:0:0:
259,190,13108,1,0,0:0:0:0:
259,190,13245,1,8,0:0:0:0:
259,190,13382,1,0,0:0:0:0:
256,192,13451,1,0,0:0:0:0:
259,190,13519,1,8,0:0:0:0:
259,190,13656,1,0,0:0:0:0:
259,190,13793,1,0,0:0:0:0:
259,190,13862,1,0,0:0:0:0:
259,190,13930,1,12,0:0:0:0:
259,190,14067,1,0,0:0:0:0:
259,190,14204,1,0,0:0:0:0:
259,190,14341,1,8,0:0:0:0:
259,190,14410,1,8,0:0:0:0:
259,190,14478,1,0,0:0:0:0:
259,190,14752,1,0,0:0:0:0:
259,190,14889,1,0,0:0:0:0:
259,190,14958,1,0,0:0:0:0:
259,190,15026,1,12,0:0:0:0:
259,190,15163,1,8,0:0:0:0:
259,190,15300,1,0,0:0:0:0:
259,190,15368,1,8,0:0:0:0:
259,190,15437,1,0,0:0:0:0:
259,190,15574,1,8,0:0:0:0:
259,190,15642,1,8,0:0:0:0:
259,190,15711,1,0,0:0:0:0:
259,190,15848,1,8,0:0:0:0:
259,190,15985,1,0,0:0:0:0:
259,190,16122,1,12,0:0:0:0:
259,190,16259,1,0,0:0:0:0:
259,190,16396,1,8,0:0:0:0:
259,190,16464,1,0,0:0:0:0:
259,190,16533,1,8,0:0:0:0:
259,190,16601,1,8,0:0:0:0:
259,190,16670,1,0,0:0:0:0:
259,190,16807,1,0,0:0:0:0:
259,190,16944,1,8,0:0:0:0:
259,190,17081,1,0,0:0:0:0:
259,190,17218,1,12,0:0:0:0:
259,190,17355,1,0,0:0:0:0:
259,190,17492,1,0,0:0:0:0:
259,190,17629,1,8,0:0:0:0:
256,192,17697,1,8,0:0:0:0:
256,192,17766,1,0,0:0:0:0:
256,192,17834,1,0,0:0:0:0:
259,190,17903,1,0,0:0:0:0:
259,190,18040,1,8,0:0:0:0:
259,190,18177,1,0,0:0:0:0:
259,190,18314,1,12,0:0:0:0:
256,192,18451,1,0,0:0:0:0:
256,192,18519,1,0,0:0:0:0:
259,190,18588,1,12,0:0:0:0:
259,190,18862,1,0,0:0:0:0:
256,192,19136,1,0,0:0:0:0:
256,192,19273,1,8,0:0:0:0:
256,192,19341,1,8,0:0:0:0:
256,192,19410,1,0,0:0:0:0:
256,192,19547,1,8,0:0:0:0:
256,192,19684,1,0,0:0:0:0:
256,192,19752,1,8,0:0:0:0:
256,192,19821,1,0,0:0:0:0:
256,192,19958,1,8,0:0:0:0:
256,192,20026,1,8,0:0:0:0:
256,192,20095,1,8,0:0:0:0:
256,192,20232,1,0,0:0:0:0:
256,192,20368,1,8,0:0:0:0:
256,192,20505,1,0,0:0:0:0:
256,192,20574,1,0,0:0:0:0:
256,192,20642,1,0,0:0:0:0:
256,192,20779,1,0,0:0:0:0:
256,192,20916,1,8,0:0:0:0:
256,192,21053,1,4,0:0:0:0:
256,192,21327,1,0,0:0:0:0:
256,192,21601,1,12,0:0:0:0:
256,192,21738,1,0,0:0:0:0:
256,192,21875,1,0,0:0:0:0:
256,192,22012,1,8,0:0:0:0:
256,192,22286,1,0,0:0:0:0:
256,192,22423,1,8,0:0:0:0:
256,192,22560,1,0,0:0:0:0:
256,192,22697,1,12,0:0:0:0:
256,192,22834,1,0,0:0:0:0:
256,192,22903,1,8,0:0:0:0:
256,192,22971,1,0,0:0:0:0:
256,192,23108,1,8,0:0:0:0:
256,192,23177,1,8,0:0:0:0:
256,192,23245,1,0,0:0:0:0:
256,192,23519,1,0,0:0:0:0:
256,192,23656,1,0,0:0:0:0:
256,192,23725,1,0,0:0:0:0:
256,192,23793,1,12,0:0:0:0:
256,192,23930,1,8,0:0:0:0:
256,192,24067,1,0,0:0:0:0:
256,192,24136,1,8,0:0:0:0:
256,192,24204,1,0,0:0:0:0:
256,192,24341,1,8,0:0:0:0:
256,192,24410,1,8,0:0:0:0:
256,192,24478,1,0,0:0:0:0:
256,192,24615,1,8,0:0:0:0:
256,192,24752,1,0,0:0:0:0:
256,192,24889,1,12,0:0:0:0:
256,192,25026,1,0,0:0:0:0:
256,192,25163,1,8,0:0:0:0:
256,192,25232,1,8,0:0:0:0:
256,192,25300,1,8,0:0:0:0:
256,192,25368,1,8,0:0:0:0:
256,192,25437,1,0,0:0:0:0:
256,192,25574,1,8,0:0:0:0:
256,192,25711,1,0,0:0:0:0:
256,192,25848,1,0,0:0:0:0:
256,192,25985,1,12,0:0:0:0:
256,192,26122,1,0,0:0:0:0:
256,192,26259,1,0,0:0:0:0:
256,192,26396,1,8,0:0:0:0:
256,192,26533,1,0,0:0:0:0:
256,192,26670,1,8,0:0:0:0:
256,192,26807,1,8,0:0:0:0:
256,192,26944,1,0,0:0:0:0:
256,192,27081,1,8,0:0:0:0:
256,192,27149,1,8,0:0:0:0:
256,192,27218,1,0,0:0:0:0:
256,192,27355,1,8,0:0:0:0:
256,192,27492,1,8,0:0:0:0:
256,192,27629,1,4,0:0:0:0:
256,192,27903,1,8,0:0:0:0:
256,192,28314,1,0,0:0:0:0:
256,192,28451,1,8,0:0:0:0:
256,192,28725,1,0,0:0:0:0:
256,192,28999,1,8,0:0:0:0:
256,192,29410,1,0,0:0:0:0:
256,192,29547,1,8,0:0:0:0:
256,192,29821,1,0,0:0:0:0:
256,192,30095,1,8,0:0:0:0:
256,192,30505,1,0,0:0:0:0:
256,192,30642,1,8,0:0:0:0:
256,192,30916,1,0,0:0:0:0:
256,192,31190,1,8,0:0:0:0:
256,192,31327,1,0,0:0:0:0:
256,192,31601,1,0,0:0:0:0:
256,192,31738,1,8,0:0:0:0:
256,192,32012,1,0,0:0:0:0:
256,192,32286,1,8,0:0:0:0:
256,192,32697,1,0,0:0:0:0:
256,192,32834,1,8,0:0:0:0:
256,192,33108,1,0,0:0:0:0:
256,192,33382,1,8,0:0:0:0:
256,192,33793,1,0,0:0:0:0:
256,192,33930,1,8,0:0:0:0:
256,192,34204,1,0,0:0:0:0:
256,192,34478,1,8,0:0:0:0:
256,192,34615,1,0,0:0:0:0:
256,192,34752,1,0,0:0:0:0:
256,192,34889,1,0,0:0:0:0:
256,192,35026,1,8,0:0:0:0:
256,192,35300,1,0,0:0:0:0:
256,192,35574,1,8,0:0:0:0:
256,192,35711,1,0,0:0:0:0:
256,192,35985,1,0,0:0:0:0:
256,192,36122,1,8,0:0:0:0:
256,192,36259,1,0,0:0:0:0:
256,192,36396,1,8,0:0:0:0:
256,192,36670,1,8,0:0:0:0:
256,192,36944,1,8,0:0:0:0:
256,192,37218,1,8,0:0:0:0:
256,192,37492,1,8,0:0:0:0:
256,192,37766,1,8,0:0:0:0:
256,192,38040,1,8,0:0:0:0:
256,192,38314,1,8,0:0:0:0:
256,192,38451,1,8,0:0:0:0:
256,192,38588,1,8,0:0:0:0:
256,192,38862,1,8,0:0:0:0:
256,192,39136,1,8,0:0:0:0:
256,192,39410,1,8,0:0:0:0:
256,192,39684,1,8,0:0:0:0:
256,192,39821,1,8,0:0:0:0:
256,192,39958,1,8,0:0:0:0:
256,192,40232,1,8,0:0:0:0:
256,192,40437,1,8,0:0:0:0:
256,192,40505,1,8,0:0:0:0:
256,192,40642,1,8,0:0:0:0:
256,192,40779,1,8,0:0:0:0:
256,192,41053,1,8,0:0:0:0:
256,192,41327,1,8,0:0:0:0:
256,192,41601,1,8,0:0:0:0:
256,192,41738,1,8,0:0:0:0:
256,192,41875,1,8,0:0:0:0:
256,192,42149,1,8,0:0:0:0:
256,192,42423,1,8,0:0:0:0:
256,192,42697,1,8,0:0:0:0:
256,192,42834,1,8,0:0:0:0:
256,192,42971,1,8,0:0:0:0:
256,192,43245,1,8,0:0:0:0:
256,192,43519,1,8,0:0:0:0:
256,192,43793,1,8,0:0:0:0:
256,192,44067,1,8,0:0:0:0:
256,192,44204,1,8,0:0:0:0:
256,192,44341,1,8,0:0:0:0:
256,192,44615,1,8,0:0:0:0:
256,192,44752,1,0,0:0:0:0:
256,192,44821,1,0,0:0:0:0:
256,192,44889,1,8,0:0:0:0:
256,192,44935,1,8,0:0:0:0:
256,192,44980,1,8,0:0:0:0:
256,192,45026,1,8,0:0:0:0:
256,192,45072,1,8,0:0:0:0:
256,192,45117,1,8,0:0:0:0:
256,192,45163,1,0,0:0:0:0:
256,192,45300,1,0,0:0:0:0:
256,192,45368,1,0,0:0:0:0:
256,192,45437,1,8,0:0:0:0:
256,192,45574,1,0,0:0:0:0:
256,192,45711,1,0,0:0:0:0:
256,192,45779,1,0,0:0:0:0:
256,192,45848,1,8,0:0:0:0:
256,192,45985,1,0,0:0:0:0:
256,192,46122,1,8,0:0:0:0:
256,192,46259,1,0,0:0:0:0:
256,192,46396,1,0,0:0:0:0:
256,192,46464,1,0,0:0:0:0:
256,192,46533,1,8,0:0:0:0:
256,192,46601,1,0,0:0:0:0:
256,192,46670,1,8,0:0:0:0:
256,192,46807,1,0,0:0:0:0:
256,192,46875,1,0,0:0:0:0:
256,192,46944,1,8,0:0:0:0:
256,192,47081,1,0,0:0:0:0:
256,192,47149,1,0,0:0:0:0:
256,192,47218,1,8,0:0:0:0:
256,192,47286,1,8,0:0:0:0:
256,192,47355,1,0,0:0:0:0:
256,192,47492,1,8,0:0:0:0:
256,192,47629,1,0,0:0:0:0:
256,192,47766,1,8,0:0:0:0:
256,192,47834,1,8,0:0:0:0:
256,192,47903,1,0,0:0:0:0:
256,192,48040,1,0,0:0:0:0:
256,192,48177,1,8,0:0:0:0:
256,192,48245,1,8,0:0:0:0:
256,192,48314,1,8,0:0:0:0:
256,192,48382,1,8,0:0:0:0:
256,192,48451,1,0,0:0:0:0:
256,192,48519,1,0,0:0:0:0:
256,192,48588,1,8,0:0:0:0:
256,192,48725,1,8,0:0:0:0:
256,192,48862,1,0,0:0:0:0:
256,192,48930,1,0,0:0:0:0:
256,192,48999,1,8,0:0:0:0:
256,192,49136,1,8,0:0:0:0:
256,192,49273,1,0,0:0:0:0:
256,192,49341,1,8,0:0:0:0:
256,192,49410,1,8,0:0:0:0:
256,192,49478,1,8,0:0:0:0:
256,192,49547,1,0,0:0:0:0:
256,192,49684,1,0,0:0:0:0:
256,192,49821,1,8,0:0:0:0:
256,192,49958,1,0,0:0:0:0:
256,192,50095,1,0,0:0:0:0:
256,192,50163,1,0,0:0:0:0:
256,192,50232,1,8,0:0:0:0:
256,192,50368,1,0,0:0:0:0:
256,192,50505,1,8,0:0:0:0:
256,192,50642,1,0,0:0:0:0:
256,192,50711,1,8,0:0:0:0:
256,192,50779,1,0,0:0:0:0:
256,192,50916,1,8,0:0:0:0:
256,192,51053,1,8,0:0:0:0:
256,192,51190,1,0,0:0:0:0:
256,192,51259,1,0,0:0:0:0:
256,192,51327,1,8,0:0:0:0:
256,192,51464,1,0,0:0:0:0:
256,192,51533,1,8,0:0:0:0:
256,192,51601,1,0,0:0:0:0:
256,192,51670,1,0,0:0:0:0:
256,192,51738,1,8,0:0:0:0:
256,192,51875,1,0,0:0:0:0:
256,192,52012,1,8,0:0:0:0:
256,192,52149,1,8,0:0:0:0:
256,192,52218,1,8,0:0:0:0:
256,192,52286,1,0,0:0:0:0:
256,192,52423,1,0,0:0:0:0:
256,192,52560,1,8,0:0:0:0:
256,192,52629,1,0,0:0:0:0:
256,192,52697,1,8,0:0:0:0:
256,192,52766,1,8,0:0:0:0:
256,192,52834,1,0,0:0:0:0:
256,192,52971,1,0,0:0:0:0:
256,192,53108,1,8,0:0:0:0:
256,192,53245,1,0,0:0:0:0:
256,192,53382,1,8,0:0:0:0:
256,192,53519,1,8,0:0:0:0:
256,192,53656,1,0,0:0:0:0:
256,192,53725,1,0,0:0:0:0:
256,192,53793,1,8,0:0:0:0:
256,192,53862,1,8,0:0:0:0:
256,192,53930,1,8,0:0:0:0:
256,192,54204,1,8,0:0:0:0:
256,192,54478,1,8,0:0:0:0:
256,192,54752,1,8,0:0:0:0:
256,192,54889,1,0,0:0:0:0:
256,192,55026,1,8,0:0:0:0:
256,192,55300,1,8,0:0:0:0:
256,192,55574,1,8,0:0:0:0:
256,192,55711,1,0,0:0:0:0:
256,192,55848,1,8,0:0:0:0:
256,192,55916,1,0,0:0:0:0:
256,192,55985,1,0,0:0:0:0:
256,192,56053,1,0,0:0:0:0:
256,192,56122,1,8,0:0:0:0:
256,192,56396,1,8,0:0:0:0:
256,192,56670,1,8,0:0:0:0:
256,192,56944,1,8,0:0:0:0:
256,192,57081,1,0,0:0:0:0:
256,192,57218,1,8,0:0:0:0:
256,192,57492,1,8,0:0:0:0:
256,192,57766,1,8,0:0:0:0:
256,192,57903,1,0,0:0:0:0:
256,192,58040,1,8,0:0:0:0:
256,192,58108,1,8,0:0:0:0:
256,192,58177,1,0,0:0:0:0:
256,192,58245,1,0,0:0:0:0:
256,192,58314,1,8,0:0:0:0:
256,192,58451,1,8,0:0:0:0:
256,192,58588,1,8,0:0:0:0:
256,192,58725,1,8,0:0:0:0:
256,192,58862,1,8,0:0:0:0:
256,192,58999,1,8,0:0:0:0:
256,192,59136,1,8,0:0:0:0:
256,192,59273,1,8,0:0:0:0:
256,192,59410,1,8,0:0:0:0:
256,192,59547,1,8,0:0:0:0:
256,192,59684,1,8,0:0:0:0:
256,192,59821,1,8,0:0:0:0:
256,192,59958,1,8,0:0:0:0:
256,192,60095,1,8,0:0:0:0:
256,192,60232,1,8,0:0:0:0:
256,192,60368,1,8,0:0:0:0:
256,192,60505,1,0,0:0:0:0:
256,192,60574,1,0,0:0:0:0:
256,192,60642,1,8,0:0:0:0:
256,192,60711,1,8,0:0:0:0:
256,192,60779,1,0,0:0:0:0:
256,192,60848,1,8,0:0:0:0:
256,192,60916,1,8,0:0:0:0:
256,192,60985,1,8,0:0:0:0:
256,192,61053,1,0,0:0:0:0:
256,192,61122,1,0,0:0:0:0:
256,192,61190,1,8,0:0:0:0:
256,192,61259,1,8,0:0:0:0:
256,192,61327,1,0,0:0:0:0:
256,192,61396,1,8,0:0:0:0:
256,192,61464,1,8,0:0:0:0:
256,192,61533,1,8,0:0:0:0:
256,192,61601,1,0,0:0:0:0:
256,192,61670,1,0,0:0:0:0:
256,192,61738,1,0,0:0:0:0:
256,192,61807,1,8,0:0:0:0:
256,192,61875,1,0,0:0:0:0:
256,192,61944,1,0,0:0:0:0:
256,192,62012,1,8,0:0:0:0:
256,192,62081,1,8,0:0:0:0:
256,192,62149,1,0,0:0:0:0:
256,192,62218,1,0,0:0:0:0:
256,192,62286,1,8,0:0:0:0:
256,192,62355,1,8,0:0:0:0:
256,192,62423,1,8,0:0:0:0:
256,192,62492,1,8,0:0:0:0:
256,192,62560,1,0,0:0:0:0:
256,192,62629,1,0,0:0:0:0:
259,190,62697,1,8,0:0:0:0:
259,190,62971,1,8,0:0:0:0:
259,190,63108,1,8,0:0:0:0:
259,190,63177,1,8,0:0:0:0:
259,190,63245,1,8,0:0:0:0:
259,190,63382,1,0,0:0:0:0:
259,190,63519,1,8,0:0:0:0:
259,190,63565,1,8,0:0:0:0:
259,190,63610,1,8,0:0:0:0:
259,190,63656,1,0,0:0:0:0:
256,192,63793,1,0,0:0:0:0:
256,192,64067,1,0,0:0:0:0:
256,192,64341,1,0,0:0:0:0:
256,192,64478,1,8,0:0:0:0:
256,192,64547,1,0,0:0:0:0:
256,192,64752,1,0,0:0:0:0:
256,192,64889,1,0,0:0:0:0:
256,192,65163,1,0,0:0:0:0:
256,192,65437,1,0,0:0:0:0:
256,192,65574,1,8,0:0:0:0:
256,192,65642,1,0,0:0:0:0:
256,192,65711,1,0,0:0:0:0:
256,192,65779,1,8,0:0:0:0:
256,192,65848,1,0,0:0:0:0:
256,192,65985,1,8,0:0:0:0:
256,192,66259,1,8,0:0:0:0:
256,192,66533,1,8,0:0:0:0:
256,192,66670,1,0,0:0:0:0:
256,192,66738,1,8,0:0:0:0:
256,192,66944,1,8,0:0:0:0:
256,192,67081,1,8,0:0:0:0:
256,192,67149,1,0,0:0:0:0:
256,192,67286,1,0,0:0:0:0:
256,192,67355,1,8,0:0:0:0:
256,192,67423,1,8,0:0:0:0:
256,192,67492,1,0,0:0:0:0:
256,192,67629,1,8,0:0:0:0:
256,192,67766,1,0,0:0:0:0:
256,192,67903,1,8,0:0:0:0:
256,192,68040,1,8,0:0:0:0:
256,192,68177,1,0,0:0:0:0:
256,192,68451,1,0,0:0:0:0:
256,192,68725,1,0,0:0:0:0:
256,192,68862,1,8,0:0:0:0:
256,192,68930,1,0,0:0:0:0:
256,192,69136,1,0,0:0:0:0:
256,192,69273,1,0,0:0:0:0:
256,192,69547,1,0,0:0:0:0:
256,192,69821,1,0,0:0:0:0:
256,192,69958,1,8,0:0:0:0:
256,192,70026,1,0,0:0:0:0:
256,192,70232,1,0,0:0:0:0:
256,192,70368,1,8,0:0:0:0:
256,192,70642,1,8,0:0:0:0:
256,192,70916,1,0,0:0:0:0:
256,192,71053,1,8,0:0:0:0:
256,192,71122,1,0,0:0:0:0:
256,192,71327,1,0,0:0:0:0:
256,192,71464,1,8,0:0:0:0:
256,192,71738,1,0,0:0:0:0:
256,192,71875,1,0,0:0:0:0:
256,192,72012,1,8,0:0:0:0:
256,192,72149,1,0,0:0:0:0:
256,192,72286,1,12,0:0:0:0:
256,192,72560,1,0,0:0:0:0:
256,192,72629,1,0,0:0:0:0:
256,192,72697,1,8,0:0:0:0:
256,192,72834,1,0,0:0:0:0:
256,192,72903,1,0,0:0:0:0:
256,192,72971,1,8,0:0:0:0:
256,192,73108,1,0,0:0:0:0:
256,192,73177,1,8,0:0:0:0:
256,192,73245,1,8,0:0:0:0:
256,192,73314,1,0,0:0:0:0:
256,192,73382,1,8,0:0:0:0:
256,192,73519,1,0,0:0:0:0:
256,192,73656,1,0,0:0:0:0:
256,192,73725,1,0,0:0:0:0:
256,192,73793,1,8,0:0:0:0:
256,192,73930,1,0,0:0:0:0:
256,192,73999,1,0,0:0:0:0:
256,192,74067,1,8,0:0:0:0:
256,192,74204,1,0,0:0:0:0:
256,192,74273,1,8,0:0:0:0:
256,192,74341,1,8,0:0:0:0:
256,192,74410,1,0,0:0:0:0:
256,192,74478,1,8,0:0:0:0:
256,192,74615,1,0,0:0:0:0:
256,192,74752,1,8,0:0:0:0:
256,192,74889,1,0,0:0:0:0:
256,192,74958,1,0,0:0:0:0:
256,192,75026,1,8,0:0:0:0:
256,192,75163,1,0,0:0:0:0:
256,192,75232,1,0,0:0:0:0:
256,192,75300,1,8,0:0:0:0:
256,192,75437,1,0,0:0:0:0:
256,192,75505,1,8,0:0:0:0:
256,192,75574,1,0,0:0:0:0:
256,192,75642,1,0,0:0:0:0:
256,192,75711,1,8,0:0:0:0:
256,192,75848,1,8,0:0:0:0:
256,192,75985,1,0,0:0:0:0:
256,192,76053,1,0,0:0:0:0:
256,192,76122,1,8,0:0:0:0:
256,192,76259,1,0,0:0:0:0:
256,192,76327,1,0,0:0:0:0:
256,192,76396,1,8,0:0:0:0:
256,192,76533,1,0,0:0:0:0:
256,192,76601,1,8,0:0:0:0:
256,192,76670,1,0,0:0:0:0:
256,192,76738,1,0,0:0:0:0:
256,192,76807,1,8,0:0:0:0:
256,192,76944,1,0,0:0:0:0:
256,192,77081,1,0,0:0:0:0:
256,192,77149,1,8,0:0:0:0:
256,192,77218,1,0,0:0:0:0:
256,192,77355,1,8,0:0:0:0:
256,192,77492,1,0,0:0:0:0:
256,192,77629,1,8,0:0:0:0:
256,192,77697,1,0,0:0:0:0:
256,192,77766,1,8,0:0:0:0:
256,192,77903,1,8,0:0:0:0:
256,192,78040,1,0,0:0:0:0:
256,192,78177,1,0,0:0:0:0:
256,192,78245,1,8,0:0:0:0:
256,192,78314,1,0,0:0:0:0:
256,192,78451,1,8,0:0:0:0:
256,192,78588,1,0,0:0:0:0:
256,192,78725,1,8,0:0:0:0:
256,192,78793,1,0,0:0:0:0:
256,192,78862,1,8,0:0:0:0:
256,192,78999,1,8,0:0:0:0:
256,192,79136,1,0,0:0:0:0:
256,192,79273,1,8,0:0:0:0:
256,192,79341,1,8,0:0:0:0:
256,192,79410,1,0,0:0:0:0:
256,192,79547,1,8,0:0:0:0:
256,192,79684,1,0,0:0:0:0:
256,192,79821,1,8,0:0:0:0:
256,192,79889,1,0,0:0:0:0:
256,192,79958,1,8,0:0:0:0:
256,192,80095,1,8,0:0:0:0:
256,192,80232,1,4,0:0:0:0:
256,192,80368,8,0,80916,0:0:0:0:
256,192,81053,5,12,0:0:0:0:
256,192,81327,1,4,0:0:0:0:
256,192,89821,5,0,0:0:0:0:
256,192,89889,1,0,0:0:0:0:
256,192,89958,1,8,0:0:0:0:
256,192,90095,1,4,0:0:0:0:
256,192,90368,1,8,0:0:0:0:
256,192,90642,1,0,0:0:0:0:
256,192,90779,1,8,0:0:0:0:
256,192,90916,1,0,0:0:0:0:
256,192,91053,1,8,0:0:0:0:
256,192,91190,1,8,0:0:0:0:
256,192,91327,1,0,0:0:0:0:
256,192,91464,1,8,0:0:0:0:
256,192,91738,1,0,0:0:0:0:
256,192,91875,1,0,0:0:0:0:
256,192,92012,1,8,0:0:0:0:
256,192,92149,1,8,0:0:0:0:
256,192,92286,1,0,0:0:0:0:
256,192,92560,1,8,0:0:0:0:
256,192,92834,1,0,0:0:0:0:
256,192,92971,1,8,0:0:0:0:
256,192,93108,1,0,0:0:0:0:
256,192,93245,1,8,0:0:0:0:
256,192,93382,1,8,0:0:0:0:
256,192,93519,1,0,0:0:0:0:
256,192,93656,1,8,0:0:0:0:
256,192,93793,1,8,0:0:0:0:
256,192,93930,1,0,0:0:0:0:
256,192,94067,1,8,0:0:0:0:
256,192,94204,1,0,0:0:0:0:
256,192,94341,1,0,0:0:0:0:
256,192,94478,1,8,0:0:0:0:
256,192,94615,1,8,0:0:0:0:
256,192,94752,1,8,0:0:0:0:
256,192,94889,1,8,0:0:0:0:
256,192,95026,1,8,0:0:0:0:
256,192,95163,1,8,0:0:0:0:
256,192,95300,1,8,0:0:0:0:
256,192,95437,1,8,0:0:0:0:
256,192,95574,1,8,0:0:0:0:
256,192,95711,1,8,0:0:0:0:
256,192,95848,1,8,0:0:0:0:
256,192,95985,1,8,0:0:0:0:
256,192,96122,1,8,0:0:0:0:
256,192,96259,1,8,0:0:0:0:
256,192,96396,1,8,0:0:0:0:
256,192,96533,1,8,0:0:0:0:
256,192,96670,1,0,0:0:0:0:
256,192,96738,1,0,0:0:0:0:
256,192,96807,1,8,0:0:0:0:
256,192,96875,1,8,0:0:0:0:
256,192,96944,1,8,0:0:0:0:
256,192,97012,1,8,0:0:0:0:
256,192,97081,1,0,0:0:0:0:
256,192,97149,1,0,0:0:0:0:
256,192,97218,1,8,0:0:0:0:
256,192,97286,1,8,0:0:0:0:
256,192,97355,1,8,0:0:0:0:
256,192,97423,1,8,0:0:0:0:
256,192,97492,1,0,0:0:0:0:
256,192,97560,1,0,0:0:0:0:
256,192,97629,1,8,0:0:0:0:
256,192,97697,1,8,0:0:0:0:
256,192,97766,1,0,0:0:0:0:
256,192,98588,1,12,0:0:0:0:
256,192,98862,5,0,0:0:0:0:
256,192,98930,1,0,0:0:0:0:
256,192,98999,1,8,0:0:0:0:
256,192,99067,1,0,0:0:0:0:
255,184,99136,1,0,0:0:0:0:
256,192,99204,1,8,0:0:0:0:
256,192,99273,1,0,0:0:0:0:
256,192,99341,1,0,0:0:0:0:
256,192,99410,1,8,0:0:0:0:
256,192,99478,1,8,0:0:0:0:
256,192,99547,1,0,0:0:0:0:
256,192,99615,1,8,0:0:0:0:
256,192,99684,1,0,0:0:0:0:
256,192,99752,1,0,0:0:0:0:
256,192,99821,1,8,0:0:0:0:
256,192,99889,1,8,0:0:0:0:
256,192,99958,1,0,0:0:0:0:
256,192,100026,1,0,0:0:0:0:
256,192,100095,1,8,0:0:0:0:
255,184,100163,1,0,0:0:0:0:
256,192,100232,1,8,0:0:0:0:
256,192,100300,1,8,0:0:0:0:
256,192,100368,1,0,0:0:0:0:
256,192,100437,1,0,0:0:0:0:
256,192,100505,1,8,0:0:0:0:
256,192,100574,1,8,0:0:0:0:
256,192,100642,1,8,0:0:0:0:
256,192,100711,1,8,0:0:0:0:
256,192,100779,1,0,0:0:0:0:
256,192,100848,1,8,0:0:0:0:
256,192,100916,1,0,0:0:0:0:
256,192,100985,1,8,0:0:0:0:
256,192,101053,1,0,0:0:0:0:
256,192,101122,1,0,0:0:0:0:
255,184,101190,1,8,0:0:0:0:
256,192,101259,1,0,0:0:0:0:
256,192,101327,1,8,0:0:0:0:
256,192,101396,1,8,0:0:0:0:
256,192,101464,1,0,0:0:0:0:
256,192,101533,1,0,0:0:0:0:
256,192,101601,1,8,0:0:0:0:
256,192,101670,1,0,0:0:0:0:
256,192,101738,1,0,0:0:0:0:
256,192,101807,1,8,0:0:0:0:
256,192,101875,1,0,0:0:0:0:
256,192,101944,1,0,0:0:0:0:
256,192,102012,1,8,0:0:0:0:
256,192,102081,1,8,0:0:0:0:
256,192,102149,1,0,0:0:0:0:
256,192,102218,1,0,0:0:0:0:
256,192,102286,1,0,0:0:0:0:
256,192,102355,1,8,0:0:0:0:
256,192,102423,1,0,0:0:0:0:
256,192,102492,1,0,0:0:0:0:
256,192,102560,1,8,0:0:0:0:
256,192,102629,1,0,0:0:0:0:
256,192,102697,1,8,0:0:0:0:
256,192,102834,1,0,0:0:0:0:
256,192,102903,1,0,0:0:0:0:
256,192,102971,1,8,0:0:0:0:
256,192,103108,1,8,0:0:0:0:
256,192,103245,1,0,0:0:0:0:
256,192,103314,1,0,0:0:0:0:
256,192,103382,1,8,0:0:0:0:
256,192,103451,1,0,0:0:0:0:
256,192,103519,1,0,0:0:0:0:
256,192,103588,1,8,0:0:0:0:
256,192,103656,1,0,0:0:0:0:
256,192,103725,1,0,0:0:0:0:
256,192,103793,1,8,0:0:0:0:
256,192,103862,1,8,0:0:0:0:
256,192,103930,1,0,0:0:0:0:
256,192,103999,1,8,0:0:0:0:
256,192,104067,1,0,0:0:0:0:
256,192,104136,1,0,0:0:0:0:
256,192,104204,1,8,0:0:0:0:
256,192,104273,1,8,0:0:0:0:
256,192,104341,1,0,0:0:0:0:
256,192,104410,1,0,0:0:0:0:
256,192,104478,1,8,0:0:0:0:
256,192,104547,1,8,0:0:0:0:
256,192,104615,1,0,0:0:0:0:
256,192,104684,1,8,0:0:0:0:
256,192,104752,1,0,0:0:0:0:
256,192,104821,1,0,0:0:0:0:
256,192,104889,1,8,0:0:0:0:
256,192,104958,1,0,0:0:0:0:
256,192,105026,1,8,0:0:0:0:
256,192,105095,1,8,0:0:0:0:
256,192,105163,1,0,0:0:0:0:
256,192,105232,1,8,0:0:0:0:
256,192,105300,1,0,0:0:0:0:
256,192,105368,1,8,0:0:0:0:
256,192,105437,1,0,0:0:0:0:
256,192,105505,1,0,0:0:0:0:
256,192,105574,1,8,0:0:0:0:
256,192,105642,1,8,0:0:0:0:
256,192,105711,1,0,0:0:0:0:
256,192,105779,1,8,0:0:0:0:
256,192,105848,1,0,0:0:0:0:
256,192,105916,1,0,0:0:0:0:
256,192,105985,1,8,0:0:0:0:
256,192,106053,1,8,0:0:0:0:
256,192,106122,1,0,0:0:0:0:
256,192,106190,1,8,0:0:0:0:
256,192,106259,1,8,0:0:0:0:
256,192,106327,1,0,0:0:0:0:
256,192,106396,1,8,0:0:0:0:
256,192,106464,1,8,0:0:0:0:
256,192,106533,1,0,0:0:0:0:
256,192,106601,1,8,0:0:0:0:
256,192,106670,1,0,0:0:0:0:
256,192,106738,1,0,0:0:0:0:
256,192,106807,1,8,0:0:0:0:
256,192,106875,1,8,0:0:0:0:
256,192,106944,1,0,0:0:0:0:
256,192,107012,1,0,0:0:0:0:
256,192,107081,1,8,0:0:0:0:
256,192,107218,1,0,0:0:0:0:
256,192,107286,1,0,0:0:0:0:
256,192,107355,1,8,0:0:0:0:
256,192,107492,1,8,0:0:0:0:
256,192,107629,1,0,0:0:0:0:
256,192,107697,1,0,0:0:0:0:
256,192,107766,1,8,0:0:0:0:
256,192,107834,1,0,0:0:0:0:
256,192,107903,1,8,0:0:0:0:
256,192,107971,1,8,0:0:0:0:
256,192,108040,1,0,0:0:0:0:
256,192,108108,1,0,0:0:0:0:
256,192,108177,1,8,0:0:0:0:
256,192,108245,1,8,0:0:0:0:
256,192,108314,1,8,0:0:0:0:
256,192,108382,1,8,0:0:0:0:
256,192,108451,1,0,0:0:0:0:
256,192,108519,1,8,0:0:0:0:
256,192,108588,1,0,0:0:0:0:
256,192,108656,1,0,0:0:0:0:
256,192,108725,1,8,0:0:0:0:
256,192,108793,1,8,0:0:0:0:
256,192,108862,1,0,0:0:0:0:
256,192,108930,1,8,0:0:0:0:
256,192,108999,1,0,0:0:0:0:
256,192,109067,1,0,0:0:0:0:
256,192,109136,1,8,0:0:0:0:
256,192,109204,1,0,0:0:0:0:
256,192,109273,1,8,0:0:0:0:
256,192,109341,1,8,0:0:0:0:
256,192,109410,1,8,0:0:0:0:
256,192,109478,1,8,0:0:0:0:
256,192,109547,1,0,0:0:0:0:
256,192,109615,1,8,0:0:0:0:
256,192,109684,1,0,0:0:0:0:
256,192,109752,1,0,0:0:0:0:
256,192,109821,1,8,0:0:0:0:
256,192,109889,1,8,0:0:0:0:
256,192,109958,1,0,0:0:0:0:
256,192,110026,1,0,0:0:0:0:
256,192,110095,1,8,0:0:0:0:
256,192,110163,1,0,0:0:0:0:
256,192,110232,1,8,0:0:0:0:
256,192,110300,1,8,0:0:0:0:
256,192,110368,1,0,0:0:0:0:
256,192,110437,1,8,0:0:0:0:
256,192,110505,1,0,0:0:0:0:
256,192,110574,1,8,0:0:0:0:
256,192,110642,1,0,0:0:0:0:
256,192,110711,1,0,0:0:0:0:
256,192,110779,1,8,0:0:0:0:
256,192,110848,1,8,0:0:0:0:
256,192,110916,1,0,0:0:0:0:
256,192,110985,1,0,0:0:0:0:
256,192,111053,1,8,0:0:0:0:
256,192,111122,1,0,0:0:0:0:
256,192,111190,1,0,0:0:0:0:
256,192,111259,1,8,0:0:0:0:
256,192,111327,1,0,0:0:0:0:
256,192,111396,1,0,0:0:0:0:
256,192,111464,1,8,0:0:0:0:
256,192,111601,1,0,0:0:0:0:
256,192,111670,1,0,0:0:0:0:
256,192,111738,1,8,0:0:0:0:
256,192,111875,1,8,0:0:0:0:
256,192,112012,1,0,0:0:0:0:
256,192,112081,1,0,0:0:0:0:
256,192,112149,1,8,0:0:0:0:
256,192,112218,1,8,0:0:0:0:
256,192,112286,1,0,0:0:0:0:
256,192,112355,1,8,0:0:0:0:
256,192,112423,1,0,0:0:0:0:
256,192,112492,1,0,0:0:0:0:
256,192,112560,1,8,0:0:0:0:
256,192,112629,1,0,0:0:0:0:
256,192,112697,1,0,0:0:0:0:
256,192,112766,1,8,0:0:0:0:
256,192,112834,1,0,0:0:0:0:
256,192,112903,1,0,0:0:0:0:
256,192,112971,1,8,0:0:0:0:
256,192,113040,1,8,0:0:0:0:
256,192,113108,1,0,0:0:0:0:
256,192,113177,1,0,0:0:0:0:
256,192,113245,1,8,0:0:0:0:
256,192,113314,1,8,0:0:0:0:
256,192,113382,1,0,0:0:0:0:
256,192,113451,1,8,0:0:0:0:
256,192,113519,1,0,0:0:0:0:
256,192,113588,1,0,0:0:0:0:
256,192,113656,1,8,0:0:0:0:
256,192,113725,1,8,0:0:0:0:
256,192,113793,1,8,0:0:0:0:
256,192,113862,1,8,0:0:0:0:
256,192,113930,1,0,0:0:0:0:
256,192,113999,1,8,0:0:0:0:
256,192,114067,1,0,0:0:0:0:
256,192,114136,1,8,0:0:0:0:
256,192,114204,1,0,0:0:0:0:
256,192,114273,1,8,0:0:0:0:
256,192,114341,1,8,0:0:0:0:
256,192,114410,1,8,0:0:0:0:
256,192,114478,1,0,0:0:0:0:
256,192,114547,1,8,0:0:0:0:
256,192,114615,1,0,0:0:0:0:
256,192,114684,1,0,0:0:0:0:
256,192,114752,1,8,0:0:0:0:
256,192,114821,1,0,0:0:0:0:
256,192,114889,1,8,0:0:0:0:
256,192,114958,1,8,0:0:0:0:
256,192,115026,1,0,0:0:0:0:
256,192,115095,1,8,0:0:0:0:
256,192,115163,1,8,0:0:0:0:
256,192,115232,1,8,0:0:0:0:
256,192,115300,1,8,0:0:0:0:
256,192,115574,1,8,0:0:0:0:
256,192,115848,1,8,0:0:0:0:
256,192,115985,1,0,0:0:0:0:
256,192,116053,1,0,0:0:0:0:
256,192,116122,1,12,0:0:0:0:
256,192,116396,1,4,0:0:0:0:
256,192,116670,1,0,0:0:0:0:
256,192,116807,1,0,0:0:0:0:
256,192,116875,1,0,0:0:0:0:
256,192,116944,1,12,0:0:0:0:
256,192,117081,1,8,0:0:0:0:
256,192,117218,1,0,0:0:0:0:
256,192,117286,1,8,0:0:0:0:
256,192,117355,1,0,0:0:0:0:
256,192,117492,1,8,0:0:0:0:
256,192,117560,1,8,0:0:0:0:
256,192,117629,1,0,0:0:0:0:
256,192,117766,1,8,0:0:0:0:
256,192,117903,1,0,0:0:0:0:
256,192,118040,1,12,0:0:0:0:
256,192,118177,1,0,0:0:0:0:
256,192,118314,1,8,0:0:0:0:
256,192,118382,1,8,0:0:0:0:
256,192,118451,1,8,0:0:0:0:
256,192,118519,1,8,0:0:0:0:
256,192,118588,1,0,0:0:0:0:
256,192,118725,1,0,0:0:0:0:
256,192,118793,1,0,0:0:0:0:
256,192,118862,1,8,0:0:0:0:
256,192,118999,1,0,0:0:0:0:
256,192,119136,1,12,0:0:0:0:
256,192,119273,1,0,0:0:0:0:
256,192,119341,1,0,0:0:0:0:
256,192,119410,1,8,0:0:0:0:
256,192,119478,1,8,0:0:0:0:
256,192,119547,1,0,0:0:0:0:
256,192,119684,1,8,0:0:0:0:
256,192,119821,1,0,0:0:0:0:
256,192,119889,1,8,0:0:0:0:
256,192,119958,1,0,0:0:0:0:
256,192,120095,1,0,0:0:0:0:
256,192,120232,1,12,0:0:0:0:
256,192,120368,1,0,0:0:0:0:
256,192,120505,1,8,0:0:0:0:
256,192,120642,1,8,0:0:0:0:
256,192,120711,1,8,0:0:0:0:
256,192,120779,1,0,0:0:0:0:
256,192,120916,1,0,0:0:0:0:
256,192,121053,1,8,0:0:0:0:
256,192,121190,1,0,0:0:0:0:
256,192,121259,1,0,0:0:0:0:
256,192,121327,1,12,0:0:0:0:
256,192,121464,1,8,0:0:0:0:
256,192,121601,1,0,0:0:0:0:
256,192,121670,1,8,0:0:0:0:
256,192,121738,1,0,0:0:0:0:
256,192,121875,1,8,0:0:0:0:
256,192,121944,1,8,0:0:0:0:
256,192,122012,1,0,0:0:0:0:
256,192,122149,1,8,0:0:0:0:
256,192,122286,1,0,0:0:0:0:
256,192,122423,1,12,0:0:0:0:
256,192,122560,1,0,0:0:0:0:
256,192,122697,1,8,0:0:0:0:
256,192,122766,1,0,0:0:0:0:
256,192,122834,1,8,0:0:0:0:
256,192,122903,1,8,0:0:0:0:
256,192,122971,1,0,0:0:0:0:
256,192,123108,1,8,0:0:0:0:
256,192,123245,1,0,0:0:0:0:
256,192,123314,1,8,0:0:0:0:
256,192,123382,1,0,0:0:0:0:
256,192,123519,1,12,0:0:0:0:
256,192,123656,1,0,0:0:0:0:
256,192,123725,1,0,0:0:0:0:
256,192,123793,1,8,0:0:0:0:
256,192,123930,1,0,0:0:0:0:
256,192,124067,1,8,0:0:0:0:
256,192,124136,1,8,0:0:0:0:
256,192,124204,1,0,0:0:0:0:
256,192,124273,1,0,0:0:0:0:
256,192,124341,1,8,0:0:0:0:
256,192,124478,1,0,0:0:0:0:
256,192,124615,1,12,0:0:0:0:
256,192,124752,1,0,0:0:0:0:
256,192,124889,1,8,0:0:0:0:
256,192,124935,1,8,0:0:0:0:
256,192,124980,1,8,0:0:0:0:
256,192,125026,1,8,0:0:0:0:
256,192,125072,1,8,0:0:0:0:
256,192,125117,1,8,0:0:0:0:
256,192,125163,1,0,0:0:0:0:
256,192,125437,1,0,0:0:0:0:
256,192,125574,1,0,0:0:0:0:
256,192,125642,1,0,0:0:0:0:
256,192,125711,1,12,0:0:0:0:
256,192,125848,1,8,0:0:0:0:
256,192,125985,1,0,0:0:0:0:
256,192,126053,1,8,0:0:0:0:
256,192,126122,1,0,0:0:0:0:
256,192,126259,1,8,0:0:0:0:
256,192,126327,1,8,0:0:0:0:
256,192,126396,1,0,0:0:0:0:
256,192,126533,1,8,0:0:0:0:
256,192,126670,1,0,0:0:0:0:
256,192,126807,1,12,0:0:0:0:
256,192,126944,1,0,0:0:0:0:
256,192,127081,1,8,0:0:0:0:
256,192,127149,1,8,0:0:0:0:
256,192,127218,1,8,0:0:0:0:
256,192,127286,1,8,0:0:0:0:
256,192,127355,1,0,0:0:0:0:
256,192,127492,1,0,0:0:0:0:
256,192,127560,1,0,0:0:0:0:
256,192,127629,1,8,0:0:0:0:
256,192,127766,1,0,0:0:0:0:
256,192,127903,1,12,0:0:0:0:
256,192,128040,1,0,0:0:0:0:
256,192,128108,1,0,0:0:0:0:
256,192,128177,1,8,0:0:0:0:
256,192,128245,1,8,0:0:0:0:
256,192,128314,1,0,0:0:0:0:
256,192,128451,1,8,0:0:0:0:
256,192,128588,1,0,0:0:0:0:
256,192,128656,1,8,0:0:0:0:
256,192,128725,1,0,0:0:0:0:
256,192,128862,1,0,0:0:0:0:
256,192,128999,1,12,0:0:0:0:
256,192,129136,1,0,0:0:0:0:
256,192,129273,1,8,0:0:0:0:
256,192,129410,1,8,0:0:0:0:
256,192,129478,1,8,0:0:0:0:
256,192,129547,1,0,0:0:0:0:
256,192,129684,1,0,0:0:0:0:
256,192,129821,1,8,0:0:0:0:
256,192,129958,1,0,0:0:0:0:
256,192,130026,1,0,0:0:0:0:
256,192,130095,1,12,0:0:0:0:
256,192,130232,1,8,0:0:0:0:
256,192,130368,1,0,0:0:0:0:
256,192,130437,1,8,0:0:0:0:
256,192,130505,1,0,0:0:0:0:
256,192,130642,1,8,0:0:0:0:
256,192,130711,1,8,0:0:0:0:
256,192,130779,1,0,0:0:0:0:
256,192,130916,1,8,0:0:0:0:
256,192,131053,1,0,0:0:0:0:
256,192,131190,1,12,0:0:0:0:
256,192,131327,1,0,0:0:0:0:
256,192,131464,1,8,0:0:0:0:
256,192,131533,1,0,0:0:0:0:
256,192,131601,1,8,0:0:0:0:
256,192,131670,1,8,0:0:0:0:
256,192,131738,1,0,0:0:0:0:
256,192,131875,1,8,0:0:0:0:
256,192,131944,1,8,0:0:0:0:
256,192,132012,1,0,0:0:0:0:
256,192,132149,1,0,0:0:0:0:
256,192,132286,1,12,0:0:0:0:
256,192,132423,1,0,0:0:0:0:
256,192,132492,1,0,0:0:0:0:
256,192,132560,1,8,0:0:0:0:
256,192,132629,1,8,0:0:0:0:
256,192,132697,1,0,0:0:0:0:
256,192,132834,1,8,0:0:0:0:
256,192,132971,1,0,0:0:0:0:
256,192,133040,1,0,0:0:0:0:
256,192,133108,1,8,0:0:0:0:
256,192,133245,1,0,0:0:0:0:
256,192,133382,1,12,0:0:0:0:
256,192,133519,1,0,0:0:0:0:
256,192,133656,1,8,0:0:0:0:
256,192,133725,1,8,0:0:0:0:
256,192,133793,1,0,0:0:0:0:
256,192,133862,1,8,0:0:0:0:
256,192,133930,1,0,0:0:0:0:
256,192,134204,1,0,0:0:0:0:
256,192,134478,1,8,0:0:0:0:
256,192,134615,1,0,0:0:0:0:
256,192,134684,1,0,0:0:0:0:
256,192,134752,1,8,0:0:0:0:
256,192,134798,1,8,0:0:0:0:
256,192,134843,1,8,0:0:0:0:
256,192,134889,1,0,0:0:0:0:
256,192,135026,1,4,0:0:0:0:
256,192,135300,1,0,0:0:0:0:
256,192,135437,1,8,0:0:0:0:
256,192,135505,1,8,0:0:0:0:
256,192,135574,1,0,0:0:0:0:
256,192,135711,1,8,0:0:0:0:
256,192,135848,1,0,0:0:0:0:
256,192,135916,1,8,0:0:0:0:
256,192,135985,1,0,0:0:0:0:
256,192,136122,1,8,0:0:0:0:
256,192,136190,1,8,0:0:0:0:
256,192,136259,1,8,0:0:0:0:
256,192,136396,1,0,0:0:0:0:
256,192,136533,1,8,0:0:0:0:
256,192,136670,1,0,0:0:0:0:
256,192,136738,1,0,0:0:0:0:
256,192,136807,1,8,0:0:0:0:
256,192,136875,1,8,0:0:0:0:
256,192,136944,1,8,0:0:0:0:
256,192,137012,1,8,0:0:0:0:
256,192,137081,1,8,0:0:0:0:
256,192,137149,1,8,0:0:0:0:
256,192,137218,1,8,0:0:0:0:
256,192,137286,1,8,0:0:0:0:
256,192,137355,1,8,0:0:0:0:
256,192,137423,1,8,0:0:0:0:
256,192,137492,1,8,0:0:0:0:
256,192,137560,1,8,0:0:0:0:
256,192,137629,1,8,0:0:0:0:
256,192,137697,1,8,0:0:0:0:
256,192,137766,1,8,0:0:0:0:
256,192,137834,1,8,0:0:0:0:
256,192,137903,1,8,0:0:0:0:
256,192,137971,1,8,0:0:0:0:
256,192,138040,1,8,0:0:0:0:
256,192,138108,1,8,0:0:0:0:
256,192,138177,1,8,0:0:0:0:
256,192,138245,1,8,0:0:0:0:
256,192,138314,1,8,0:0:0:0:
256,192,138382,1,8,0:0:0:0:
256,192,138451,1,8,0:0:0:0:
256,192,138519,1,8,0:0:0:0:
256,192,138588,1,8,0:0:0:0:
256,192,138656,1,8,0:0:0:0:
256,192,138725,1,8,0:0:0:0:
256,192,138793,1,8,0:0:0:0:
256,192,138862,1,8,0:0:0:0:
