osu file format v14

[General]
AudioFilename: audio.mp3
AudioLeadIn: 0
PreviewTime: 9004
Countdown: 0
SampleSet: Normal
StackLeniency: 0.7
Mode: 1
LetterboxInBreaks: 0
WidescreenStoryboard: 1

[Editor]
DistanceSpacing: 1.4
BeatDivisor: 12
GridSize: 32
TimelineZoom: 3.099999

[Metadata]
Title:why did i enter the art course
TitleUnicode:why did i enter the art course
Artist:momone
ArtistUnicode:momone
Creator:dtn
Version:roxy's inner oni
Source:
Tags:dtnt0r eriha roxy- kurokurokuro japanese dariacore dobicore 01 : afterthought momonesakai jade electronic instrumental hyperflip きんいろモザイク kinmoza kiniro golden mosaic Jumping!! Rhodanthe*
BeatmapID:4168434
BeatmapSetID:1981451

[Difficulty]
HPDrainRate:5.5
CircleSize:5
OverallDifficulty:6.5
ApproachRate:5
SliderMultiplier:1.4
SliderTickRate:1

[Events]
//Background and Video events
0,0,"Untitled.jpg",0,0
//Break Periods
2,81527,88621
//Storyboard Layer 0 (Background)
//Storyboard Layer 1 (Fail)
//Storyboard Layer 2 (Pass)
//Storyboard Layer 3 (Foreground)
//Storyboard Layer 4 (Overlay)
//Storyboard Sound Samples

[TimingPoints]
232,273.972602739726,4,1,0,100,1,0
6790,-100,4,1,0,90,0,0
6927,-99.322799097065,4,1,0,90,0,0
7064,-98.654708520179,4,1,0,90,0,0
7201,-97.995545657016,4,1,0,90,0,0
7269,-97.671630182932,4,1,0,90,0,0
7338,-97.345132743363,4,1,0,90,0,0
7475,-96.703296703297,4,1,0,90,0,0
7612,-96.069868995633,4,1,0,90,0,0
7680,-95.758538522637,4,1,0,90,0,0
7749,-95.444685466377,4,1,0,90,0,0
7817,-95.137387351841,4,1,0,90,0,0
7886,-94.827586206897,4,1,0,90,0,0
8023,-94.218415417559,4,1,0,90,0,0
8160,-93.617021276596,4,1,0,90,0,0
8297,-93.023255813953,4,1,0,90,0,0
8365,-92.731328359357,4,1,0,90,0,0
8434,-92.436974789916,4,1,0,90,0,0
8502,-92.148709795769,4,1,0,90,0,0
8571,-91.858037578288,4,1,0,90,0,0
8639,-91.573366551719,4,1,0,90,0,0
8708,-91.286307053942,4,1,0,90,0,0
8845,-90.721649484536,4,1,0,90,0,0
8981,-90.16393442623,4,1,0,90,0,0
9255,-89.068825910931,4,1,0,90,0,0
9529,-88,4,1,0,90,0,0
9666,-87.475149105368,4,1,0,90,0,0
9731,-87.216957245171,4,1,0,90,0,0
9799,-86.95652173913,4,1,0,90,0,0
10091,-87.555670947255,4,1,0,100,0,0
10364,-90.009444421632,4,1,0,100,0,0
10501,-91.293392474126,4,1,0,100,0,0
10570,-91.954022988506,4,1,0,100,0,0
10638,-92.614500591516,4,1,0,100,0,0
10775,-93.97440569334,4,1,0,100,0,0
10912,-95.374842274725,4,1,0,100,0,0
10981,-96.096096096096,4,1,0,100,0,0
11049,-96.817649786886,4,1,0,100,0,0
11186,-98.30478069782,4,1,0,100,0,0
11255,-99.071207430341,4,1,0,100,0,0
11323,-99.838309307463,4,1,0,100,0,0
11460,-101.420441401009,4,1,0,100,0,0
11597,-103.053524834865,4,1,0,100,0,0
11734,-104.74006116208,4,1,0,100,0,0
11803,-105.610561056106,4,1,0,100,0,0
11871,-106.482718418304,4,1,0,100,0,0
12008,-108.28434520575,4,1,0,100,0,0
12077,-109.215017064846,4,1,0,100,0,0
12145,-110.147986231502,4,1,0,100,0,0
12269,-100,4,1,0,90,0,0
18588,-66.6666666666667,4,1,0,90,0,0
18845,-111.111111111111,4,1,0,90,0,0
19118,-109.374108518286,4,1,0,90,0,0
19392,-107.690579180945,4,1,0,90,0,0
19529,-106.868101237596,4,1,0,90,0,0
19666,-106.058091286307,4,1,0,90,0,0
19803,-105.260267955194,4,1,0,90,0,0
19940,-104.474358275655,4,1,0,90,0,0
20077,-103.700097370983,4,1,0,90,0,0
20231,-102.937228158728,4,1,0,90,0,0
20351,-102.190948344795,4,1,0,90,0,0
20488,-101.450042337003,4,1,0,90,0,0
20625,-100.719802448379,4,1,0,90,0,0
20762,-100,4,1,0,90,0,0
25420,-100,4,1,0,90,0,0
25694,-102.564102564103,4,1,0,89,0,0
25968,-105.263157894737,4,1,0,89,0,0
26105,-106.666666666667,4,1,0,88,0,0
26242,-108.108108108108,4,1,0,88,0,0
26379,-109.58904109589,4,1,0,88,0,0
26653,-112.676056338028,4,1,0,87,0,0
26790,-114.285714285714,4,1,0,87,0,0
26927,-115.942028985507,4,1,0,87,0,0
27064,-117.647058823529,4,1,0,86,0,0
27132,-118.512110726644,4,1,0,86,0,0
27201,-119.402985074627,4,1,0,86,0,0
27338,-121.212121212121,4,1,0,86,0,0
27406,-122.130599509695,4,1,0,85,0,0
27475,-123.076923076923,4,1,0,85,0,0
27612,-125,4,1,0,60,0,0
36379,-125,4,1,0,60,0,0
36653,-124.030898081603,4,1,0,60,0,0
36927,-123.076707097934,4,1,0,60,0,0
37201,-122.137085539147,4,1,0,60,0,0
37475,-121.211702245327,4,1,0,60,0,0
37749,-120.300236017345,4,1,0,60,0,0
38023,-119.402375245151,4,1,0,60,0,0
38297,-118.517817552587,4,1,0,60,0,0
38434,-118.080435309646,4,1,0,60,0,0
38571,-117.646269457864,4,1,0,60,0,0
38845,-116.787446048916,4,1,0,60,0,0
39118,-115.944137329066,4,1,0,60,0,0
39392,-115.109897324125,4,1,0,60,0,0
39666,-114.287576587146,4,1,0,60,0,0
39803,-113.88080640133,4,1,0,60,0,0
39940,-113.476921483859,4,1,0,60,0,0
40231,-112.628468653649,4,1,0,60,0,0
40420,-112.084174998082,4,1,0,60,0,0
40488,-111.889629119126,4,1,0,60,0,0
40625,-111.499720201455,4,1,0,60,0,0
40762,-111.112519327774,4,1,0,60,0,0
41036,-110.346129641284,4,1,0,60,0,0
41310,-109.590239755994,4,1,0,60,0,0
41584,-108.844635363643,4,1,0,60,0,0
41721,-108.475624845335,4,1,0,60,0,0
41858,-108.1091079488,4,1,0,60,0,0
42132,-107.383454594449,4,1,0,60,0,0
42406,-106.667477795352,4,1,0,60,0,0
42680,-105.960985278832,4,1,0,60,0,0
42817,-105.611236929601,4,1,0,60,0,0
42954,-105.263789832625,4,1,0,60,0,0
43228,-104.57570913949,4,1,0,60,0,0
43502,-103.89656561826,4,1,0,60,0,0
43776,-103.226186271047,4,1,0,60,0,0
44050,-102.564402536325,4,1,0,60,0,0
44187,-102.236682526355,4,1,0,60,0,0
44324,-101.91105014763,4,1,0,60,0,0
44598,-101.265968997621,4,1,0,60,0,0
44735,-100.946481208548,4,1,0,60,0,0
44872,-100.629003007277,4,1,0,60,0,0
44940,-100.472163010841,4,1,0,60,0,0
45009,-100.3135154927,4,1,0,60,0,0
45077,-100.157656628433,4,1,0,60,0,0
45146,-100,4,1,0,90,0,0
58297,-100,4,1,0,90,0,0
58434,-99.378741157265,4,1,0,90,0,0
58571,-98.765153905088,4,1,0,90,0,0
58708,-98.159097016931,4,1,0,90,0,0
58845,-97.56043271157,4,1,0,90,0,0
58981,-96.969026548673,4,1,0,90,0,0
59118,-96.384747328144,4,1,0,90,0,0
59204,-96.384747328144,4,1,0,90,0,0
59392,-95.237060536265,4,1,0,90,0,0
59529,-94.673405909798,4,1,0,90,0,0
59666,-94.116383938158,4,1,0,90,0,0
59803,-93.565878234139,4,1,0,90,0,0
59940,-93.021775117789,4,1,0,90,0,0
60077,-92.48396353815,4,1,0,90,0,0
60231,-91.952334997692,4,1,0,90,0,0
60283,-91.69072423748,4,1,0,90,0,0
60351,-91.430597855563,4,1,0,90,0,0
60420,-91.168150428488,4,1,0,90,0,0
60488,-90.910976520368,4,1,0,90,0,0
60625,-90.397228065833,4,1,0,90,0,0
60694,-90.140671273445,4,1,0,90,0,0
60762,-89.889253486464,4,1,0,90,0,0
60899,-89.386955989721,4,1,0,90,0,0
61036,-88.890240934534,4,1,0,90,0,0
61105,-88.642155078267,4,1,0,90,0,0
61173,-88.399015771853,4,1,0,90,0,0
61242,-88.153660498793,4,1,0,90,0,0
61310,-87.913189987163,4,1,0,90,0,0
61447,-87.432675044883,4,1,0,90,0,0
61584,-86.957384334577,4,1,0,90,0,0
61653,-86.719955680424,4,1,0,90,0,0
61721,-86.487233118908,4,1,0,90,0,0
61790,-86.252361460957,4,1,0,90,0,0
61858,-86.022138483278,4,1,0,90,0,0
61927,-85.789782736348,4,1,0,90,0,0
61995,-85.562019287081,4,1,0,90,0,0
62064,-85.332139241492,4,1,0,90,0,0
62132,-85.106796116505,4,1,0,90,0,0
62201,-84.879352414888,4,1,0,90,0,0
62269,-84.656391238846,4,1,0,90,0,0
62338,-84.431345353675,4,1,0,90,0,0
62406,-84.210728558254,4,1,0,90,0,0
62475,-83.988042770092,4,1,0,90,0,0
62543,-83.769733572876,4,1,0,90,0,0
62612,-83.549370949295,4,1,0,90,0,0
62680,-83.333333333333,4,1,0,90,0,0
62954,-83.333333333333,4,1,0,90,0,0
63091,-85.714285714286,4,1,0,90,0,0
63160,-86.965721540415,4,1,0,90,0,0
63228,-88.235294117647,4,1,0,90,0,0
63365,-90.909090909091,4,1,0,90,0,0
63502,-93.75,4,1,0,90,0,0
63571,-95.249130938586,4,1,0,90,0,0
63639,-96.774193548387,4,1,0,90,0,0
63776,-100,4,1,0,60,0,0
72218,-66.666666666667,4,1,0,100,0,0
72355,-66.666666666667,4,1,0,90,0,0
72492,-90.909090909091,4,1,0,90,0,0
81053,-66.666666666667,4,1,0,90,0,0
81259,-100,4,1,0,90,0,0
81362,-133.333333333333,4,1,0,50,0,0
89752,-181.818181818181,4,1,0,50,0,0
90077,-133.333333333333,4,1,0,80,0,0
90351,-130.545770153673,4,1,0,81,0,0
90625,-127.862786278628,4,1,0,81,0,0
90762,-126.562229316703,4,1,0,82,0,0
91036,-124.038904654491,4,1,0,82,0,0
91173,-122.814601344861,4,1,0,83,0,0
91310,-121.61423033935,4,1,0,83,0,0
91447,-120.437096698224,4,1,0,84,0,0
91721,-118.149893725164,4,1,0,84,0,0
91858,-117.038562764618,4,1,0,85,0,0
91995,-115.947943590441,4,1,0,85,0,0
92269,-113.826566951567,4,1,0,86,0,0
92543,-111.781420765027,4,1,0,86,0,0
92817,-109.808468607747,4,1,0,87,0,0
92954,-108.847881148501,4,1,0,87,0,0
93228,-106.976257713628,4,1,0,88,0,0
93365,-106.0643769703,4,1,0,89,0,0
93502,-105.167910831431,4,1,0,89,0,0
93639,-104.286471715812,4,1,0,89,0,0
93776,-103.419684927906,4,1,0,90,0,0
93913,-102.567188126755,4,1,0,90,0,0
94050,-101.72863082095,4,1,0,90,0,0
94187,-100.903673888165,4,1,0,91,0,0
94461,-99.293258776017,4,1,0,91,0,0
94598,-98.507175190215,4,1,0,92,0,0
94735,-97.733440354699,4,1,0,92,0,0
94872,-96.971765553596,4,1,0,92,0,0
95009,-96.221871001731,4,1,0,93,0,0
95146,-95.48348550197,4,1,0,93,0,0
95283,-94.756346118214,4,1,0,94,0,0
95420,-94.040197863224,4,1,0,94,0,0
95557,-93.334793400496,4,1,0,94,0,0
95694,-92.639892759451,4,1,0,95,0,0
95831,-91.955263063257,4,1,0,95,0,0
95968,-91.28067826863,4,1,0,95,0,0
96105,-90.615918917003,4,1,0,96,0,0
96242,-89.960771896494,4,1,0,96,0,0
96379,-89.315030214119,4,1,0,96,0,0
96516,-88.678492777749,4,1,0,97,0,0
96653,-88.050964187328,4,1,0,97,0,0
96721,-87.742776748336,4,1,0,97,0,0
96790,-87.432254534886,4,1,0,97,0,0
96927,-86.82217921293,4,1,0,98,0,0
96995,-86.522518864413,4,1,0,98,0,0
97064,-86.220558730801,4,1,0,98,0,0
97201,-85.627218538611,4,1,0,99,0,0
97269,-85.335736216793,4,1,0,99,0,0
97338,-85.041988858402,4,1,0,99,0,0
97406,-84.754470574587,4,1,0,99,0,0
97475,-84.464704522181,4,1,0,99,0,0
97543,-84.181069958848,4,1,0,99,0,0
97612,-83.89520481651,4,1,0,100,0,0
97680,-83.615375811383,4,1,0,100,0,0
97749,-83.333333333333,4,1,0,100,0,0
98588,-66.6666666666667,4,1,0,100,0,0
98862,-86.95652173913,4,1,0,100,0,1
115283,-86.95652173913,4,1,0,100,0,1
115300,-86.95652173913,4,1,0,90,0,0
115557,-90.909090909091,4,1,0,90,0,0
115831,-95.238095238095,4,1,0,90,0,0
115968,-97.560975609756,4,1,0,90,0,0
116105,-100,4,1,0,90,0,0
116396,-100,4,1,0,100,0,1
133930,-100,4,1,0,90,0,0
136670,-66.666666666667,4,1,0,90,0,0

[HitObjects]
259,190,232,5,4,0:0:0:0:
259,190,505,1,8,0:0:0:0:
259,190,779,1,0,0:0:0:0:
259,190,916,1,0,0:0:0:0:
259,190,1053,1,8,0:0:0:0:
259,190,1327,1,0,0:0:0:0:
259,190,1464,1,8,0:0:0:0:
259,190,1601,1,8,0:0:0:0:
259,190,1738,1,0,0:0:0:0:
259,190,2012,1,8,0:0:0:0:
259,190,2423,1,0,0:0:0:0:
259,190,2697,1,8,0:0:0:0:
259,190,2971,1,0,0:0:0:0:
259,190,3245,1,8,0:0:0:0:
259,190,3519,1,0,0:0:0:0:
259,190,3656,1,0,0:0:0:0:
259,190,3793,1,0,0:0:0:0:
259,190,3930,1,8,0:0:0:0:
259,190,4204,1,0,0:0:0:0:
259,190,4341,1,8,0:0:0:0:
259,190,4410,1,8,0:0:0:0:
259,190,4478,1,8,0:0:0:0:
259,190,4547,1,8,0:0:0:0:
259,190,4615,1,0,0:0:0:0:
259,190,4889,1,8,0:0:0:0:
259,190,5026,1,0,0:0:0:0:
259,190,5095,1,0,0:0:0:0:
259,190,5163,1,0,0:0:0:0:
259,190,5300,1,8,0:0:0:0:
259,190,5437,1,0,0:0:0:0:
259,190,5505,1,0,0:0:0:0:
259,190,5574,1,0,0:0:0:0:
259,190,5711,1,8,0:0:0:0:
259,190,5848,1,0,0:0:0:0:
259,190,5985,1,0,0:0:0:0:
259,190,6122,1,8,0:0:0:0:
259,190,6259,1,0,0:0:0:0:
259,190,6327,1,0,0:0:0:0:
259,190,6396,1,0,0:0:0:0:
259,190,6533,1,8,0:0:0:0:
259,190,6601,1,8,0:0:0:0:
259,190,6670,1,8,0:0:0:0:
259,190,6807,1,0,0:0:0:0:
259,190,6944,1,0,0:0:0:0:
259,190,7081,1,8,0:0:0:0:
259,190,7218,1,0,0:0:0:0:
256,192,7286,1,0,0:0:0:0:
259,190,7355,1,8,0:0:0:0:
259,190,7492,1,0,0:0:0:0:
259,190,7629,1,8,0:0:0:0:
259,190,7697,1,8,0:0:0:0:
259,190,7766,1,8,0:0:0:0:
259,190,7834,1,8,0:0:0:0:
259,190,7903,1,0,0:0:0:0:
259,190,8040,1,8,0:0:0:0:
259,190,8177,1,8,0:0:0:0:
259,190,8314,1,0,0:0:0:0:
259,190,8382,1,0,0:0:0:0:
259,190,8451,1,8,0:0:0:0:
259,190,8519,1,0,0:0:0:0:
259,190,8588,1,8,0:0:0:0:
259,190,8656,1,8,0:0:0:0:
259,190,8725,1,0,0:0:0:0:
259,190,8862,1,8,0:0:0:0:
259,190,8999,1,0,0:0:0:0:
259,190,9273,1,0,0:0:0:0:
259,190,9547,1,0,0:0:0:0:
259,190,9684,1,0,0:0:0:0:
259,190,9752,1,0,0:0:0:0:
259,190,9821,1,8,0:0:0:0:
259,190,10095,1,4,0:0:0:0:
259,190,10368,1,0,0:0:0:0:
259,190,10505,1,8,0:0:0:0:
259,190,10574,1,8,0:0:0:0:
259,190,10642,1,0,0:0:0:0:
259,190,10779,1,8,0:0:0:0:
259,190,10916,1,0,0:0:0:0:
259,190,10985,1,8,0:0:0:0:
259,190,11053,1,0,0:0:0:0:
259,190,11190,1,8,0:0:0:0:
259,190,11259,1,8,0:0:0:0:
259,190,11327,1,8,0:0:0:0:
259,190,11464,1,0,0:0:0:0:
259,190,11601,1,8,0:0:0:0:
259,190,11738,1,0,0:0:0:0:
259,190,11807,1,0,0:0:0:0:
259,190,11875,1,0,0:0:0:0:
259,190,12012,1,8,0:0:0:0:
259,190,12081,1,8,0:0:0:0:
259,190,12149,1,8,0:0:0:0:
259,190,12286,1,4,0:0:0:0:
250,190,12560,1,0,0:0:0:0:
250,190,12834,1,12,0:0:0:0:
250,190,12971,1,0,0:0:0:0:
250,190,13108,1,0,0:0:0:0:
250,190,13245,1,8,0:0:0:0:
250,190,13519,1,0,0:0:0:0:
250,190,13656,1,8,0:0:0:0:
250,190,13793,1,0,0:0:0:0:
250,190,13930,1,12,0:0:0:0:
250,190,14067,1,0,0:0:0:0:
250,190,14136,1,8,0:0:0:0:
250,190,14204,1,0,0:0:0:0:
250,190,14341,1,8,0:0:0:0:
250,190,14410,1,8,0:0:0:0:
250,190,14478,1,0,0:0:0:0:
250,190,14752,1,0,0:0:0:0:
250,190,15026,1,12,0:0:0:0:
250,190,15163,1,0,0:0:0:0:
250,190,15300,1,0,0:0:0:0:
250,190,15437,1,8,0:0:0:0:
250,190,15574,1,0,0:0:0:0:
250,190,15642,1,0,0:0:0:0:
250,190,15711,1,0,0:0:0:0:
250,190,15848,1,8,0:0:0:0:
250,190,15916,1,8,0:0:0:0:
250,190,15985,1,0,0:0:0:0:
250,190,16122,5,12,0:0:0:0:
250,190,16259,1,0,0:0:0:0:
250,190,16396,1,8,0:0:0:0:
250,190,16464,1,8,0:0:0:0:
250,190,16533,1,8,0:0:0:0:
250,190,16601,1,8,0:0:0:0:
250,190,16670,1,0,0:0:0:0:
250,190,16944,1,0,0:0:0:0:
250,190,17218,1,12,0:0:0:0:
250,190,17355,1,0,0:0:0:0:
250,190,17492,1,0,0:0:0:0:
250,190,17629,1,8,0:0:0:0:
250,190,17903,1,0,0:0:0:0:
250,190,18040,1,8,0:0:0:0:
250,190,18108,1,8,0:0:0:0:
250,190,18177,1,0,0:0:0:0:
250,190,18314,1,12,0:0:0:0:
250,190,18451,1,0,0:0:0:0:
250,190,18588,1,8,0:0:0:0:
250,190,18862,1,0,0:0:0:0:
250,190,19136,1,8,0:0:0:0:
250,190,19410,1,0,0:0:0:0:
250,190,19547,1,8,0:0:0:0:
250,190,19684,1,0,0:0:0:0:
250,190,19821,1,8,0:0:0:0:
250,190,19958,1,0,0:0:0:0:
250,190,20095,1,8,0:0:0:0:
250,190,20232,1,8,0:0:0:0:
250,190,20368,1,8,0:0:0:0:
250,190,20505,1,0,0:0:0:0:
250,190,20642,1,0,0:0:0:0:
250,190,20779,1,12,0:0:0:0:
250,190,21053,5,0,0:0:0:0:
250,190,21327,1,0,0:0:0:0:
250,190,21601,1,12,0:0:0:0:
250,190,21738,1,0,0:0:0:0:
250,190,21875,1,0,0:0:0:0:
250,190,22012,1,8,0:0:0:0:
250,190,22286,1,0,0:0:0:0:
250,190,22423,1,8,0:0:0:0:
250,190,22560,1,0,0:0:0:0:
250,190,22697,1,12,0:0:0:0:
250,190,22834,1,0,0:0:0:0:
250,190,22903,1,8,0:0:0:0:
250,190,22971,1,0,0:0:0:0:
250,190,23040,1,0,0:0:0:0:
250,190,23108,1,8,0:0:0:0:
250,190,23177,1,8,0:0:0:0:
250,190,23245,1,0,0:0:0:0:
250,190,23519,1,0,0:0:0:0:
250,190,23793,1,12,0:0:0:0:
250,190,23930,1,0,0:0:0:0:
250,190,24067,1,0,0:0:0:0:
250,190,24204,1,8,0:0:0:0:
250,190,24341,1,0,0:0:0:0:
250,190,24410,1,0,0:0:0:0:
250,190,24478,1,0,0:0:0:0:
250,190,24615,1,8,0:0:0:0:
250,190,24684,1,8,0:0:0:0:
250,190,24752,1,0,0:0:0:0:
250,190,24889,5,12,0:0:0:0:
250,190,25026,1,0,0:0:0:0:
250,190,25163,1,8,0:0:0:0:
250,190,25232,1,8,0:0:0:0:
250,190,25300,1,8,0:0:0:0:
250,190,25368,1,8,0:0:0:0:
250,190,25437,1,0,0:0:0:0:
250,190,25711,1,0,0:0:0:0:
250,190,25985,1,12,0:0:0:0:
250,190,26122,1,0,0:0:0:0:
250,190,26259,1,0,0:0:0:0:
250,190,26396,1,8,0:0:0:0:
250,190,26670,1,0,0:0:0:0:
250,190,26807,1,8,0:0:0:0:
250,190,26944,1,0,0:0:0:0:
250,190,27081,1,8,0:0:0:0:
250,190,27149,1,0,0:0:0:0:
250,190,27218,1,0,0:0:0:0:
250,190,27355,1,8,0:0:0:0:
250,190,27423,1,0,0:0:0:0:
250,190,27492,1,8,0:0:0:0:
256,192,27629,1,4,0:0:0:0:
256,192,27903,1,8,0:0:0:0:
256,192,28314,1,0,0:0:0:0:
256,192,28451,1,8,0:0:0:0:
256,192,28725,1,0,0:0:0:0:
256,192,28999,1,8,0:0:0:0:
256,192,29410,1,0,0:0:0:0:
256,192,29547,1,8,0:0:0:0:
256,192,29821,1,0,0:0:0:0:
256,192,30095,1,8,0:0:0:0:
256,192,30505,1,0,0:0:0:0:
256,192,30642,1,8,0:0:0:0:
256,192,30916,1,0,0:0:0:0:
256,192,31190,1,8,0:0:0:0:
256,192,31327,1,0,0:0:0:0:
256,192,31601,1,0,0:0:0:0:
256,192,31738,1,8,0:0:0:0:
256,192,32012,1,0,0:0:0:0:
256,192,32286,1,8,0:0:0:0:
256,192,32697,1,0,0:0:0:0:
256,192,32834,1,8,0:0:0:0:
256,192,33108,1,0,0:0:0:0:
256,192,33382,1,8,0:0:0:0:
256,192,33793,1,0,0:0:0:0:
256,192,33930,1,8,0:0:0:0:
256,192,34204,1,0,0:0:0:0:
256,192,34478,1,8,0:0:0:0:
256,192,34615,1,0,0:0:0:0:
256,192,34752,1,0,0:0:0:0:
256,192,35026,1,8,0:0:0:0:
256,192,35300,1,0,0:0:0:0:
256,192,35574,1,8,0:0:0:0:
256,192,35711,1,0,0:0:0:0:
256,192,35985,1,0,0:0:0:0:
256,192,36122,1,8,0:0:0:0:
256,192,36259,1,0,0:0:0:0:
256,192,36396,1,8,0:0:0:0:
256,192,36670,1,8,0:0:0:0:
256,192,36944,1,8,0:0:0:0:
256,192,37218,1,8,0:0:0:0:
256,192,37492,1,8,0:0:0:0:
256,192,37766,1,8,0:0:0:0:
256,192,38040,1,8,0:0:0:0:
256,192,38314,1,8,0:0:0:0:
256,192,38451,1,8,0:0:0:0:
256,192,38588,1,8,0:0:0:0:
256,192,38862,1,8,0:0:0:0:
256,192,39136,1,8,0:0:0:0:
256,192,39410,1,8,0:0:0:0:
256,192,39684,1,8,0:0:0:0:
256,192,39821,1,8,0:0:0:0:
256,192,39958,1,8,0:0:0:0:
256,192,40232,1,8,0:0:0:0:
256,192,40437,1,8,0:0:0:0:
256,192,40505,1,8,0:0:0:0:
256,192,40642,1,8,0:0:0:0:
256,192,40779,1,8,0:0:0:0:
256,192,41053,1,8,0:0:0:0:
256,192,41327,1,8,0:0:0:0:
256,192,41601,1,8,0:0:0:0:
256,192,41738,1,8,0:0:0:0:
256,192,41875,1,8,0:0:0:0:
256,192,42149,1,8,0:0:0:0:
256,192,42423,1,8,0:0:0:0:
256,192,42697,1,8,0:0:0:0:
256,192,42834,1,8,0:0:0:0:
256,192,42971,1,8,0:0:0:0:
256,192,43245,1,8,0:0:0:0:
256,192,43519,1,8,0:0:0:0:
256,192,43793,1,8,0:0:0:0:
256,192,44067,1,8,0:0:0:0:
256,192,44204,1,8,0:0:0:0:
256,192,44341,1,8,0:0:0:0:
256,192,44615,1,8,0:0:0:0:
256,192,44752,1,0,0:0:0:0:
256,192,44889,1,8,0:0:0:0:
256,192,44958,1,8,0:0:0:0:
256,192,45026,1,8,0:0:0:0:
256,192,45095,1,8,0:0:0:0:
256,192,45163,1,0,0:0:0:0:
256,192,45300,1,0,0:0:0:0:
256,192,45368,1,0,0:0:0:0:
256,192,45437,1,8,0:0:0:0:
256,192,45574,1,0,0:0:0:0:
256,192,45711,1,8,0:0:0:0:
256,192,45779,1,8,0:0:0:0:
256,192,45848,1,0,0:0:0:0:
256,192,45985,1,8,0:0:0:0:
256,192,46259,1,0,0:0:0:0:
256,192,46396,1,0,0:0:0:0:
256,192,46464,1,0,0:0:0:0:
256,192,46533,1,8,0:0:0:0:
256,192,46670,1,0,0:0:0:0:
256,192,46807,1,8,0:0:0:0:
256,192,46875,1,0,0:0:0:0:
256,192,46944,1,8,0:0:0:0:
256,192,47081,1,0,0:0:0:0:
256,192,47149,1,0,0:0:0:0:
256,192,47218,1,8,0:0:0:0:
256,192,47286,1,8,0:0:0:0:
256,192,47355,1,0,0:0:0:0:
256,192,47492,1,8,0:0:0:0:
256,192,47629,1,0,0:0:0:0:
256,192,47766,1,8,0:0:0:0:
256,192,47834,1,8,0:0:0:0:
256,192,47903,1,0,0:0:0:0:
256,192,48040,1,8,0:0:0:0:
256,192,48177,1,0,0:0:0:0:
256,192,48451,1,8,0:0:0:0:
256,192,48519,1,8,0:0:0:0:
256,192,48588,1,0,0:0:0:0:
256,192,48725,1,8,0:0:0:0:
256,192,48862,1,0,0:0:0:0:
256,192,48930,1,0,0:0:0:0:
256,192,48999,1,0,0:0:0:0:
256,192,49136,1,8,0:0:0:0:
256,192,49273,1,0,0:0:0:0:
256,192,49547,1,0,0:0:0:0:
256,192,49684,1,0,0:0:0:0:
256,192,49752,1,0,0:0:0:0:
256,192,49821,1,8,0:0:0:0:
256,192,49958,1,0,0:0:0:0:
256,192,50095,1,8,0:0:0:0:
256,192,50163,1,8,0:0:0:0:
256,192,50232,1,0,0:0:0:0:
256,192,50368,1,8,0:0:0:0:
256,192,50505,1,0,0:0:0:0:
256,192,50642,1,8,0:0:0:0:
256,192,50711,1,0,0:0:0:0:
256,192,50779,1,8,0:0:0:0:
256,192,50916,1,0,0:0:0:0:
256,192,51053,1,8,0:0:0:0:
256,192,51190,1,0,0:0:0:0:
256,192,51259,1,0,0:0:0:0:
256,192,51327,1,0,0:0:0:0:
256,192,51464,1,8,0:0:0:0:
256,192,51533,1,0,0:0:0:0:
256,192,51601,1,8,0:0:0:0:
256,192,51670,1,8,0:0:0:0:
256,192,51738,1,0,0:0:0:0:
256,192,51875,1,8,0:0:0:0:
256,192,51944,1,8,0:0:0:0:
256,192,52012,1,0,0:0:0:0:
256,192,52149,1,8,0:0:0:0:
256,192,52286,1,0,0:0:0:0:
256,192,52423,1,8,0:0:0:0:
256,192,52560,1,0,0:0:0:0:
256,192,52629,1,0,0:0:0:0:
256,192,52697,1,8,0:0:0:0:
256,192,52834,1,0,0:0:0:0:
256,192,52903,1,0,0:0:0:0:
256,192,52971,1,0,0:0:0:0:
256,192,53108,1,8,0:0:0:0:
256,192,53245,1,0,0:0:0:0:
256,192,53314,1,0,0:0:0:0:
256,192,53382,1,8,0:0:0:0:
256,192,53519,1,0,0:0:0:0:
256,192,53656,1,8,0:0:0:0:
256,192,53725,1,8,0:0:0:0:
256,192,53793,1,0,0:0:0:0:
256,192,53862,1,0,0:0:0:0:
256,192,53930,1,8,0:0:0:0:
256,192,54204,1,8,0:0:0:0:
256,192,54478,1,8,0:0:0:0:
256,192,54752,1,8,0:0:0:0:
256,192,54889,1,0,0:0:0:0:
256,192,55026,1,8,0:0:0:0:
256,192,55300,1,8,0:0:0:0:
256,192,55574,1,8,0:0:0:0:
256,192,55711,1,0,0:0:0:0:
256,192,55848,1,8,0:0:0:0:
256,192,55985,1,0,0:0:0:0:
256,192,56053,1,0,0:0:0:0:
256,192,56122,1,8,0:0:0:0:
256,192,56396,1,8,0:0:0:0:
256,192,56670,1,8,0:0:0:0:
256,192,56944,1,8,0:0:0:0:
256,192,57081,1,0,0:0:0:0:
256,192,57218,1,8,0:0:0:0:
256,192,57492,1,8,0:0:0:0:
256,192,57766,1,8,0:0:0:0:
256,192,57903,1,0,0:0:0:0:
256,192,58040,1,8,0:0:0:0:
256,192,58108,1,8,0:0:0:0:
256,192,58177,1,0,0:0:0:0:
256,192,58245,1,0,0:0:0:0:
256,192,58314,1,8,0:0:0:0:
256,192,58451,1,8,0:0:0:0:
256,192,58588,1,0,0:0:0:0:
256,192,58725,1,8,0:0:0:0:
256,192,58862,1,0,0:0:0:0:
256,192,58999,1,0,0:0:0:0:
256,192,59136,1,8,0:0:0:0:
256,192,59273,1,0,0:0:0:0:
256,192,59410,1,8,0:0:0:0:
256,192,59547,1,0,0:0:0:0:
256,192,59684,1,8,0:0:0:0:
256,192,59821,1,8,0:0:0:0:
256,192,59958,1,0,0:0:0:0:
256,192,60095,1,0,0:0:0:0:
256,192,60232,1,8,0:0:0:0:
256,192,60300,1,8,0:0:0:0:
256,192,60368,1,8,0:0:0:0:
256,192,60437,1,8,0:0:0:0:
256,192,60505,1,0,0:0:0:0:
256,192,60642,1,8,0:0:0:0:
256,192,60711,1,8,0:0:0:0:
256,192,60779,1,0,0:0:0:0:
256,192,60916,1,8,0:0:0:0:
256,192,61053,1,0,0:0:0:0:
256,192,61122,1,0,0:0:0:0:
256,192,61190,1,8,0:0:0:0:
256,192,61259,1,8,0:0:0:0:
256,192,61327,1,0,0:0:0:0:
256,192,61464,1,8,0:0:0:0:
256,192,61601,1,0,0:0:0:0:
256,192,61670,1,0,0:0:0:0:
256,192,61738,1,0,0:0:0:0:
256,192,61807,1,0,0:0:0:0:
256,192,61875,1,8,0:0:0:0:
256,192,61944,1,8,0:0:0:0:
256,192,62012,1,8,0:0:0:0:
256,192,62081,1,8,0:0:0:0:
256,192,62149,1,0,0:0:0:0:
256,192,62218,1,0,0:0:0:0:
256,192,62286,1,8,0:0:0:0:
256,192,62355,1,8,0:0:0:0:
256,192,62423,1,8,0:0:0:0:
256,192,62492,1,8,0:0:0:0:
256,192,62560,1,0,0:0:0:0:
256,192,62629,1,0,0:0:0:0:
259,190,62697,1,8,0:0:0:0:
259,190,62971,1,0,0:0:0:0:
259,190,63108,1,8,0:0:0:0:
259,190,63177,1,8,0:0:0:0:
259,190,63245,1,8,0:0:0:0:
259,190,63382,1,0,0:0:0:0:
259,190,63519,1,8,0:0:0:0:
259,190,63588,1,8,0:0:0:0:
259,190,63656,1,8,0:0:0:0:
256,192,63793,1,0,0:0:0:0:
256,192,64067,1,0,0:0:0:0:
256,192,64341,1,0,0:0:0:0:
256,192,64478,1,8,0:0:0:0:
256,192,64547,1,0,0:0:0:0:
256,192,64752,1,0,0:0:0:0:
256,192,64889,1,0,0:0:0:0:
256,192,65163,1,0,0:0:0:0:
256,192,65437,1,0,0:0:0:0:
256,192,65574,1,8,0:0:0:0:
256,192,65642,1,0,0:0:0:0:
256,192,65779,1,8,0:0:0:0:
256,192,65848,1,0,0:0:0:0:
256,192,65985,1,8,0:0:0:0:
256,192,66259,1,8,0:0:0:0:
256,192,66533,1,8,0:0:0:0:
256,192,66670,1,0,0:0:0:0:
256,192,66738,1,8,0:0:0:0:
256,192,66944,1,8,0:0:0:0:
256,192,67081,1,8,0:0:0:0:
256,192,67149,1,0,0:0:0:0:
256,192,67286,1,0,0:0:0:0:
256,192,67355,1,8,0:0:0:0:
256,192,67492,1,0,0:0:0:0:
256,192,67629,1,8,0:0:0:0:
256,192,67766,1,0,0:0:0:0:
256,192,67834,1,8,0:0:0:0:
256,192,67971,1,0,0:0:0:0:
256,192,68040,1,8,0:0:0:0:
256,192,68177,1,0,0:0:0:0:
256,192,68451,1,0,0:0:0:0:
256,192,68725,1,0,0:0:0:0:
256,192,68862,1,8,0:0:0:0:
256,192,68930,1,0,0:0:0:0:
256,192,69136,1,0,0:0:0:0:
256,192,69273,1,0,0:0:0:0:
256,192,69547,1,0,0:0:0:0:
256,192,69821,1,0,0:0:0:0:
256,192,69958,1,8,0:0:0:0:
256,192,70026,1,0,0:0:0:0:
256,192,70232,1,0,0:0:0:0:
256,192,70368,1,8,0:0:0:0:
256,192,70642,1,8,0:0:0:0:
256,192,70916,1,0,0:0:0:0:
256,192,71053,1,8,0:0:0:0:
256,192,71122,1,0,0:0:0:0:
256,192,71327,1,0,0:0:0:0:
256,192,71464,1,8,0:0:0:0:
256,192,71738,1,0,0:0:0:0:
256,192,71875,1,0,0:0:0:0:
256,192,72012,1,8,0:0:0:0:
256,192,72286,1,12,0:0:0:0:
256,192,72560,1,0,0:0:0:0:
256,192,72697,1,8,0:0:0:0:
256,192,72834,1,0,0:0:0:0:
256,192,72903,1,0,0:0:0:0:
256,192,72971,1,8,0:0:0:0:
256,192,73108,1,0,0:0:0:0:
256,192,73177,1,8,0:0:0:0:
256,192,73314,1,0,0:0:0:0:
256,192,73382,1,8,0:0:0:0:
256,192,73519,1,8,0:0:0:0:
256,192,73656,1,0,0:0:0:0:
256,192,73793,1,8,0:0:0:0:
256,192,73930,1,0,0:0:0:0:
256,192,73999,1,0,0:0:0:0:
256,192,74067,1,8,0:0:0:0:
256,192,74204,1,0,0:0:0:0:
256,192,74273,1,8,0:0:0:0:
256,192,74410,1,0,0:0:0:0:
256,192,74478,1,8,0:0:0:0:
256,192,74615,1,0,0:0:0:0:
256,192,74752,1,8,0:0:0:0:
256,192,74889,1,0,0:0:0:0:
256,192,75026,1,8,0:0:0:0:
256,192,75095,1,8,0:0:0:0:
256,192,75163,1,0,0:0:0:0:
256,192,75300,1,8,0:0:0:0:
256,192,75368,1,0,0:0:0:0:
256,192,75505,1,8,0:0:0:0:
256,192,75574,1,0,0:0:0:0:
256,192,75711,1,0,0:0:0:0:
256,192,75848,1,8,0:0:0:0:
256,192,75985,1,0,0:0:0:0:
256,192,76122,1,8,0:0:0:0:
256,192,76190,1,8,0:0:0:0:
256,192,76259,1,0,0:0:0:0:
256,192,76396,1,8,0:0:0:0:
256,192,76464,1,0,0:0:0:0:
256,192,76533,1,8,0:0:0:0:
256,192,76601,1,8,0:0:0:0:
256,192,76670,1,0,0:0:0:0:
256,192,76807,1,8,0:0:0:0:
256,192,76944,1,0,0:0:0:0:
256,192,77081,1,8,0:0:0:0:
256,192,77149,1,8,0:0:0:0:
256,192,77218,1,0,0:0:0:0:
256,192,77286,1,0,0:0:0:0:
256,192,77355,1,8,0:0:0:0:
256,192,77492,1,0,0:0:0:0:
256,192,77560,1,8,0:0:0:0:
256,192,77629,1,0,0:0:0:0:
256,192,77697,1,0,0:0:0:0:
256,192,77766,1,8,0:0:0:0:
256,192,77903,1,8,0:0:0:0:
256,192,78040,1,0,0:0:0:0:
256,192,78177,1,8,0:0:0:0:
256,192,78245,1,8,0:0:0:0:
256,192,78314,1,0,0:0:0:0:
256,192,78382,1,0,0:0:0:0:
256,192,78451,1,8,0:0:0:0:
256,192,78588,1,0,0:0:0:0:
256,192,78725,1,8,0:0:0:0:
256,192,78793,1,0,0:0:0:0:
256,192,78862,1,8,0:0:0:0:
256,192,78930,1,8,0:0:0:0:
256,192,78999,1,0,0:0:0:0:
256,192,79136,1,8,0:0:0:0:
256,192,79273,5,0,0:0:0:0:
256,192,79341,1,0,0:0:0:0:
256,192,79410,1,8,0:0:0:0:
256,192,79478,1,8,0:0:0:0:
256,192,79547,1,0,0:0:0:0:
256,192,79684,1,8,0:0:0:0:
256,192,79821,1,8,0:0:0:0:
256,192,79889,1,8,0:0:0:0:
256,192,79958,1,0,0:0:0:0:
256,192,80026,1,8,0:0:0:0:
256,192,80095,1,0,0:0:0:0:
256,192,80232,1,12,0:0:0:0:
256,192,81053,1,8,0:0:0:0:
256,192,81327,1,0,0:0:0:0:
256,192,89821,5,8,0:0:0:0:
256,192,90095,1,4,0:0:0:0:
256,192,90368,1,8,0:0:0:0:
256,192,90642,1,0,0:0:0:0:
256,192,90779,1,8,0:0:0:0:
256,192,91053,1,8,0:0:0:0:
256,192,91190,1,8,0:0:0:0:
256,192,91327,1,0,0:0:0:0:
256,192,91464,1,8,0:0:0:0:
256,192,91738,1,0,0:0:0:0:
256,192,91875,1,0,0:0:0:0:
256,192,92012,1,8,0:0:0:0:
256,192,92286,1,0,0:0:0:0:
256,192,92560,1,8,0:0:0:0:
256,192,92834,1,0,0:0:0:0:
256,192,92971,1,8,0:0:0:0:
256,192,93245,1,8,0:0:0:0:
256,192,93382,1,8,0:0:0:0:
256,192,93519,1,0,0:0:0:0:
256,192,93656,1,8,0:0:0:0:
256,192,93793,1,8,0:0:0:0:
256,192,93930,1,0,0:0:0:0:
256,192,94067,1,8,0:0:0:0:
256,192,94204,1,0,0:0:0:0:
256,192,94478,1,8,0:0:0:0:
256,192,94615,1,8,0:0:0:0:
256,192,94752,1,8,0:0:0:0:
256,192,94889,1,8,0:0:0:0:
256,192,95026,1,8,0:0:0:0:
256,192,95163,1,8,0:0:0:0:
256,192,95300,1,8,0:0:0:0:
256,192,95437,1,8,0:0:0:0:
256,192,95574,1,8,0:0:0:0:
256,192,95711,1,8,0:0:0:0:
256,192,95848,1,8,0:0:0:0:
256,192,95985,1,8,0:0:0:0:
256,192,96122,1,8,0:0:0:0:
256,192,96259,1,8,0:0:0:0:
256,192,96396,1,8,0:0:0:0:
256,192,96533,1,8,0:0:0:0:
256,192,96670,1,0,0:0:0:0:
256,192,96738,1,0,0:0:0:0:
256,192,96807,1,8,0:0:0:0:
256,192,96944,1,8,0:0:0:0:
256,192,97012,1,8,0:0:0:0:
256,192,97081,1,0,0:0:0:0:
256,192,97218,1,8,0:0:0:0:
256,192,97286,1,8,0:0:0:0:
256,192,97355,1,8,0:0:0:0:
256,192,97423,1,8,0:0:0:0:
256,192,97492,1,0,0:0:0:0:
256,192,97560,1,0,0:0:0:0:
256,192,97629,1,8,0:0:0:0:
256,192,97697,5,8,0:0:0:0:
256,192,97766,1,0,0:0:0:0:
256,192,98588,1,8,0:0:0:0:
250,190,98862,5,4,0:0:0:0:
250,190,98999,1,8,0:0:0:0:
250,190,99136,1,0,0:0:0:0:
250,190,99204,1,0,0:0:0:0:
250,190,99273,1,8,0:0:0:0:
250,190,99410,1,0,0:0:0:0:
250,190,99478,1,0,0:0:0:0:
250,190,99547,1,8,0:0:0:0:
250,190,99615,1,8,0:0:0:0:
250,190,99684,1,0,0:0:0:0:
250,190,99821,1,8,0:0:0:0:
250,190,99958,1,0,0:0:0:0:
250,190,100026,1,0,0:0:0:0:
250,190,100095,1,0,0:0:0:0:
250,190,100232,1,8,0:0:0:0:
250,190,100300,1,8,0:0:0:0:
250,190,100368,1,0,0:0:0:0:
250,190,100437,1,0,0:0:0:0:
250,190,100505,1,8,0:0:0:0:
250,190,100642,1,0,0:0:0:0:
250,190,100711,1,8,0:0:0:0:
250,190,100779,1,0,0:0:0:0:
250,190,100916,1,8,0:0:0:0:
250,190,101053,1,0,0:0:0:0:
250,190,101122,1,0,0:0:0:0:
250,190,101190,1,8,0:0:0:0:
250,190,101327,1,0,0:0:0:0:
250,190,101396,1,0,0:0:0:0:
250,190,101464,1,8,0:0:0:0:
250,190,101533,1,0,0:0:0:0:
250,190,101601,1,8,0:0:0:0:
250,190,101738,1,0,0:0:0:0:
250,190,101807,1,0,0:0:0:0:
250,190,101875,1,8,0:0:0:0:
250,190,102012,1,0,0:0:0:0:
250,190,102149,1,8,0:0:0:0:
250,190,102218,1,8,0:0:0:0:
250,190,102286,1,0,0:0:0:0:
250,190,102423,1,8,0:0:0:0:
250,190,102492,1,8,0:0:0:0:
250,190,102560,1,0,0:0:0:0:
250,190,102629,1,8,0:0:0:0:
250,190,102697,1,0,0:0:0:0:
250,190,102834,1,8,0:0:0:0:
250,190,102903,1,0,0:0:0:0:
250,190,102971,1,0,0:0:0:0:
250,190,103108,1,8,0:0:0:0:
250,190,103245,5,0,0:0:0:0:
250,190,103382,1,8,0:0:0:0:
250,190,103519,1,0,0:0:0:0:
250,190,103588,1,0,0:0:0:0:
250,190,103656,1,8,0:0:0:0:
250,190,103793,1,0,0:0:0:0:
250,190,103862,1,0,0:0:0:0:
250,190,103930,1,8,0:0:0:0:
250,190,103999,1,8,0:0:0:0:
250,190,104067,1,0,0:0:0:0:
250,190,104204,1,8,0:0:0:0:
250,190,104341,1,0,0:0:0:0:
250,190,104410,1,0,0:0:0:0:
250,190,104478,1,0,0:0:0:0:
250,190,104615,1,8,0:0:0:0:
250,190,104684,1,8,0:0:0:0:
250,190,104752,1,0,0:0:0:0:
250,190,104821,1,0,0:0:0:0:
250,190,104889,1,8,0:0:0:0:
250,190,105026,1,0,0:0:0:0:
250,190,105095,1,8,0:0:0:0:
250,190,105163,1,0,0:0:0:0:
250,190,105232,1,0,0:0:0:0:
250,190,105300,1,8,0:0:0:0:
250,190,105437,1,0,0:0:0:0:
250,190,105505,1,0,0:0:0:0:
250,190,105574,1,8,0:0:0:0:
250,190,105711,1,0,0:0:0:0:
250,190,105779,1,0,0:0:0:0:
250,190,105848,1,8,0:0:0:0:
250,190,105916,1,0,0:0:0:0:
250,190,105985,1,8,0:0:0:0:
250,190,106122,1,0,0:0:0:0:
250,190,106259,1,8,0:0:0:0:
250,190,106396,1,0,0:0:0:0:
250,190,106533,1,8,0:0:0:0:
250,190,106601,1,8,0:0:0:0:
250,190,106670,1,0,0:0:0:0:
250,190,106807,1,8,0:0:0:0:
250,190,106875,1,8,0:0:0:0:
250,190,106944,1,0,0:0:0:0:
250,190,107012,1,8,0:0:0:0:
250,190,107081,1,0,0:0:0:0:
250,190,107149,1,0,0:0:0:0:
250,190,107218,1,8,0:0:0:0:
250,190,107286,1,8,0:0:0:0:
250,190,107355,1,0,0:0:0:0:
250,190,107492,1,8,0:0:0:0:
250,190,107629,1,0,0:0:0:0:
250,190,107697,1,0,0:0:0:0:
250,190,107766,1,0,0:0:0:0:
250,190,107903,1,8,0:0:0:0:
250,190,107971,1,8,0:0:0:0:
250,190,108040,1,0,0:0:0:0:
250,190,108108,1,0,0:0:0:0:
250,190,108177,1,8,0:0:0:0:
250,190,108314,1,0,0:0:0:0:
250,190,108382,1,0,0:0:0:0:
250,190,108451,1,8,0:0:0:0:
250,190,108588,1,0,0:0:0:0:
250,190,108725,1,8,0:0:0:0:
250,190,108793,1,0,0:0:0:0:
250,190,108862,1,0,0:0:0:0:
250,190,108999,1,8,0:0:0:0:
250,190,109067,1,8,0:0:0:0:
250,190,109136,1,0,0:0:0:0:
250,190,109204,1,0,0:0:0:0:
250,190,109273,1,8,0:0:0:0:
250,190,109410,1,0,0:0:0:0:
250,190,109478,1,8,0:0:0:0:
250,190,109547,1,0,0:0:0:0:
250,190,109684,1,8,0:0:0:0:
250,190,109821,1,0,0:0:0:0:
250,190,109889,1,0,0:0:0:0:
250,190,109958,1,0,0:0:0:0:
250,190,110095,1,8,0:0:0:0:
250,190,110163,1,8,0:0:0:0:
250,190,110232,1,0,0:0:0:0:
250,190,110300,1,0,0:0:0:0:
250,190,110368,1,8,0:0:0:0:
250,190,110505,1,0,0:0:0:0:
250,190,110574,1,0,0:0:0:0:
250,190,110642,1,8,0:0:0:0:
250,190,110779,1,0,0:0:0:0:
250,190,110916,1,8,0:0:0:0:
250,190,110985,1,0,0:0:0:0:
250,190,111053,1,0,0:0:0:0:
250,190,111190,1,8,0:0:0:0:
250,190,111259,1,8,0:0:0:0:
250,190,111327,1,0,0:0:0:0:
250,190,111396,1,0,0:0:0:0:
250,190,111464,1,8,0:0:0:0:
250,190,111601,1,0,0:0:0:0:
250,190,111670,1,8,0:0:0:0:
250,190,111738,1,0,0:0:0:0:
250,190,111875,1,8,0:0:0:0:
250,190,112012,1,0,0:0:0:0:
250,190,112081,1,0,0:0:0:0:
250,190,112149,1,0,0:0:0:0:
250,190,112286,1,8,0:0:0:0:
250,190,112355,1,8,0:0:0:0:
250,190,112423,1,0,0:0:0:0:
250,190,112492,1,0,0:0:0:0:
250,190,112560,1,8,0:0:0:0:
250,190,112697,1,0,0:0:0:0:
250,190,112766,1,8,0:0:0:0:
250,190,112834,1,0,0:0:0:0:
250,190,112903,1,0,0:0:0:0:
250,190,112971,1,8,0:0:0:0:
250,190,113108,1,0,0:0:0:0:
250,190,113177,1,0,0:0:0:0:
250,190,113245,1,0,0:0:0:0:
250,190,113382,1,8,0:0:0:0:
250,190,113451,1,0,0:0:0:0:
250,190,113519,1,8,0:0:0:0:
250,190,113588,1,8,0:0:0:0:
250,190,113656,1,0,0:0:0:0:
250,190,113793,1,8,0:0:0:0:
250,190,113862,1,8,0:0:0:0:
250,190,113930,1,0,0:0:0:0:
250,190,113999,1,0,0:0:0:0:
250,190,114067,1,8,0:0:0:0:
250,190,114204,1,0,0:0:0:0:
250,190,114273,1,0,0:0:0:0:
250,190,114341,1,0,0:0:0:0:
250,190,114478,1,8,0:0:0:0:
250,190,114547,1,8,0:0:0:0:
250,190,114615,1,0,0:0:0:0:
250,190,114684,1,8,0:0:0:0:
250,190,114752,1,0,0:0:0:0:
250,190,114821,1,0,0:0:0:0:
250,190,114889,1,8,0:0:0:0:
250,190,114958,1,0,0:0:0:0:
250,190,115026,1,0,0:0:0:0:
250,190,115095,1,0,0:0:0:0:
250,190,115163,1,8,0:0:0:0:
250,190,115300,1,0,0:0:0:0:
250,190,115574,1,0,0:0:0:0:
250,190,115848,1,0,0:0:0:0:
250,190,115985,1,0,0:0:0:0:
250,190,116122,1,12,0:0:0:0:
250,190,116396,5,4,0:0:0:0:
250,190,116670,1,0,0:0:0:0:
250,190,116807,1,0,0:0:0:0:
250,190,116944,1,12,0:0:0:0:
250,190,117081,1,0,0:0:0:0:
250,190,117149,1,0,0:0:0:0:
250,190,117218,1,0,0:0:0:0:
250,190,117355,1,8,0:0:0:0:
250,190,117492,1,0,0:0:0:0:
250,190,117560,1,8,0:0:0:0:
250,190,117629,1,0,0:0:0:0:
250,190,117766,1,8,0:0:0:0:
250,190,117903,1,0,0:0:0:0:
250,190,118040,1,12,0:0:0:0:
250,190,118177,1,0,0:0:0:0:
250,190,118245,1,8,0:0:0:0:
250,190,118314,1,0,0:0:0:0:
250,190,118382,1,0,0:0:0:0:
250,190,118451,1,8,0:0:0:0:
250,190,118588,1,0,0:0:0:0:
250,190,118862,1,0,0:0:0:0:
250,190,119136,1,12,0:0:0:0:
250,190,119273,1,0,0:0:0:0:
250,190,119341,1,0,0:0:0:0:
250,190,119410,1,0,0:0:0:0:
250,190,119547,1,8,0:0:0:0:
250,190,119684,1,0,0:0:0:0:
250,190,119752,1,0,0:0:0:0:
250,190,119821,1,0,0:0:0:0:
250,190,119958,1,8,0:0:0:0:
250,190,120026,1,8,0:0:0:0:
250,190,120095,1,0,0:0:0:0:
250,190,120232,5,12,0:0:0:0:
250,190,120368,1,0,0:0:0:0:
250,190,120505,1,8,0:0:0:0:
250,190,120574,1,8,0:0:0:0:
250,190,120642,1,8,0:0:0:0:
250,190,120711,1,8,0:0:0:0:
250,190,120779,1,0,0:0:0:0:
250,190,121053,1,0,0:0:0:0:
250,190,121327,1,12,0:0:0:0:
250,190,121464,1,0,0:0:0:0:
250,190,121533,1,0,0:0:0:0:
250,190,121601,1,0,0:0:0:0:
250,190,121738,1,8,0:0:0:0:
250,190,121875,1,0,0:0:0:0:
250,190,121944,1,8,0:0:0:0:
250,190,122012,1,0,0:0:0:0:
250,190,122081,1,0,0:0:0:0:
250,190,122149,1,8,0:0:0:0:
250,190,122286,1,0,0:0:0:0:
250,190,122423,1,12,0:0:0:0:
250,190,122560,1,0,0:0:0:0:
250,190,122697,1,8,0:0:0:0:
250,190,122766,1,0,0:0:0:0:
250,190,122834,1,8,0:0:0:0:
250,190,122903,1,8,0:0:0:0:
256,192,122971,1,0,0:0:0:0:
256,192,123245,1,8,0:0:0:0:
250,190,123314,1,8,0:0:0:0:
264,187,123382,1,0,0:0:0:0:
250,190,123519,1,12,0:0:0:0:
256,192,123656,1,0,0:0:0:0:
256,192,123793,1,8,0:0:0:0:
250,190,123862,1,8,0:0:0:0:
256,192,123930,1,8,0:0:0:0:
256,192,124067,1,0,0:0:0:0:
256,192,124341,1,8,0:0:0:0:
250,190,124478,1,0,0:0:0:0:
256,192,124615,1,12,0:0:0:0:
256,192,124752,1,0,0:0:0:0:
256,192,124889,1,8,0:0:0:0:
256,192,124958,1,8,0:0:0:0:
256,192,125026,1,8,0:0:0:0:
256,192,125095,1,8,0:0:0:0:
250,190,125163,5,0,0:0:0:0:
250,190,125437,1,0,0:0:0:0:
250,190,125574,1,0,0:0:0:0:
250,190,125711,1,12,0:0:0:0:
250,190,125848,1,0,0:0:0:0:
250,190,125916,1,0,0:0:0:0:
250,190,125985,1,0,0:0:0:0:
250,190,126122,1,8,0:0:0:0:
250,190,126259,1,0,0:0:0:0:
250,190,126327,1,8,0:0:0:0:
250,190,126396,1,0,0:0:0:0:
250,190,126464,1,0,0:0:0:0:
250,190,126533,1,8,0:0:0:0:
250,190,126670,1,0,0:0:0:0:
250,190,126807,1,12,0:0:0:0:
250,190,126944,1,0,0:0:0:0:
250,190,127012,1,0,0:0:0:0:
250,190,127081,1,8,0:0:0:0:
250,190,127149,1,0,0:0:0:0:
250,190,127218,1,8,0:0:0:0:
250,190,127355,1,0,0:0:0:0:
250,190,127629,1,0,0:0:0:0:
250,190,127903,1,12,0:0:0:0:
250,190,128040,1,0,0:0:0:0:
250,190,128177,1,0,0:0:0:0:
250,190,128314,1,8,0:0:0:0:
250,190,128451,1,0,0:0:0:0:
250,190,128519,1,0,0:0:0:0:
250,190,128588,1,0,0:0:0:0:
250,190,128725,1,8,0:0:0:0:
250,190,128793,1,8,0:0:0:0:
250,190,128862,1,0,0:0:0:0:
250,190,128999,5,12,0:0:0:0:
250,190,129136,1,0,0:0:0:0:
250,190,129204,1,0,0:0:0:0:
250,190,129273,1,8,0:0:0:0:
250,190,129341,1,0,0:0:0:0:
250,190,129410,1,8,0:0:0:0:
250,190,129478,1,8,0:0:0:0:
250,190,129547,1,0,0:0:0:0:
250,190,129821,1,0,0:0:0:0:
250,190,130095,1,12,0:0:0:0:
250,190,130232,1,0,0:0:0:0:
250,190,130300,1,0,0:0:0:0:
250,190,130368,1,0,0:0:0:0:
250,190,130505,1,8,0:0:0:0:
250,190,130642,1,0,0:0:0:0:
250,190,130711,1,8,0:0:0:0:
250,190,130779,1,0,0:0:0:0:
250,190,130848,1,0,0:0:0:0:
250,190,130916,1,8,0:0:0:0:
250,190,130985,1,8,0:0:0:0:
250,190,131053,1,0,0:0:0:0:
250,190,131190,1,12,0:0:0:0:
250,190,131327,1,0,0:0:0:0:
250,190,131464,1,8,0:0:0:0:
250,190,131533,1,0,0:0:0:0:
250,190,131601,1,8,0:0:0:0:
250,190,131670,1,8,0:0:0:0:
256,192,131738,1,0,0:0:0:0:
256,192,132012,1,8,0:0:0:0:
250,190,132081,1,8,0:0:0:0:
264,187,132149,1,0,0:0:0:0:
250,190,132286,1,12,0:0:0:0:
250,190,132423,1,0,0:0:0:0:
256,192,132560,1,8,0:0:0:0:
250,190,132629,1,8,0:0:0:0:
256,192,132697,1,8,0:0:0:0:
256,192,132834,1,0,0:0:0:0:
256,192,133108,1,8,0:0:0:0:
250,190,133245,1,0,0:0:0:0:
256,192,133382,1,12,0:0:0:0:
256,192,133519,1,0,0:0:0:0:
256,192,133656,1,8,0:0:0:0:
256,192,133725,1,8,0:0:0:0:
256,192,133793,1,8,0:0:0:0:
256,192,133930,1,0,0:0:0:0:
256,192,134204,1,0,0:0:0:0:
256,192,134478,1,0,0:0:0:0:
256,192,134752,1,8,0:0:0:0:
256,192,134821,1,8,0:0:0:0:
256,192,134889,1,8,0:0:0:0:
259,190,135026,1,4,0:0:0:0:
259,190,135300,1,0,0:0:0:0:
259,190,135437,1,8,0:0:0:0:
259,190,135505,1,8,0:0:0:0:
259,190,135574,1,0,0:0:0:0:
259,190,135711,1,8,0:0:0:0:
259,190,135848,1,0,0:0:0:0:
259,190,135916,1,8,0:0:0:0:
259,190,135985,1,0,0:0:0:0:
259,190,136122,1,8,0:0:0:0:
259,190,136190,1,8,0:0:0:0:
259,190,136259,1,8,0:0:0:0:
259,190,136396,1,0,0:0:0:0:
259,190,136533,1,8,0:0:0:0:
259,190,136670,2,4,L|329:194,30,52.5000020027161
259,190,138862,1,12,0:0:0:0:
