osu file format v14

[General]
AudioFilename: audio.mp3
AudioLeadIn: 0
PreviewTime: 9004
Countdown: 0
SampleSet: Normal
StackLeniency: 0.7
Mode: 1
LetterboxInBreaks: 0
WidescreenStoryboard: 1

[Editor]
DistanceSpacing: 1.4
BeatDivisor: 12
GridSize: 32
TimelineZoom: 1.2

[Metadata]
Title:why did i enter the art course
TitleUnicode:why did i enter the art course
Artist:momone
ArtistUnicode:momone
Creator:dtn
Version:kantan
Source:
Tags:dtnt0r eriha roxy- kurokurokuro japanese dariacore dobicore 01 : afterthought momonesakai jade electronic instrumental hyperflip きんいろモザイク kinmoza kiniro golden mosaic Jumping!! Rhodanthe*
BeatmapID:4116848
BeatmapSetID:1981451

[Difficulty]
HPDrainRate:8
CircleSize:5
OverallDifficulty:3
ApproachRate:5
SliderMultiplier:1.4
SliderTickRate:1

[Events]
//Background and Video events
0,0,"Untitled.jpg",0,0
//Break Periods
2,81527,88621
//Storyboard Layer 0 (Background)
//Storyboard Layer 1 (Fail)
//Storyboard Layer 2 (Pass)
//Storyboard Layer 3 (Foreground)
//Storyboard Layer 4 (Overlay)
//Storyboard Sound Samples

[TimingPoints]
232,273.972602739726,4,1,0,100,1,0
232,-111.111111111111,4,1,0,100,0,0
12286,-111.111111111111,4,1,0,100,0,1
18862,-111.111111111111,4,1,0,100,0,0
21053,-111.111111111111,4,1,0,100,0,1
27629,-111.111111111111,4,1,0,60,0,0
45095,-111.111111111111,4,1,0,100,0,0
63793,-111.111111111111,4,1,0,60,0,0
72149,-111.111111111111,4,1,0,80,0,0
81396,-111.111111111111,4,1,0,5,0,0
89752,-111.111111111111,4,1,0,100,0,0
98862,-111.111111111111,4,1,0,100,0,1
115300,-111.111111111111,4,1,0,100,0,0
116396,-111.111111111111,4,1,0,100,0,1
124889,-111.111111111111,4,1,0,100,0,0
125163,-111.111111111111,4,1,0,100,0,1
135026,-111.111111111111,4,1,0,100,0,0

[HitObjects]
259,190,232,5,4,0:0:0:0:
259,190,779,1,8,0:0:0:0:
259,190,1053,1,8,0:0:0:0:
259,190,1327,1,0,0:0:0:0:
259,190,1738,1,8,0:0:0:0:
259,190,2012,1,0,0:0:0:0:
259,190,2423,1,8,0:0:0:0:
259,190,2971,1,8,0:0:0:0:
259,190,3519,1,0,0:0:0:0:
259,190,4341,1,8,0:0:0:0:
259,190,4615,1,0,0:0:0:0:
259,190,5163,1,0,0:0:0:0:
259,190,5437,1,8,0:0:0:0:
259,190,5711,1,0,0:0:0:0:
259,190,6259,1,8,0:0:0:0:
259,190,6807,1,0,0:0:0:0:
259,190,7355,1,8,0:0:0:0:
259,190,7629,1,0,0:0:0:0:
259,190,7903,1,8,0:0:0:0:
259,190,8314,1,0,0:0:0:0:
259,190,8725,1,0,0:0:0:0:
259,190,8999,1,8,0:0:0:0:
259,190,9821,1,8,0:0:0:0:
259,190,10095,1,4,0:0:0:0:
259,190,12012,1,8,0:0:0:0:
259,190,12286,1,4,0:0:0:0:
259,190,12560,1,0,0:0:0:0:
259,190,12834,1,8,0:0:0:0:
259,190,13656,1,0,0:0:0:0:
259,190,13930,1,8,0:0:0:0:
259,190,14478,1,0,0:0:0:0:
256,192,14752,1,0,0:0:0:0:
256,192,15026,1,8,0:0:0:0:
259,190,15848,1,0,0:0:0:0:
259,190,16122,1,8,0:0:0:0:
259,190,16396,1,8,0:0:0:0:
259,190,16670,1,0,0:0:0:0:
259,190,17218,1,8,0:0:0:0:
259,190,17629,1,0,0:0:0:0:
259,190,18040,1,0,0:0:0:0:
259,190,18314,1,8,0:0:0:0:
259,190,18588,1,12,0:0:0:0:
259,190,18862,1,0,0:0:0:0:
256,192,20779,1,8,0:0:0:0:
256,192,21053,1,4,0:0:0:0:
256,192,21327,1,0,0:0:0:0:
256,192,21601,1,8,0:0:0:0:
256,192,22423,1,0,0:0:0:0:
256,192,22697,1,8,0:0:0:0:
256,192,22971,1,8,0:0:0:0:
256,192,23245,1,0,0:0:0:0:
256,192,23793,1,8,0:0:0:0:
256,192,24615,1,0,0:0:0:0:
256,192,24889,1,8,0:0:0:0:
256,192,25437,1,0,0:0:0:0:
256,192,25711,1,0,0:0:0:0:
256,192,25985,1,8,0:0:0:0:
256,192,26396,1,0,0:0:0:0:
256,192,26807,1,8,0:0:0:0:
256,192,27081,1,8,0:0:0:0:
256,192,27355,1,8,0:0:0:0:
256,192,27629,1,4,0:0:0:0:
256,192,28725,1,0,0:0:0:0:
256,192,28999,1,8,0:0:0:0:
256,192,29547,1,8,0:0:0:0:
256,192,30095,1,8,0:0:0:0:
256,192,30642,1,8,0:0:0:0:
256,192,30916,1,0,0:0:0:0:
256,192,31190,1,8,0:0:0:0:
256,192,32012,1,0,0:0:0:0:
256,192,32286,1,8,0:0:0:0:
256,192,32834,1,8,0:0:0:0:
256,192,33382,1,8,0:0:0:0:
256,192,33930,1,8,0:0:0:0:
256,192,34204,1,0,0:0:0:0:
256,192,34478,1,8,0:0:0:0:
256,192,35026,1,8,0:0:0:0:
256,192,35300,1,0,0:0:0:0:
256,192,35574,1,8,0:0:0:0:
256,192,36396,1,8,0:0:0:0:
256,192,36944,1,8,0:0:0:0:
256,192,37492,1,8,0:0:0:0:
256,192,38040,1,8,0:0:0:0:
256,192,38314,1,8,0:0:0:0:
256,192,38588,1,8,0:0:0:0:
256,192,39136,1,8,0:0:0:0:
256,192,39684,1,8,0:0:0:0:
256,192,40779,1,8,0:0:0:0:
256,192,41327,1,8,0:0:0:0:
256,192,41875,1,8,0:0:0:0:
256,192,42423,1,8,0:0:0:0:
256,192,42697,1,8,0:0:0:0:
256,192,42971,1,8,0:0:0:0:
256,192,43519,1,8,0:0:0:0:
256,192,44067,1,8,0:0:0:0:
256,192,45163,1,0,0:0:0:0:
256,192,46259,1,0,0:0:0:0:
256,192,46670,1,8,0:0:0:0:
256,192,47081,1,0,0:0:0:0:
256,192,47355,1,0,0:0:0:0:
256,192,47766,1,8,0:0:0:0:
256,192,48451,1,0,0:0:0:0:
256,192,49273,1,8,0:0:0:0:
256,192,49547,1,0,0:0:0:0:
256,192,50368,1,0,0:0:0:0:
256,192,50642,1,0,0:0:0:0:
256,192,50916,1,8,0:0:0:0:
256,192,51464,1,0,0:0:0:0:
256,192,51738,1,8,0:0:0:0:
256,192,52286,1,0,0:0:0:0:
256,192,52697,1,0,0:0:0:0:
256,192,53245,1,8,0:0:0:0:
256,192,53656,1,0,0:0:0:0:
256,192,53930,1,8,0:0:0:0:
256,192,55026,1,8,0:0:0:0:
256,192,55574,1,8,0:0:0:0:
256,192,55848,1,8,0:0:0:0:
256,192,56122,1,8,0:0:0:0:
256,192,56670,1,8,0:0:0:0:
256,192,57218,1,8,0:0:0:0:
256,192,58314,1,8,0:0:0:0:
256,192,58862,1,8,0:0:0:0:
256,192,59136,1,8,0:0:0:0:
256,192,59410,1,8,0:0:0:0:
256,192,59958,1,8,0:0:0:0:
256,192,60505,1,0,0:0:0:0:
256,192,60779,1,0,0:0:0:0:
256,192,61053,1,0,0:0:0:0:
256,192,61601,1,0,0:0:0:0:
256,192,61875,1,0,0:0:0:0:
256,192,62149,1,0,0:0:0:0:
259,190,62697,1,8,0:0:0:0:
256,192,63793,1,0,0:0:0:0:
256,192,64341,1,0,0:0:0:0:
256,192,64615,1,0,0:0:0:0:
256,192,64889,1,0,0:0:0:0:
256,192,65437,1,0,0:0:0:0:
256,192,65985,1,8,0:0:0:0:
256,192,66533,1,8,0:0:0:0:
256,192,67081,1,8,0:0:0:0:
256,192,67355,1,8,0:0:0:0:
256,192,67629,1,8,0:0:0:0:
256,192,68177,1,0,0:0:0:0:
256,192,68725,1,0,0:0:0:0:
256,192,68999,1,0,0:0:0:0:
256,192,69273,1,0,0:0:0:0:
256,192,69821,1,0,0:0:0:0:
256,192,70368,1,8,0:0:0:0:
256,192,70916,1,0,0:0:0:0:
256,192,71464,1,8,0:0:0:0:
256,192,72286,1,12,0:0:0:0:
256,192,72560,1,0,0:0:0:0:
256,192,73108,1,0,0:0:0:0:
256,192,73382,1,8,0:0:0:0:
256,192,73656,1,0,0:0:0:0:
256,192,74204,1,0,0:0:0:0:
256,192,74478,1,8,0:0:0:0:
256,192,74752,1,8,0:0:0:0:
256,192,75300,1,8,0:0:0:0:
256,192,75848,1,0,0:0:0:0:
256,192,76396,1,0,0:0:0:0:
256,192,76670,1,8,0:0:0:0:
256,192,76944,1,0,0:0:0:0:
256,192,77492,1,8,0:0:0:0:
256,192,78040,1,0,0:0:0:0:
256,192,78588,1,0,0:0:0:0:
256,192,78862,1,0,0:0:0:0:
256,192,79136,1,8,0:0:0:0:
256,192,79684,1,0,0:0:0:0:
256,192,79958,1,8,0:0:0:0:
256,192,80232,1,4,0:0:0:0:
256,192,81053,5,12,0:0:0:0:
256,192,81327,1,4,0:0:0:0:
256,192,89821,5,8,0:0:0:0:
256,192,90095,1,4,0:0:0:0:
256,192,90642,1,0,0:0:0:0:
256,192,90916,1,0,0:0:0:0:
256,192,91190,1,8,0:0:0:0:
256,192,91738,1,0,0:0:0:0:
256,192,92012,1,8,0:0:0:0:
256,192,92286,1,0,0:0:0:0:
256,192,92834,1,0,0:0:0:0:
256,192,93382,1,8,0:0:0:0:
256,192,94478,1,8,0:0:0:0:
256,192,95026,1,0,0:0:0:0:
256,192,95574,1,8,0:0:0:0:
256,192,95848,1,8,0:0:0:0:
256,192,96122,1,8,0:0:0:0:
256,192,96670,1,0,0:0:0:0:
256,192,97218,1,8,0:0:0:0:
256,192,97492,1,8,0:0:0:0:
256,192,97766,1,0,0:0:0:0:
256,192,98588,1,12,0:0:0:0:
256,192,98862,1,4,0:0:0:0:
256,192,99410,1,8,0:0:0:0:
256,192,99684,1,8,0:0:0:0:
256,192,99958,1,0,0:0:0:0:
256,192,100505,1,8,0:0:0:0:
256,192,101053,1,0,0:0:0:0:
256,192,101601,1,0,0:0:0:0:
256,192,101875,1,0,0:0:0:0:
256,192,102149,1,8,0:0:0:0:
256,192,103245,1,0,0:0:0:0:
256,192,103793,1,8,0:0:0:0:
256,192,104067,1,8,0:0:0:0:
256,192,104341,1,0,0:0:0:0:
256,192,104889,1,8,0:0:0:0:
256,192,105437,1,0,0:0:0:0:
256,192,105711,1,0,0:0:0:0:
256,192,105985,1,8,0:0:0:0:
256,192,106533,1,0,0:0:0:0:
256,192,107629,1,8,0:0:0:0:
256,192,107903,1,0,0:0:0:0:
256,192,108177,1,0,0:0:0:0:
256,192,108725,1,8,0:0:0:0:
256,192,108999,1,8,0:0:0:0:
256,192,109273,1,8,0:0:0:0:
256,192,109821,1,0,0:0:0:0:
256,192,110095,1,8,0:0:0:0:
256,192,110368,1,0,0:0:0:0:
256,192,110916,1,8,0:0:0:0:
256,192,112012,1,8,0:0:0:0:
256,192,112286,1,8,0:0:0:0:
256,192,112560,1,0,0:0:0:0:
256,192,113108,1,0,0:0:0:0:
256,192,113382,1,8,0:0:0:0:
256,192,113656,1,0,0:0:0:0:
256,192,114204,1,0,0:0:0:0:
256,192,114478,1,0,0:0:0:0:
256,192,114752,1,8,0:0:0:0:
256,192,115300,1,8,0:0:0:0:
259,190,116396,1,4,0:0:0:0:
259,190,116670,1,0,0:0:0:0:
259,190,116944,1,8,0:0:0:0:
259,190,117766,1,0,0:0:0:0:
259,190,118040,1,8,0:0:0:0:
259,190,118588,1,0,0:0:0:0:
256,192,118862,1,0,0:0:0:0:
256,192,119136,1,8,0:0:0:0:
259,190,119958,1,0,0:0:0:0:
259,190,120232,1,8,0:0:0:0:
259,190,120779,1,0,0:0:0:0:
259,190,121327,1,8,0:0:0:0:
259,190,121738,1,0,0:0:0:0:
259,190,122149,1,0,0:0:0:0:
259,190,122423,1,8,0:0:0:0:
259,190,122697,1,0,0:0:0:0:
259,190,122971,1,8,0:0:0:0:
259,190,123519,1,8,0:0:0:0:
259,190,124067,1,8,0:0:0:0:
259,190,124889,1,8,0:0:0:0:
259,190,125163,1,0,0:0:0:0:
259,190,125711,1,8,0:0:0:0:
259,190,126533,1,0,0:0:0:0:
259,190,126807,1,8,0:0:0:0:
259,190,127355,1,0,0:0:0:0:
259,190,127629,1,0,0:0:0:0:
259,190,127903,1,8,0:0:0:0:
256,192,128314,1,8,0:0:0:0:
256,192,128999,1,8,0:0:0:0:
256,192,129547,1,0,0:0:0:0:
256,192,129821,1,0,0:0:0:0:
256,192,130095,1,8,0:0:0:0:
256,192,131190,1,8,0:0:0:0:
256,192,131738,1,0,0:0:0:0:
256,192,132012,1,0,0:0:0:0:
256,192,132286,1,8,0:0:0:0:
256,192,133108,1,0,0:0:0:0:
256,192,133382,1,8,0:0:0:0:
256,192,133656,1,0,0:0:0:0:
256,192,133930,1,8,0:0:0:0:
256,192,134752,1,8,0:0:0:0:
256,192,135026,1,4,0:0:0:0:
256,192,135574,1,8,0:0:0:0:
256,192,136122,1,0,0:0:0:0:
256,192,136396,1,0,0:0:0:0:
256,192,136670,2,0,L|192:192,16,62.9999980773926
