osu file format v14

[General]
AudioFilename: audio.mp3
AudioLeadIn: 0
PreviewTime: 9004
Countdown: 0
SampleSet: Normal
StackLeniency: 0.7
Mode: 1
LetterboxInBreaks: 0
WidescreenStoryboard: 1

[Editor]
DistanceSpacing: 1.4
BeatDivisor: 8
GridSize: 32
TimelineZoom: 1.3

[Metadata]
Title:why did i enter the art course
TitleUnicode:why did i enter the art course
Artist:momone
ArtistUnicode:momone
Creator:dtn
Version:futsuu
Source:
Tags:dtnt0r eriha roxy- kurokurokuro japanese dariacore dobicore 01 : afterthought momonesakai jade electronic instrumental hyperflip きんいろモザイク kinmoza kiniro golden mosaic Jumping!! Rhodanthe*
BeatmapID:4116847
BeatmapSetID:1981451

[Difficulty]
HPDrainRate:7
CircleSize:5
OverallDifficulty:4
ApproachRate:5
SliderMultiplier:1.4
SliderTickRate:1

[Events]
//Background and Video events
0,0,"Untitled.jpg",0,0
//Break Periods
2,81527,88621
//Storyboard Layer 0 (Background)
//Storyboard Layer 1 (Fail)
//Storyboard Layer 2 (Pass)
//Storyboard Layer 3 (Foreground)
//Storyboard Layer 4 (Overlay)
//Storyboard Sound Samples

[TimingPoints]
232,273.972602739726,4,1,0,100,1,0
232,-100,4,1,0,100,0,0
12286,-100,4,1,0,100,0,1
18862,-100,4,1,0,100,0,0
21053,-100,4,1,0,100,0,1
27629,-100,4,1,0,60,0,0
45095,-100,4,1,0,100,0,0
63793,-100,4,1,0,60,0,0
72149,-100,4,1,0,80,0,0
81396,-100,4,1,0,5,0,0
89752,-100,4,1,0,100,0,0
98862,-100,4,1,0,100,0,1
115300,-100,4,1,0,100,0,0
116396,-100,4,1,0,100,0,1
124889,-100,4,1,0,100,0,0
125163,-100,4,1,0,100,0,1
135026,-100,4,1,0,100,0,0

[HitObjects]
259,190,232,5,4,0:0:0:0:
259,190,505,1,8,0:0:0:0:
259,190,779,1,8,0:0:0:0:
259,190,916,1,0,0:0:0:0:
259,190,1053,1,8,0:0:0:0:
259,190,1327,1,0,0:0:0:0:
259,190,1601,1,0,0:0:0:0:
259,190,1738,1,8,0:0:0:0:
259,190,2012,1,0,0:0:0:0:
259,190,2423,1,8,0:0:0:0:
259,190,2697,1,0,0:0:0:0:
259,190,2971,1,8,0:0:0:0:
259,190,3245,1,0,0:0:0:0:
259,190,3519,1,8,0:0:0:0:
259,190,3793,1,8,0:0:0:0:
259,190,3930,1,0,0:0:0:0:
259,190,4615,1,0,0:0:0:0:
259,190,5026,1,0,0:0:0:0:
259,190,5300,1,8,0:0:0:0:
259,190,5437,1,0,0:0:0:0:
259,190,5711,1,0,0:0:0:0:
259,190,5848,1,0,0:0:0:0:
259,190,5985,1,8,0:0:0:0:
259,190,6122,1,0,0:0:0:0:
259,190,6396,1,0,0:0:0:0:
259,190,6533,1,8,0:0:0:0:
259,190,6807,1,0,0:0:0:0:
259,190,7081,1,8,0:0:0:0:
259,190,7355,1,8,0:0:0:0:
259,190,7629,1,0,0:0:0:0:
259,190,7903,1,8,0:0:0:0:
259,190,8177,1,8,0:0:0:0:
259,190,8314,1,0,0:0:0:0:
259,190,8588,1,0,0:0:0:0:
259,190,8725,1,8,0:0:0:0:
259,190,8999,1,8,0:0:0:0:
259,190,9684,1,0,0:0:0:0:
259,190,9821,1,8,0:0:0:0:
259,190,10095,1,4,0:0:0:0:
259,190,12012,1,8,0:0:0:0:
259,190,12286,1,4,0:0:0:0:
259,190,12560,1,0,0:0:0:0:
259,190,12834,1,8,0:0:0:0:
259,190,13245,1,0,0:0:0:0:
259,190,13656,1,0,0:0:0:0:
259,190,13793,1,0,0:0:0:0:
259,190,13930,1,8,0:0:0:0:
259,190,14204,1,0,0:0:0:0:
259,190,14341,1,8,0:0:0:0:
259,190,14478,1,8,0:0:0:0:
259,190,14752,1,0,0:0:0:0:
259,190,15026,1,8,0:0:0:0:
259,190,15437,1,0,0:0:0:0:
259,190,15848,1,0,0:0:0:0:
259,190,15985,1,0,0:0:0:0:
259,190,16122,1,8,0:0:0:0:
259,190,16670,1,0,0:0:0:0:
259,190,16944,1,0,0:0:0:0:
259,190,17218,1,8,0:0:0:0:
259,190,17492,1,0,0:0:0:0:
259,190,17629,1,8,0:0:0:0:
259,190,18040,1,8,0:0:0:0:
259,190,18314,1,8,0:0:0:0:
259,190,18588,1,12,0:0:0:0:
259,190,18862,1,0,0:0:0:0:
256,192,19136,1,8,0:0:0:0:
256,192,19410,1,8,0:0:0:0:
256,192,19547,1,8,0:0:0:0:
256,192,19684,1,0,0:0:0:0:
256,192,19821,1,8,0:0:0:0:
256,192,20232,1,0,0:0:0:0:
256,192,20368,1,8,0:0:0:0:
256,192,20505,1,0,0:0:0:0:
256,192,20779,1,8,0:0:0:0:
256,192,21053,1,4,0:0:0:0:
256,192,21327,1,0,0:0:0:0:
256,192,21601,1,8,0:0:0:0:
256,192,22012,1,0,0:0:0:0:
256,192,22423,1,0,0:0:0:0:
256,192,22560,1,0,0:0:0:0:
256,192,22697,1,8,0:0:0:0:
256,192,22971,1,0,0:0:0:0:
256,192,23108,1,8,0:0:0:0:
256,192,23245,1,8,0:0:0:0:
256,192,23519,1,0,0:0:0:0:
256,192,23656,1,0,0:0:0:0:
256,192,23793,1,8,0:0:0:0:
256,192,24204,1,0,0:0:0:0:
256,192,24615,1,0,0:0:0:0:
256,192,24752,1,0,0:0:0:0:
256,192,24889,1,8,0:0:0:0:
256,192,25437,1,0,0:0:0:0:
256,192,25711,1,0,0:0:0:0:
256,192,25848,1,0,0:0:0:0:
256,192,25985,1,8,0:0:0:0:
256,192,26259,1,0,0:0:0:0:
256,192,26396,1,8,0:0:0:0:
256,192,26670,1,8,0:0:0:0:
256,192,26807,1,8,0:0:0:0:
256,192,27081,1,8,0:0:0:0:
256,192,27218,1,8,0:0:0:0:
256,192,27355,1,8,0:0:0:0:
256,192,27629,1,4,0:0:0:0:
256,192,27903,1,8,0:0:0:0:
256,192,28314,1,0,0:0:0:0:
256,192,28451,1,8,0:0:0:0:
256,192,28725,1,0,0:0:0:0:
256,192,28999,1,8,0:0:0:0:
256,192,29410,1,0,0:0:0:0:
256,192,29547,1,8,0:0:0:0:
256,192,29821,1,0,0:0:0:0:
256,192,30095,1,8,0:0:0:0:
256,192,30505,1,0,0:0:0:0:
256,192,30642,1,8,0:0:0:0:
256,192,30916,1,0,0:0:0:0:
256,192,31190,1,8,0:0:0:0:
256,192,31738,1,8,0:0:0:0:
256,192,32012,1,0,0:0:0:0:
256,192,32286,1,8,0:0:0:0:
256,192,32697,1,0,0:0:0:0:
256,192,32834,1,8,0:0:0:0:
256,192,33108,1,0,0:0:0:0:
256,192,33382,1,8,0:0:0:0:
256,192,33793,1,0,0:0:0:0:
256,192,33930,1,8,0:0:0:0:
256,192,34204,1,0,0:0:0:0:
256,192,34478,1,8,0:0:0:0:
256,192,34752,1,0,0:0:0:0:
256,192,34889,1,0,0:0:0:0:
256,192,35026,1,8,0:0:0:0:
256,192,35300,1,0,0:0:0:0:
256,192,35574,1,8,0:0:0:0:
256,192,35711,1,0,0:0:0:0:
256,192,35985,1,0,0:0:0:0:
256,192,36122,1,8,0:0:0:0:
256,192,36259,1,0,0:0:0:0:
256,192,36396,5,8,0:0:0:0:
256,192,36944,1,8,0:0:0:0:
256,192,37218,1,8,0:0:0:0:
256,192,37492,1,8,0:0:0:0:
256,192,37766,1,8,0:0:0:0:
256,192,38040,1,8,0:0:0:0:
256,192,38314,1,8,0:0:0:0:
256,192,38451,1,8,0:0:0:0:
256,192,38588,1,8,0:0:0:0:
256,192,38862,1,8,0:0:0:0:
256,192,39136,1,8,0:0:0:0:
256,192,39410,1,8,0:0:0:0:
256,192,39684,1,8,0:0:0:0:
256,192,39821,1,8,0:0:0:0:
256,192,39958,1,8,0:0:0:0:
256,192,40232,1,8,0:0:0:0:
256,192,40779,1,8,0:0:0:0:
256,192,41053,1,8,0:0:0:0:
256,192,41327,1,8,0:0:0:0:
256,192,41601,1,8,0:0:0:0:
256,192,41738,1,8,0:0:0:0:
256,192,41875,1,8,0:0:0:0:
256,192,42149,1,8,0:0:0:0:
256,192,42423,1,8,0:0:0:0:
256,192,42697,1,8,0:0:0:0:
256,192,42834,1,8,0:0:0:0:
256,192,42971,1,8,0:0:0:0:
256,192,43245,1,8,0:0:0:0:
256,192,43519,1,8,0:0:0:0:
256,192,43793,1,8,0:0:0:0:
256,192,44067,1,8,0:0:0:0:
256,192,44204,1,8,0:0:0:0:
256,192,44341,1,8,0:0:0:0:
256,192,44615,1,8,0:0:0:0:
256,192,45163,1,0,0:0:0:0:
256,192,45574,1,0,0:0:0:0:
256,192,45848,1,8,0:0:0:0:
256,192,45985,1,0,0:0:0:0:
256,192,46259,1,0,0:0:0:0:
256,192,46533,1,0,0:0:0:0:
256,192,46670,1,8,0:0:0:0:
256,192,46944,1,8,0:0:0:0:
256,192,47081,1,0,0:0:0:0:
256,192,47355,1,0,0:0:0:0:
256,192,47766,1,8,0:0:0:0:
256,192,48040,1,0,0:0:0:0:
256,192,48177,1,8,0:0:0:0:
256,192,48451,1,0,0:0:0:0:
256,192,48588,1,8,0:0:0:0:
256,192,48725,1,8,0:0:0:0:
256,192,48862,1,0,0:0:0:0:
256,192,49136,1,8,0:0:0:0:
256,192,49410,1,8,0:0:0:0:
256,192,49547,1,0,0:0:0:0:
256,192,50095,1,0,0:0:0:0:
256,192,50232,1,8,0:0:0:0:
256,192,50368,1,0,0:0:0:0:
256,192,50642,1,0,0:0:0:0:
256,192,50779,1,8,0:0:0:0:
256,192,50916,1,8,0:0:0:0:
256,192,51190,1,0,0:0:0:0:
256,192,51464,1,0,0:0:0:0:
256,192,51601,1,0,0:0:0:0:
256,192,51738,1,8,0:0:0:0:
256,192,51875,1,8,0:0:0:0:
256,192,52012,1,0,0:0:0:0:
264,194,52286,1,8,0:0:0:0:
256,192,52560,1,0,0:0:0:0:
256,192,52834,1,0,0:0:0:0:
256,192,52971,1,0,0:0:0:0:
256,192,53108,1,8,0:0:0:0:
256,192,53382,1,0,0:0:0:0:
256,192,53930,1,8,0:0:0:0:
256,192,54204,1,8,0:0:0:0:
256,192,54478,1,8,0:0:0:0:
256,192,54752,1,8,0:0:0:0:
256,192,55026,1,8,0:0:0:0:
256,192,55300,1,8,0:0:0:0:
256,192,55574,1,8,0:0:0:0:
256,192,56122,1,8,0:0:0:0:
256,192,56396,1,8,0:0:0:0:
256,192,56670,1,8,0:0:0:0:
256,192,56944,1,8,0:0:0:0:
256,192,57218,5,8,0:0:0:0:
256,192,57492,1,8,0:0:0:0:
256,192,57766,1,8,0:0:0:0:
256,192,58314,5,8,0:0:0:0:
256,192,58588,1,8,0:0:0:0:
256,192,58725,1,8,0:0:0:0:
256,192,58862,1,8,0:0:0:0:
256,192,59136,1,8,0:0:0:0:
256,192,59410,1,8,0:0:0:0:
256,192,59547,1,8,0:0:0:0:
256,192,59821,1,8,0:0:0:0:
256,192,59958,1,8,0:0:0:0:
256,192,60095,1,8,0:0:0:0:
256,192,60232,1,8,0:0:0:0:
256,192,60505,1,0,0:0:0:0:
256,192,60642,1,0,0:0:0:0:
256,192,60779,1,0,0:0:0:0:
256,192,61053,1,0,0:0:0:0:
256,192,61327,1,8,0:0:0:0:
256,192,61464,1,8,0:0:0:0:
256,192,61601,1,0,0:0:0:0:
256,192,61875,1,0,0:0:0:0:
256,192,62012,1,8,0:0:0:0:
256,192,62149,1,0,0:0:0:0:
256,192,62423,1,8,0:0:0:0:
259,190,62697,5,8,0:0:0:0:
259,190,63519,1,8,0:0:0:0:
256,192,63793,5,0,0:0:0:0:
256,192,64067,1,0,0:0:0:0:
256,192,64341,1,0,0:0:0:0:
256,192,64752,1,0,0:0:0:0:
256,192,64889,1,0,0:0:0:0:
256,192,65163,1,0,0:0:0:0:
256,192,65437,1,0,0:0:0:0:
256,192,65985,1,8,0:0:0:0:
256,192,66259,1,8,0:0:0:0:
256,192,66533,1,8,0:0:0:0:
256,192,66944,1,8,0:0:0:0:
256,192,67081,1,8,0:0:0:0:
256,192,67355,1,8,0:0:0:0:
256,192,67629,1,8,0:0:0:0:
256,192,68177,1,0,0:0:0:0:
256,192,68451,1,0,0:0:0:0:
256,192,68725,1,0,0:0:0:0:
256,192,69136,1,0,0:0:0:0:
256,192,69273,1,0,0:0:0:0:
256,192,69547,1,0,0:0:0:0:
256,192,69821,1,0,0:0:0:0:
256,192,70368,1,8,0:0:0:0:
256,192,70642,1,8,0:0:0:0:
256,192,70916,1,0,0:0:0:0:
256,192,71327,1,0,0:0:0:0:
256,192,71464,1,8,0:0:0:0:
256,192,71738,1,0,0:0:0:0:
256,192,71875,1,0,0:0:0:0:
256,192,72012,1,8,0:0:0:0:
256,192,72286,1,12,0:0:0:0:
256,192,72560,1,0,0:0:0:0:
256,192,72834,1,0,0:0:0:0:
256,192,73108,1,0,0:0:0:0:
256,192,73382,1,8,0:0:0:0:
256,192,73519,1,8,0:0:0:0:
256,192,73656,1,0,0:0:0:0:
256,192,73930,1,0,0:0:0:0:
256,192,74204,1,0,0:0:0:0:
256,192,74478,1,8,0:0:0:0:
256,192,74752,1,8,0:0:0:0:
256,192,75300,1,0,0:0:0:0:
256,192,75574,1,8,0:0:0:0:
256,192,75711,1,0,0:0:0:0:
256,192,75848,1,0,0:0:0:0:
256,192,76122,1,8,0:0:0:0:
256,192,76259,1,0,0:0:0:0:
256,192,76396,1,8,0:0:0:0:
256,192,76670,1,0,0:0:0:0:
256,192,76807,1,8,0:0:0:0:
256,192,76944,1,0,0:0:0:0:
256,192,77218,1,0,0:0:0:0:
256,192,77492,1,8,0:0:0:0:
256,192,77629,5,8,0:0:0:0:
256,192,77766,1,0,0:0:0:0:
256,192,78040,1,0,0:0:0:0:
256,192,78314,1,8,0:0:0:0:
256,192,78588,1,0,0:0:0:0:
256,192,78725,1,0,0:0:0:0:
256,192,78862,1,8,0:0:0:0:
256,192,79136,1,0,0:0:0:0:
256,192,79410,1,8,0:0:0:0:
256,192,79684,1,0,0:0:0:0:
256,192,79958,1,8,0:0:0:0:
256,192,80095,1,8,0:0:0:0:
256,192,80232,1,4,0:0:0:0:
256,192,81053,5,12,0:0:0:0:
256,192,81327,1,4,0:0:0:0:
256,192,89821,5,8,0:0:0:0:
256,192,90095,5,4,0:0:0:0:
256,192,90368,1,8,0:0:0:0:
256,192,90642,1,0,0:0:0:0:
256,192,90779,1,8,0:0:0:0:
256,192,90916,1,0,0:0:0:0:
256,192,91190,1,8,0:0:0:0:
256,192,91738,1,0,0:0:0:0:
256,192,91875,1,0,0:0:0:0:
256,192,92012,1,8,0:0:0:0:
256,192,92286,1,0,0:0:0:0:
256,192,92560,1,8,0:0:0:0:
256,192,92834,1,0,0:0:0:0:
256,192,92971,1,8,0:0:0:0:
256,192,93245,1,8,0:0:0:0:
256,192,93519,1,0,0:0:0:0:
256,192,93656,1,8,0:0:0:0:
256,192,93930,1,0,0:0:0:0:
256,192,94067,1,8,0:0:0:0:
256,192,94204,1,0,0:0:0:0:
256,192,94478,1,8,0:0:0:0:
256,192,94615,1,8,0:0:0:0:
256,192,94752,1,8,0:0:0:0:
256,192,95026,1,8,0:0:0:0:
256,192,95300,1,8,0:0:0:0:
256,192,95437,1,8,0:0:0:0:
256,192,95574,1,8,0:0:0:0:
256,192,95848,1,8,0:0:0:0:
256,192,96122,1,8,0:0:0:0:
256,192,96259,1,8,0:0:0:0:
256,192,96396,1,8,0:0:0:0:
256,192,96670,1,0,0:0:0:0:
256,192,96944,1,8,0:0:0:0:
256,192,97081,1,0,0:0:0:0:
256,192,97218,1,8,0:0:0:0:
256,192,97492,1,0,0:0:0:0:
256,192,97629,1,8,0:0:0:0:
256,192,97766,1,0,0:0:0:0:
256,192,98588,5,12,0:0:0:0:
256,192,98862,1,4,0:0:0:0:
255,184,99136,1,8,0:0:0:0:
256,192,99273,1,0,0:0:0:0:
256,192,99410,1,8,0:0:0:0:
256,192,99684,1,0,0:0:0:0:
256,192,99821,1,8,0:0:0:0:
254,183,99958,1,0,0:0:0:0:
256,192,100232,1,0,0:0:0:0:
256,192,100505,1,8,0:0:0:0:
256,192,100779,1,0,0:0:0:0:
256,192,100916,1,8,0:0:0:0:
256,192,101053,1,0,0:0:0:0:
256,192,101327,1,8,0:0:0:0:
256,192,101464,1,8,0:0:0:0:
256,192,101601,1,0,0:0:0:0:
256,192,101875,1,8,0:0:0:0:
256,192,102149,1,0,0:0:0:0:
256,192,102423,1,0,0:0:0:0:
256,192,102560,1,8,0:0:0:0:
256,192,102697,1,8,0:0:0:0:
256,192,103245,1,0,0:0:0:0:
255,184,103519,1,8,0:0:0:0:
256,192,103656,1,0,0:0:0:0:
256,192,103793,1,8,0:0:0:0:
256,192,104067,1,0,0:0:0:0:
256,192,104204,1,8,0:0:0:0:
254,183,104341,1,0,0:0:0:0:
256,192,104615,1,0,0:0:0:0:
256,192,104889,1,8,0:0:0:0:
256,192,105163,1,0,0:0:0:0:
256,192,105300,1,8,0:0:0:0:
256,192,105437,1,0,0:0:0:0:
256,192,105711,1,8,0:0:0:0:
256,192,105848,1,8,0:0:0:0:
256,192,105985,1,0,0:0:0:0:
256,192,106259,1,8,0:0:0:0:
256,192,106533,1,0,0:0:0:0:
256,192,106807,1,0,0:0:0:0:
256,192,106944,1,8,0:0:0:0:
256,192,107081,1,8,0:0:0:0:
256,192,107629,1,0,0:0:0:0:
256,192,107903,1,8,0:0:0:0:
256,192,108040,1,8,0:0:0:0:
256,192,108177,1,8,0:0:0:0:
256,192,108451,1,0,0:0:0:0:
256,192,108725,1,8,0:0:0:0:
256,192,108862,1,8,0:0:0:0:
256,192,108999,1,0,0:0:0:0:
256,192,109136,1,8,0:0:0:0:
256,192,109273,1,8,0:0:0:0:
256,192,109547,1,0,0:0:0:0:
256,192,109821,1,8,0:0:0:0:
256,192,109958,1,8,0:0:0:0:
256,192,110095,1,8,0:0:0:0:
256,192,110368,1,8,0:0:0:0:
256,192,110642,1,0,0:0:0:0:
256,192,110779,1,0,0:0:0:0:
256,192,110916,1,8,0:0:0:0:
256,192,111190,1,0,0:0:0:0:
256,192,111327,1,8,0:0:0:0:
256,192,111464,1,8,0:0:0:0:
256,192,112012,1,8,0:0:0:0:
256,192,112286,1,0,0:0:0:0:
256,192,112423,1,0,0:0:0:0:
256,192,112560,1,8,0:0:0:0:
256,192,112834,1,0,0:0:0:0:
256,192,113108,1,8,0:0:0:0:
256,192,113245,1,0,0:0:0:0:
256,192,113382,1,0,0:0:0:0:
256,192,113519,1,0,0:0:0:0:
256,192,113656,1,8,0:0:0:0:
256,192,113930,1,0,0:0:0:0:
256,192,114204,5,8,0:0:0:0:
256,192,114478,1,0,0:0:0:0:
256,192,114615,1,8,0:0:0:0:
256,192,114752,1,0,0:0:0:0:
256,192,115026,1,8,0:0:0:0:
256,192,115163,1,8,0:0:0:0:
256,192,115300,1,8,0:0:0:0:
256,192,116122,1,12,0:0:0:0:
259,190,116396,1,4,0:0:0:0:
259,190,116670,1,0,0:0:0:0:
259,190,116944,1,8,0:0:0:0:
259,190,117355,1,0,0:0:0:0:
259,190,117629,1,0,0:0:0:0:
259,190,117766,1,0,0:0:0:0:
259,190,118040,1,8,0:0:0:0:
259,190,118314,1,0,0:0:0:0:
259,190,118451,1,0,0:0:0:0:
259,190,118588,1,8,0:0:0:0:
259,190,118862,1,0,0:0:0:0:
259,190,119136,1,8,0:0:0:0:
259,190,119410,1,0,0:0:0:0:
259,190,119547,1,0,0:0:0:0:
259,190,119684,1,8,0:0:0:0:
259,190,119821,1,8,0:0:0:0:
259,190,119958,1,0,0:0:0:0:
259,190,120232,1,8,0:0:0:0:
259,190,120779,1,0,0:0:0:0:
259,190,121053,1,0,0:0:0:0:
259,190,121327,1,8,0:0:0:0:
259,190,121738,1,8,0:0:0:0:
259,190,122149,1,8,0:0:0:0:
259,190,122286,1,0,0:0:0:0:
259,190,122423,1,8,0:0:0:0:
259,190,122697,1,8,0:0:0:0:
256,192,122834,1,8,0:0:0:0:
256,192,122971,1,8,0:0:0:0:
256,192,123245,1,0,0:0:0:0:
256,192,123519,1,8,0:0:0:0:
256,192,123793,1,8,0:0:0:0:
256,192,123930,1,0,0:0:0:0:
256,192,124204,1,0,0:0:0:0:
256,192,124341,1,8,0:0:0:0:
256,192,124615,1,8,0:0:0:0:
259,190,125163,1,4,0:0:0:0:
259,190,125437,1,0,0:0:0:0:
259,190,125711,1,8,0:0:0:0:
259,190,126122,1,0,0:0:0:0:
259,190,126533,1,0,0:0:0:0:
259,190,126670,1,0,0:0:0:0:
259,190,126807,1,8,0:0:0:0:
259,190,127081,1,0,0:0:0:0:
259,190,127355,1,8,0:0:0:0:
259,190,127629,1,0,0:0:0:0:
259,190,127903,1,8,0:0:0:0:
259,190,128177,1,0,0:0:0:0:
259,190,128314,1,0,0:0:0:0:
259,190,128451,1,8,0:0:0:0:
259,190,128588,1,8,0:0:0:0:
259,190,128725,1,8,0:0:0:0:
259,190,128999,1,8,0:0:0:0:
259,190,129547,1,0,0:0:0:0:
259,190,129821,1,0,0:0:0:0:
259,190,130095,1,8,0:0:0:0:
259,190,130505,1,0,0:0:0:0:
259,190,130916,1,8,0:0:0:0:
259,190,131053,1,0,0:0:0:0:
259,190,131190,1,8,0:0:0:0:
256,192,131464,1,8,0:0:0:0:
256,192,131601,1,8,0:0:0:0:
256,192,131738,1,8,0:0:0:0:
256,192,132012,1,0,0:0:0:0:
256,192,132286,1,8,0:0:0:0:
256,192,132560,1,8,0:0:0:0:
256,192,132697,1,0,0:0:0:0:
256,192,133108,1,0,0:0:0:0:
256,192,133245,1,0,0:0:0:0:
256,192,133382,1,8,0:0:0:0:
256,192,133656,1,8,0:0:0:0:
256,192,133930,1,0,0:0:0:0:
256,192,134204,5,0,0:0:0:0:
256,192,134478,1,8,0:0:0:0:
256,192,134615,1,0,0:0:0:0:
256,192,134752,1,8,0:0:0:0:
256,192,135026,1,4,0:0:0:0:
256,192,135574,1,8,0:0:0:0:
256,192,135711,1,8,0:0:0:0:
256,192,135848,1,8,0:0:0:0:
256,192,135985,1,0,0:0:0:0:
256,192,136259,1,0,0:0:0:0:
256,192,136396,1,0,0:0:0:0:
256,192,136533,1,8,0:0:0:0:
256,192,136670,2,0,L|192:192,32,35
