osu file format v14

[General]
AudioFilename: audio.mp3
AudioLeadIn: 0
PreviewTime: 9004
Countdown: 0
SampleSet: Normal
StackLeniency: 0.7
Mode: 1
LetterboxInBreaks: 0
WidescreenStoryboard: 1

[Editor]
DistanceSpacing: 1.4
BeatDivisor: 16
GridSize: 32
TimelineZoom: 3.099999

[Metadata]
Title:why did i enter the art course
TitleUnicode:why did i enter the art course
Artist:momone
ArtistUnicode:momone
Creator:dtn
Version:eriha's oni
Source:
Tags:dtnt0r eriha roxy- kurokurokuro japanese dariacore dobicore 01 : afterthought momonesakai jade electronic instrumental hyperflip きんいろモザイク kinmoza kiniro golden mosaic Jumping!! Rhodanthe*
BeatmapID:4133066
BeatmapSetID:1981451

[Difficulty]
HPDrainRate:5
CircleSize:5
OverallDifficulty:6
ApproachRate:5
SliderMultiplier:1.4
SliderTickRate:1

[Events]
//Background and Video events
0,0,"Untitled.jpg",0,0
//Break Periods
//Storyboard Layer 0 (Background)
//Storyboard Layer 1 (Fail)
//Storyboard Layer 2 (Pass)
//Storyboard Layer 3 (Foreground)
//Storyboard Layer 4 (Overlay)
//Storyboard Sound Samples

[TimingPoints]
232,273.972602739726,4,1,0,100,1,0
232,-100,4,1,0,100,0,0
12286,-100,4,1,0,100,0,1
18862,-100,4,1,0,100,0,0
21053,-100,4,1,0,100,0,1
27629,-100,4,1,0,60,0,0
63793,-100,4,1,0,60,0,0
81293,-100,4,1,0,60,0,0
89752,-100,4,1,0,100,0,0
98862,-100,4,1,0,100,0,1
115300,-100,4,1,0,100,0,0
116396,-100,4,1,0,100,0,1
135026,-100,4,1,0,100,0,0

[HitObjects]
256,192,232,5,4,0:0:0:0:
256,192,505,1,0,0:0:0:0:
256,192,779,1,8,0:0:0:0:
256,192,916,1,8,0:0:0:0:
256,192,1053,1,0,0:0:0:0:
256,192,1327,1,8,0:0:0:0:
256,192,1464,1,8,0:0:0:0:
256,192,1601,1,0,0:0:0:0:
256,192,1738,1,8,0:0:0:0:
256,192,2012,1,0,0:0:0:0:
256,192,2423,1,8,0:0:0:0:
256,192,2697,1,0,0:0:0:0:
256,192,2971,1,8,0:0:0:0:
256,192,3245,1,0,0:0:0:0:
256,192,3519,1,8,0:0:0:0:
256,192,3656,1,8,0:0:0:0:
256,192,3793,1,0,0:0:0:0:
256,192,3930,1,0,0:0:0:0:
256,192,4204,1,8,0:0:0:0:
256,192,4341,1,8,0:0:0:0:
256,192,4410,1,8,0:0:0:0:
256,192,4478,1,8,0:0:0:0:
256,192,4615,1,0,0:0:0:0:
256,192,4889,1,8,0:0:0:0:
256,192,5026,1,0,0:0:0:0:
256,192,5163,1,8,0:0:0:0:
256,192,5437,1,8,0:0:0:0:
256,192,5711,1,0,0:0:0:0:
256,192,5848,1,8,0:0:0:0:
256,192,5985,1,8,0:0:0:0:
256,192,6122,1,0,0:0:0:0:
256,192,6396,1,8,0:0:0:0:
256,192,6533,1,8,0:0:0:0:
256,192,6601,1,8,0:0:0:0:
256,192,6670,1,8,0:0:0:0:
256,192,6807,1,0,0:0:0:0:
256,192,6944,1,0,0:0:0:0:
256,192,7081,1,8,0:0:0:0:
256,192,7218,1,0,0:0:0:0:
256,192,7355,1,8,0:0:0:0:
256,192,7492,1,8,0:0:0:0:
256,192,7629,1,0,0:0:0:0:
256,192,7903,1,8,0:0:0:0:
256,192,8040,1,0,0:0:0:0:
256,192,8108,1,0,0:0:0:0:
256,192,8177,1,8,0:0:0:0:
256,192,8314,1,0,0:0:0:0:
256,192,8451,1,8,0:0:0:0:
256,192,8588,1,8,0:0:0:0:
256,192,8725,1,0,0:0:0:0:
256,192,8999,1,0,0:0:0:0:
256,192,9273,1,0,0:0:0:0:
256,192,9547,1,8,0:0:0:0:
256,192,9821,1,12,0:0:0:0:
256,192,10095,1,4,0:0:0:0:
256,192,10368,1,8,0:0:0:0:
256,192,10505,1,0,0:0:0:0:
256,192,10574,1,0,0:0:0:0:
256,192,10642,1,8,0:0:0:0:
256,192,10779,1,8,0:0:0:0:
256,192,10916,1,0,0:0:0:0:
256,192,11053,1,8,0:0:0:0:
256,192,11327,1,0,0:0:0:0:
256,192,11464,1,8,0:0:0:0:
256,192,11601,1,8,0:0:0:0:
256,192,11738,1,0,0:0:0:0:
256,192,11807,1,0,0:0:0:0:
256,192,11875,1,0,0:0:0:0:
256,192,12012,1,8,0:0:0:0:
256,192,12149,1,8,0:0:0:0:
256,192,12286,1,0,0:0:0:0:
256,192,12560,1,0,0:0:0:0:
256,192,12834,1,12,0:0:0:0:
256,192,13108,1,8,0:0:0:0:
256,192,13245,1,0,0:0:0:0:
256,192,13382,1,8,0:0:0:0:
256,192,13519,1,0,0:0:0:0:
256,192,13588,1,0,0:0:0:0:
256,192,13656,1,0,0:0:0:0:
256,192,13793,1,0,0:0:0:0:
256,192,13930,1,12,0:0:0:0:
256,192,14204,1,8,0:0:0:0:
256,192,14341,1,8,0:0:0:0:
256,192,14410,1,8,0:0:0:0:
256,192,14478,1,0,0:0:0:0:
256,192,14752,1,0,0:0:0:0:
256,192,14889,1,0,0:0:0:0:
256,192,15026,1,12,0:0:0:0:
256,192,15300,1,8,0:0:0:0:
256,192,15437,1,0,0:0:0:0:
256,192,15574,1,8,0:0:0:0:
256,192,15711,1,0,0:0:0:0:
256,192,15779,1,0,0:0:0:0:
256,192,15848,1,0,0:0:0:0:
256,192,15985,1,0,0:0:0:0:
256,192,16122,1,12,0:0:0:0:
256,192,16396,1,8,0:0:0:0:
256,192,16464,1,8,0:0:0:0:
256,192,16533,1,8,0:0:0:0:
256,192,16670,1,0,0:0:0:0:
256,192,16807,1,0,0:0:0:0:
256,192,16944,1,8,0:0:0:0:
256,192,17081,1,0,0:0:0:0:
256,192,17218,1,12,0:0:0:0:
256,192,17492,1,0,0:0:0:0:
256,192,17629,1,8,0:0:0:0:
256,192,17766,1,8,0:0:0:0:
256,192,17903,1,0,0:0:0:0:
256,192,17971,1,0,0:0:0:0:
256,192,18040,1,8,0:0:0:0:
256,192,18177,1,0,0:0:0:0:
256,192,18314,1,12,0:0:0:0:
256,192,18588,1,12,0:0:0:0:
256,192,18862,1,0,0:0:0:0:
256,192,19136,1,8,0:0:0:0:
256,192,19273,1,0,0:0:0:0:
256,192,19341,1,0,0:0:0:0:
256,192,19410,1,8,0:0:0:0:
256,192,19547,1,8,0:0:0:0:
256,192,19684,1,0,0:0:0:0:
256,192,19821,1,8,0:0:0:0:
256,192,20095,1,0,0:0:0:0:
256,192,20232,1,8,0:0:0:0:
256,192,20368,1,8,0:0:0:0:
256,192,20505,1,0,0:0:0:0:
256,192,20574,1,0,0:0:0:0:
256,192,20642,1,0,0:0:0:0:
256,192,20779,1,12,0:0:0:0:
256,192,21053,1,0,0:0:0:0:
256,192,21327,1,0,0:0:0:0:
256,192,21601,1,12,0:0:0:0:
256,192,21875,1,8,0:0:0:0:
256,192,22012,1,0,0:0:0:0:
256,192,22149,1,8,0:0:0:0:
256,192,22286,1,0,0:0:0:0:
256,192,22355,1,0,0:0:0:0:
256,192,22423,1,0,0:0:0:0:
256,192,22560,1,0,0:0:0:0:
256,192,22697,1,12,0:0:0:0:
256,192,22971,1,8,0:0:0:0:
256,192,23108,1,8,0:0:0:0:
256,192,23177,1,8,0:0:0:0:
256,192,23245,1,0,0:0:0:0:
256,192,23519,1,0,0:0:0:0:
256,192,23656,1,0,0:0:0:0:
256,192,23793,1,12,0:0:0:0:
256,192,24067,1,8,0:0:0:0:
256,192,24204,1,0,0:0:0:0:
256,192,24341,1,8,0:0:0:0:
256,192,24478,1,0,0:0:0:0:
256,192,24547,1,0,0:0:0:0:
256,192,24615,1,0,0:0:0:0:
256,192,24752,1,0,0:0:0:0:
256,192,24889,1,12,0:0:0:0:
256,192,25163,1,8,0:0:0:0:
256,192,25232,1,8,0:0:0:0:
256,192,25300,1,8,0:0:0:0:
256,192,25437,1,0,0:0:0:0:
256,192,25574,1,0,0:0:0:0:
256,192,25711,1,8,0:0:0:0:
256,192,25848,1,0,0:0:0:0:
256,192,25985,1,12,0:0:0:0:
256,192,26259,1,0,0:0:0:0:
256,192,26396,1,8,0:0:0:0:
256,192,26533,1,8,0:0:0:0:
256,192,26670,1,0,0:0:0:0:
256,192,26807,1,8,0:0:0:0:
256,192,26944,1,0,0:0:0:0:
256,192,27081,1,8,0:0:0:0:
256,192,27149,1,8,0:0:0:0:
256,192,27218,1,8,0:0:0:0:
256,192,27355,1,8,0:0:0:0:
256,192,27492,1,0,0:0:0:0:
256,192,27629,1,8,0:0:0:0:
256,192,27903,1,0,0:0:0:0:
256,192,28177,1,8,0:0:0:0:
256,192,28314,1,8,0:0:0:0:
256,192,28451,1,0,0:0:0:0:
256,192,28588,1,8,0:0:0:0:
256,192,28862,1,0,0:0:0:0:
256,192,28999,1,8,0:0:0:0:
256,192,29273,1,0,0:0:0:0:
256,192,29410,1,8,0:0:0:0:
256,192,29684,1,0,0:0:0:0:
256,192,29821,1,8,0:0:0:0:
256,192,29958,1,8,0:0:0:0:
256,192,30095,1,0,0:0:0:0:
256,192,30368,1,8,0:0:0:0:
256,192,30505,1,8,0:0:0:0:
256,192,30642,1,0,0:0:0:0:
256,192,30779,1,8,0:0:0:0:
256,192,31053,1,0,0:0:0:0:
256,192,31190,1,8,0:0:0:0:
256,192,31464,1,0,0:0:0:0:
256,192,31601,1,0,0:0:0:0:
256,192,31738,1,8,0:0:0:0:
256,192,31875,1,8,0:0:0:0:
256,192,32012,1,0,0:0:0:0:
256,192,32286,1,8,0:0:0:0:
256,192,32560,1,0,0:0:0:0:
256,192,32697,1,8,0:0:0:0:
256,192,32834,1,0,0:0:0:0:
256,192,32971,1,8,0:0:0:0:
256,192,33245,1,0,0:0:0:0:
256,192,33382,1,8,0:0:0:0:
256,192,33656,1,0,0:0:0:0:
256,192,33930,1,8,0:0:0:0:
256,192,34067,1,8,0:0:0:0:
256,192,34204,1,0,0:0:0:0:
256,192,34341,1,0,0:0:0:0:
256,192,34478,1,8,0:0:0:0:
256,192,34752,1,0,0:0:0:0:
256,192,34889,1,8,0:0:0:0:
256,192,35026,1,8,0:0:0:0:
256,192,35163,1,0,0:0:0:0:
256,192,35437,1,8,0:0:0:0:
256,192,35574,1,0,0:0:0:0:
256,192,35848,1,0,0:0:0:0:
256,192,36122,1,8,0:0:0:0:
256,192,36259,1,8,0:0:0:0:
256,192,36396,1,0,0:0:0:0:
256,192,36670,1,8,0:0:0:0:
256,192,36944,1,8,0:0:0:0:
256,192,37218,1,8,0:0:0:0:
256,192,37492,1,0,0:0:0:0:
256,192,37766,1,8,0:0:0:0:
256,192,38040,1,8,0:0:0:0:
256,192,38314,1,8,0:0:0:0:
256,192,38451,1,8,0:0:0:0:
256,192,38588,1,0,0:0:0:0:
256,192,38862,1,8,0:0:0:0:
256,192,39136,1,8,0:0:0:0:
256,192,39410,1,8,0:0:0:0:
256,192,39684,1,0,0:0:0:0:
256,192,39821,1,8,0:0:0:0:
256,192,39958,1,8,0:0:0:0:
256,192,40232,1,8,0:0:0:0:
256,192,40437,1,8,0:0:0:0:
256,192,40505,1,8,0:0:0:0:
256,192,40642,1,8,0:0:0:0:
256,192,40779,1,0,0:0:0:0:
256,192,41053,1,8,0:0:0:0:
256,192,41327,1,8,0:0:0:0:
256,192,41601,1,8,0:0:0:0:
256,192,41738,1,8,0:0:0:0:
256,192,41875,1,0,0:0:0:0:
256,192,42149,1,8,0:0:0:0:
256,192,42423,1,8,0:0:0:0:
256,192,42697,1,8,0:0:0:0:
256,192,42834,1,8,0:0:0:0:
256,192,42971,1,0,0:0:0:0:
256,192,43245,1,8,0:0:0:0:
256,192,43519,1,8,0:0:0:0:
256,192,43793,1,8,0:0:0:0:
256,192,44067,1,0,0:0:0:0:
256,192,44204,1,8,0:0:0:0:
256,192,44341,1,8,0:0:0:0:
256,192,44615,1,8,0:0:0:0:
256,192,44889,1,8,0:0:0:0:
256,192,44958,1,8,0:0:0:0:
256,192,45026,1,8,0:0:0:0:
256,192,45163,1,4,0:0:0:0:
256,192,45437,1,8,0:0:0:0:
256,192,45574,1,0,0:0:0:0:
256,192,45642,1,0,0:0:0:0:
256,192,45711,1,0,0:0:0:0:
256,192,45848,1,8,0:0:0:0:
256,192,45985,1,0,0:0:0:0:
256,192,46259,1,0,0:0:0:0:
256,192,46396,1,0,0:0:0:0:
256,192,46533,1,8,0:0:0:0:
256,192,46670,1,0,0:0:0:0:
256,192,46738,1,0,0:0:0:0:
256,192,46807,1,8,0:0:0:0:
256,192,46944,1,0,0:0:0:0:
256,192,47081,1,8,0:0:0:0:
256,192,47218,1,8,0:0:0:0:
256,192,47355,1,0,0:0:0:0:
256,192,47629,1,8,0:0:0:0:
256,192,47766,1,0,0:0:0:0:
256,192,47834,1,0,0:0:0:0:
256,192,47903,1,8,0:0:0:0:
256,192,48040,1,8,0:0:0:0:
256,192,48177,1,0,0:0:0:0:
256,192,48451,1,0,0:0:0:0:
256,192,48588,1,0,0:0:0:0:
256,192,48725,1,8,0:0:0:0:
256,192,48862,1,0,0:0:0:0:
256,192,48930,1,8,0:0:0:0:
256,192,48999,1,8,0:0:0:0:
256,192,49136,1,0,0:0:0:0:
256,192,49273,1,8,0:0:0:0:
256,192,49410,1,8,0:0:0:0:
256,192,49547,1,0,0:0:0:0:
256,192,49615,1,0,0:0:0:0:
256,192,49684,1,0,0:0:0:0:
256,192,49821,1,8,0:0:0:0:
256,192,49958,1,0,0:0:0:0:
256,192,50095,1,0,0:0:0:0:
256,192,50232,1,8,0:0:0:0:
256,192,50368,1,0,0:0:0:0:
256,192,50642,1,8,0:0:0:0:
256,192,50711,1,8,0:0:0:0:
256,192,50779,1,8,0:0:0:0:
256,192,50916,1,0,0:0:0:0:
256,192,51053,1,8,0:0:0:0:
256,192,51190,1,0,0:0:0:0:
256,192,51327,1,0,0:0:0:0:
256,192,51464,1,8,0:0:0:0:
256,192,51601,1,8,0:0:0:0:
256,192,51738,1,0,0:0:0:0:
256,192,52012,1,8,0:0:0:0:
256,192,52149,1,0,0:0:0:0:
256,192,52218,1,0,0:0:0:0:
256,192,52286,1,8,0:0:0:0:
256,192,52423,1,0,0:0:0:0:
256,192,52560,1,0,0:0:0:0:
256,192,52697,1,8,0:0:0:0:
256,192,52971,1,8,0:0:0:0:
256,192,53040,1,8,0:0:0:0:
256,192,53108,1,0,0:0:0:0:
256,192,53245,1,8,0:0:0:0:
256,192,53382,1,8,0:0:0:0:
256,192,53519,1,0,0:0:0:0:
256,192,53588,1,0,0:0:0:0:
256,192,53656,1,8,0:0:0:0:
256,192,53793,1,0,0:0:0:0:
256,192,53930,1,12,0:0:0:0:
256,192,54204,1,8,0:0:0:0:
256,192,54478,1,8,0:0:0:0:
256,192,54752,1,8,0:0:0:0:
256,192,55026,1,8,0:0:0:0:
256,192,55300,1,8,0:0:0:0:
256,192,55574,1,8,0:0:0:0:
256,192,55848,1,8,0:0:0:0:
256,192,55916,1,8,0:0:0:0:
256,192,55985,1,8,0:0:0:0:
256,192,56122,1,8,0:0:0:0:
256,192,56396,1,8,0:0:0:0:
256,192,56670,1,8,0:0:0:0:
256,192,56944,1,8,0:0:0:0:
256,192,57218,1,8,0:0:0:0:
256,192,57492,1,8,0:0:0:0:
256,192,57766,1,8,0:0:0:0:
256,192,58040,1,8,0:0:0:0:
256,192,58108,1,8,0:0:0:0:
256,192,58177,1,8,0:0:0:0:
256,192,58245,1,8,0:0:0:0:
256,192,58314,1,0,0:0:0:0:
256,192,58451,1,0,0:0:0:0:
256,192,58588,1,8,0:0:0:0:
256,192,58725,1,0,0:0:0:0:
256,192,58862,1,8,0:0:0:0:
256,192,58999,1,8,0:0:0:0:
256,192,59136,1,0,0:0:0:0:
256,192,59410,1,8,0:0:0:0:
256,192,59547,1,0,0:0:0:0:
256,192,59684,1,8,0:0:0:0:
256,192,59821,1,8,0:0:0:0:
256,192,59958,1,0,0:0:0:0:
256,192,60095,1,0,0:0:0:0:
256,192,60232,1,8,0:0:0:0:
256,192,60505,1,8,0:0:0:0:
256,192,60642,1,0,0:0:0:0:
256,192,60711,1,0,0:0:0:0:
256,192,60779,1,8,0:0:0:0:
256,192,60916,1,0,0:0:0:0:
256,192,61053,1,8,0:0:0:0:
256,192,61190,1,0,0:0:0:0:
256,192,61259,1,8,0:0:0:0:
256,192,61327,1,0,0:0:0:0:
256,192,61464,1,0,0:0:0:0:
256,192,61601,1,8,0:0:0:0:
256,192,61670,1,8,0:0:0:0:
256,192,61738,1,0,0:0:0:0:
256,192,61875,1,8,0:0:0:0:
256,192,61944,1,8,0:0:0:0:
256,192,62012,1,8,0:0:0:0:
256,192,62149,1,0,0:0:0:0:
256,192,62286,1,8,0:0:0:0:
256,192,62423,1,0,0:0:0:0:
256,192,62492,1,0,0:0:0:0:
256,192,62560,1,8,0:0:0:0:
256,192,62697,1,0,0:0:0:0:
256,192,62971,1,0,0:0:0:0:
256,192,63108,1,8,0:0:0:0:
256,192,63177,1,8,0:0:0:0:
256,192,63245,1,8,0:0:0:0:
256,192,63382,1,8,0:0:0:0:
256,192,63519,1,0,0:0:0:0:
256,192,63588,1,0,0:0:0:0:
256,192,63656,1,8,0:0:0:0:
256,192,63793,1,0,0:0:0:0:
256,192,64067,1,0,0:0:0:0:
256,192,64341,1,0,0:0:0:0:
256,192,64547,1,0,0:0:0:0:
256,192,64752,1,0,0:0:0:0:
256,192,64889,1,0,0:0:0:0:
256,192,65163,1,0,0:0:0:0:
256,192,65437,1,0,0:0:0:0:
256,192,65642,1,0,0:0:0:0:
256,192,65711,1,8,0:0:0:0:
256,192,65848,1,0,0:0:0:0:
256,192,65985,1,8,0:0:0:0:
256,192,66259,1,8,0:0:0:0:
256,192,66533,1,8,0:0:0:0:
256,192,66738,1,8,0:0:0:0:
256,192,67012,1,8,0:0:0:0:
256,192,67081,1,8,0:0:0:0:
256,192,67149,1,8,0:0:0:0:
256,192,67286,1,8,0:0:0:0:
256,192,67355,1,8,0:0:0:0:
256,192,67492,1,8,0:0:0:0:
256,192,67629,1,0,0:0:0:0:
256,192,67697,1,0,0:0:0:0:
256,192,67766,1,0,0:0:0:0:
256,192,67903,1,8,0:0:0:0:
256,192,68040,1,0,0:0:0:0:
256,192,68177,1,0,0:0:0:0:
256,192,68451,1,0,0:0:0:0:
256,192,68725,1,0,0:0:0:0:
256,192,68930,1,0,0:0:0:0:
256,192,69136,1,0,0:0:0:0:
256,192,69273,1,0,0:0:0:0:
256,192,69547,1,0,0:0:0:0:
256,192,69821,1,0,0:0:0:0:
256,192,70026,1,0,0:0:0:0:
256,192,70095,1,8,0:0:0:0:
256,192,70232,1,0,0:0:0:0:
256,192,70368,1,8,0:0:0:0:
256,192,70642,1,8,0:0:0:0:
256,192,70916,1,8,0:0:0:0:
256,192,71122,1,8,0:0:0:0:
256,192,71327,1,8,0:0:0:0:
256,192,71464,1,8,0:0:0:0:
256,192,71670,1,8,0:0:0:0:
256,192,71738,1,8,0:0:0:0:
256,192,71875,1,8,0:0:0:0:
256,192,72012,1,0,0:0:0:0:
256,192,72081,1,0,0:0:0:0:
256,192,72149,1,0,0:0:0:0:
256,192,72286,1,12,0:0:0:0:
256,192,72560,1,0,0:0:0:0:
256,192,72834,1,0,0:0:0:0:
256,192,72971,1,8,0:0:0:0:
256,192,73108,1,0,0:0:0:0:
256,192,73245,1,0,0:0:0:0:
256,192,73314,1,0,0:0:0:0:
256,192,73382,1,8,0:0:0:0:
256,192,73519,1,0,0:0:0:0:
256,192,73656,1,0,0:0:0:0:
256,192,73793,1,8,0:0:0:0:
256,192,73930,1,0,0:0:0:0:
256,192,74204,1,0,0:0:0:0:
256,192,74341,1,0,0:0:0:0:
256,192,74410,1,0,0:0:0:0:
256,192,74478,1,8,0:0:0:0:
256,192,74615,1,0,0:0:0:0:
256,192,74752,1,8,0:0:0:0:
256,192,75026,1,8,0:0:0:0:
256,192,75163,1,0,0:0:0:0:
256,192,75300,1,8,0:0:0:0:
256,192,75437,1,8,0:0:0:0:
256,192,75505,1,8,0:0:0:0:
256,192,75574,1,0,0:0:0:0:
256,192,75711,1,8,0:0:0:0:
256,192,75848,1,8,0:0:0:0:
256,192,75985,1,0,0:0:0:0:
256,192,76122,1,8,0:0:0:0:
256,192,76396,1,8,0:0:0:0:
256,192,76464,1,8,0:0:0:0:
256,192,76533,1,0,0:0:0:0:
256,192,76670,1,8,0:0:0:0:
256,192,76807,1,8,0:0:0:0:
256,192,76944,1,0,0:0:0:0:
256,192,77081,1,8,0:0:0:0:
256,192,77218,1,0,0:0:0:0:
256,192,77355,1,8,0:0:0:0:
256,192,77492,1,0,0:0:0:0:
256,192,77629,1,0,0:0:0:0:
256,192,77697,1,0,0:0:0:0:
256,192,77766,1,8,0:0:0:0:
256,192,77903,1,0,0:0:0:0:
256,192,78040,1,0,0:0:0:0:
256,192,78177,1,8,0:0:0:0:
256,192,78314,1,0,0:0:0:0:
256,192,78451,1,8,0:0:0:0:
256,192,78588,1,0,0:0:0:0:
256,192,78725,1,0,0:0:0:0:
256,192,78793,1,0,0:0:0:0:
256,192,78862,1,8,0:0:0:0:
256,192,78999,1,0,0:0:0:0:
256,192,79136,1,8,0:0:0:0:
256,192,79410,1,8,0:0:0:0:
256,192,79547,1,0,0:0:0:0:
256,192,79684,1,8,0:0:0:0:
256,192,79821,1,8,0:0:0:0:
256,192,79889,1,8,0:0:0:0:
256,192,79958,1,0,0:0:0:0:
256,192,80095,1,8,0:0:0:0:
256,192,80232,12,0,80916,0:0:0:0:
256,192,81053,5,12,0:0:0:0:
256,192,81327,1,0,0:0:0:0:
256,192,82423,1,0,0:0:0:0:
256,192,83519,1,0,0:0:0:0:
256,192,84615,1,0,0:0:0:0:
256,192,85711,1,0,0:0:0:0:
256,192,86807,1,0,0:0:0:0:
256,192,87903,1,0,0:0:0:0:
256,192,88999,1,0,0:0:0:0:
256,192,89821,1,0,0:0:0:0:
256,192,90095,1,12,0:0:0:0:
256,192,90368,1,8,0:0:0:0:
256,192,90642,1,8,0:0:0:0:
256,192,90916,1,8,0:0:0:0:
256,192,91190,1,8,0:0:0:0:
256,192,91464,1,8,0:0:0:0:
256,192,91738,1,8,0:0:0:0:
256,192,92012,1,8,0:0:0:0:
256,192,92286,1,8,0:0:0:0:
256,192,92560,1,8,0:0:0:0:
256,192,92834,1,8,0:0:0:0:
256,192,93108,1,8,0:0:0:0:
256,192,93382,1,8,0:0:0:0:
256,192,93656,1,8,0:0:0:0:
256,192,93930,1,8,0:0:0:0:
256,192,94204,1,8,0:0:0:0:
256,192,94478,1,0,0:0:0:0:
256,192,94615,1,0,0:0:0:0:
256,192,94752,1,8,0:0:0:0:
256,192,94889,1,0,0:0:0:0:
256,192,95026,1,8,0:0:0:0:
256,192,95163,1,8,0:0:0:0:
256,192,95300,1,0,0:0:0:0:
256,192,95574,1,8,0:0:0:0:
256,192,95711,1,0,0:0:0:0:
256,192,95848,1,8,0:0:0:0:
256,192,95985,1,8,0:0:0:0:
256,192,96122,1,0,0:0:0:0:
256,192,96259,1,0,0:0:0:0:
256,192,96396,1,8,0:0:0:0:
256,192,96670,1,8,0:0:0:0:
256,192,96807,1,0,0:0:0:0:
256,192,96875,1,0,0:0:0:0:
256,192,96944,1,8,0:0:0:0:
256,192,97081,1,0,0:0:0:0:
256,192,97218,1,8,0:0:0:0:
256,192,97355,1,0,0:0:0:0:
256,192,97423,1,8,0:0:0:0:
256,192,97492,1,0,0:0:0:0:
256,192,97629,1,0,0:0:0:0:
256,192,97766,1,8,0:0:0:0:
256,192,98040,1,8,0:0:0:0:
256,192,98177,1,8,0:0:0:0:
256,192,98314,1,0,0:0:0:0:
256,192,98588,1,12,0:0:0:0:
256,192,98862,1,4,0:0:0:0:
256,192,98999,1,8,0:0:0:0:
256,192,99067,1,8,0:0:0:0:
256,192,99136,1,0,0:0:0:0:
256,192,99273,1,8,0:0:0:0:
256,192,99410,1,0,0:0:0:0:
256,192,99478,1,0,0:0:0:0:
256,192,99547,1,8,0:0:0:0:
256,192,99684,1,0,0:0:0:0:
256,192,99821,1,8,0:0:0:0:
256,192,99958,1,0,0:0:0:0:
256,192,100095,1,8,0:0:0:0:
256,192,100163,1,0,0:0:0:0:
256,192,100232,1,0,0:0:0:0:
256,192,100368,1,8,0:0:0:0:
256,192,100505,1,0,0:0:0:0:
256,192,100574,1,8,0:0:0:0:
256,192,100642,1,8,0:0:0:0:
256,192,100779,1,0,0:0:0:0:
256,192,100916,1,0,0:0:0:0:
256,192,101053,1,8,0:0:0:0:
256,192,101190,1,0,0:0:0:0:
256,192,101259,1,8,0:0:0:0:
256,192,101327,1,8,0:0:0:0:
256,192,101464,1,0,0:0:0:0:
256,192,101601,1,8,0:0:0:0:
256,192,101670,1,8,0:0:0:0:
256,192,101738,1,0,0:0:0:0:
256,192,101875,1,8,0:0:0:0:
256,192,102012,1,0,0:0:0:0:
256,192,102149,1,8,0:0:0:0:
256,192,102286,1,0,0:0:0:0:
256,192,102355,1,0,0:0:0:0:
256,192,102423,1,8,0:0:0:0:
256,192,102560,1,0,0:0:0:0:
256,192,102697,1,8,0:0:0:0:
256,192,102766,1,0,0:0:0:0:
256,192,102834,1,0,0:0:0:0:
256,192,102971,1,8,0:0:0:0:
256,192,103245,1,4,0:0:0:0:
256,192,103382,1,8,0:0:0:0:
256,192,103451,1,8,0:0:0:0:
256,192,103519,1,0,0:0:0:0:
256,192,103656,1,8,0:0:0:0:
256,192,103793,1,0,0:0:0:0:
256,192,103862,1,0,0:0:0:0:
256,192,103930,1,8,0:0:0:0:
256,192,104067,1,0,0:0:0:0:
256,192,104204,1,8,0:0:0:0:
256,192,104341,1,0,0:0:0:0:
256,192,104478,1,8,0:0:0:0:
256,192,104547,1,0,0:0:0:0:
256,192,104615,1,0,0:0:0:0:
256,192,104752,1,8,0:0:0:0:
256,192,104889,1,0,0:0:0:0:
256,192,104958,1,8,0:0:0:0:
256,192,105026,1,8,0:0:0:0:
256,192,105163,1,0,0:0:0:0:
256,192,105300,1,0,0:0:0:0:
256,192,105437,1,8,0:0:0:0:
256,192,105574,1,0,0:0:0:0:
256,192,105711,1,8,0:0:0:0:
256,192,105779,1,8,0:0:0:0:
256,192,105848,1,0,0:0:0:0:
256,192,105985,1,8,0:0:0:0:
256,192,106122,1,0,0:0:0:0:
256,192,106190,1,0,0:0:0:0:
256,192,106259,1,8,0:0:0:0:
256,192,106396,1,0,0:0:0:0:
256,192,106533,1,8,0:0:0:0:
256,192,106670,1,0,0:0:0:0:
256,192,106738,1,0,0:0:0:0:
256,192,106807,1,8,0:0:0:0:
256,192,106944,1,0,0:0:0:0:
256,192,107081,1,8,0:0:0:0:
256,192,107149,1,0,0:0:0:0:
256,192,107218,1,0,0:0:0:0:
256,192,107355,1,8,0:0:0:0:
256,192,107629,1,4,0:0:0:0:
256,192,107766,1,8,0:0:0:0:
256,192,107834,1,8,0:0:0:0:
256,192,107903,1,0,0:0:0:0:
256,192,108040,1,8,0:0:0:0:
256,192,108177,1,0,0:0:0:0:
256,192,108245,1,0,0:0:0:0:
256,192,108314,1,8,0:0:0:0:
256,192,108382,1,8,0:0:0:0:
256,192,108451,1,0,0:0:0:0:
256,192,108588,1,8,0:0:0:0:
256,192,108725,1,0,0:0:0:0:
256,192,108862,1,8,0:0:0:0:
256,192,108930,1,0,0:0:0:0:
256,192,108999,1,0,0:0:0:0:
256,192,109136,1,8,0:0:0:0:
256,192,109273,1,0,0:0:0:0:
256,192,109341,1,8,0:0:0:0:
256,192,109410,1,8,0:0:0:0:
256,192,109478,1,8,0:0:0:0:
256,192,109547,1,0,0:0:0:0:
256,192,109821,1,8,0:0:0:0:
256,192,109958,1,0,0:0:0:0:
256,192,110026,1,8,0:0:0:0:
256,192,110095,1,8,0:0:0:0:
256,192,110232,1,0,0:0:0:0:
256,192,110368,1,8,0:0:0:0:
256,192,110437,1,8,0:0:0:0:
256,192,110505,1,0,0:0:0:0:
256,192,110574,1,0,0:0:0:0:
256,192,110642,1,8,0:0:0:0:
256,192,110779,1,0,0:0:0:0:
256,192,110916,1,8,0:0:0:0:
256,192,111053,1,0,0:0:0:0:
256,192,111122,1,0,0:0:0:0:
256,192,111190,1,8,0:0:0:0:
256,192,111327,1,0,0:0:0:0:
256,192,111464,1,8,0:0:0:0:
256,192,111533,1,0,0:0:0:0:
256,192,111601,1,0,0:0:0:0:
256,192,111670,1,0,0:0:0:0:
256,192,111738,1,8,0:0:0:0:
256,192,112012,1,4,0:0:0:0:
256,192,112149,1,8,0:0:0:0:
256,192,112218,1,8,0:0:0:0:
256,192,112286,1,0,0:0:0:0:
256,192,112423,1,8,0:0:0:0:
256,192,112560,1,0,0:0:0:0:
256,192,112629,1,0,0:0:0:0:
256,192,112697,1,8,0:0:0:0:
256,192,112766,1,8,0:0:0:0:
256,192,112834,1,0,0:0:0:0:
256,192,112971,1,8,0:0:0:0:
256,192,113108,1,0,0:0:0:0:
256,192,113245,1,8,0:0:0:0:
256,192,113314,1,0,0:0:0:0:
256,192,113382,1,0,0:0:0:0:
256,192,113519,1,8,0:0:0:0:
256,192,113656,1,0,0:0:0:0:
256,192,113725,1,8,0:0:0:0:
256,192,113793,1,8,0:0:0:0:
256,192,113862,1,8,0:0:0:0:
256,192,113930,1,0,0:0:0:0:
256,192,114204,1,8,0:0:0:0:
256,192,114341,1,0,0:0:0:0:
256,192,114478,1,8,0:0:0:0:
256,192,114547,1,8,0:0:0:0:
256,192,114615,1,0,0:0:0:0:
256,192,114752,1,8,0:0:0:0:
256,192,114889,1,0,0:0:0:0:
256,192,114958,1,0,0:0:0:0:
256,192,115026,1,8,0:0:0:0:
256,192,115095,1,8,0:0:0:0:
256,192,115163,1,0,0:0:0:0:
256,192,115300,1,8,0:0:0:0:
256,192,115574,1,0,0:0:0:0:
256,192,115848,1,0,0:0:0:0:
256,192,116122,1,12,0:0:0:0:
256,192,116396,1,4,0:0:0:0:
256,192,116670,1,8,0:0:0:0:
256,192,116807,1,0,0:0:0:0:
256,192,116875,1,0,0:0:0:0:
256,192,116944,1,8,0:0:0:0:
256,192,117081,1,8,0:0:0:0:
256,192,117218,1,0,0:0:0:0:
256,192,117355,1,8,0:0:0:0:
256,192,117629,1,0,0:0:0:0:
256,192,117766,1,8,0:0:0:0:
256,192,117903,1,0,0:0:0:0:
256,192,118040,1,8,0:0:0:0:
256,192,118108,1,8,0:0:0:0:
256,192,118177,1,0,0:0:0:0:
256,192,118314,1,8,0:0:0:0:
256,192,118451,1,8,0:0:0:0:
256,192,118588,1,0,0:0:0:0:
256,192,118725,1,0,0:0:0:0:
256,192,118862,1,8,0:0:0:0:
256,192,118999,1,0,0:0:0:0:
256,192,119067,1,0,0:0:0:0:
256,192,119136,1,8,0:0:0:0:
256,192,119273,1,8,0:0:0:0:
256,192,119410,1,0,0:0:0:0:
256,192,119547,1,8,0:0:0:0:
256,192,119821,1,0,0:0:0:0:
256,192,119958,1,8,0:0:0:0:
256,192,120095,1,0,0:0:0:0:
256,192,120232,1,8,0:0:0:0:
256,192,120300,1,8,0:0:0:0:
256,192,120368,1,0,0:0:0:0:
256,192,120505,1,8,0:0:0:0:
256,192,120574,1,8,0:0:0:0:
256,192,120642,1,8,0:0:0:0:
256,192,120779,1,0,0:0:0:0:
256,192,121053,1,8,0:0:0:0:
256,192,121190,1,0,0:0:0:0:
256,192,121259,1,0,0:0:0:0:
256,192,121327,1,8,0:0:0:0:
256,192,121464,1,8,0:0:0:0:
256,192,121601,1,0,0:0:0:0:
256,192,121738,1,8,0:0:0:0:
256,192,122012,1,0,0:0:0:0:
256,192,122149,1,8,0:0:0:0:
256,192,122286,1,0,0:0:0:0:
256,192,122423,1,8,0:0:0:0:
256,192,122492,1,8,0:0:0:0:
256,192,122560,1,0,0:0:0:0:
256,192,122697,1,8,0:0:0:0:
256,192,122834,1,8,0:0:0:0:
256,192,122971,1,0,0:0:0:0:
256,192,123245,1,8,0:0:0:0:
256,192,123382,1,0,0:0:0:0:
256,192,123451,1,0,0:0:0:0:
256,192,123519,1,8,0:0:0:0:
256,192,123656,1,8,0:0:0:0:
256,192,123793,1,0,0:0:0:0:
256,192,123930,1,8,0:0:0:0:
256,192,124067,1,0,0:0:0:0:
256,192,124341,1,0,0:0:0:0:
256,192,124615,1,8,0:0:0:0:
256,192,124889,1,8,0:0:0:0:
256,192,124958,1,8,0:0:0:0:
256,192,125026,1,8,0:0:0:0:
256,192,125163,1,4,0:0:0:0:
256,192,125437,1,8,0:0:0:0:
256,192,125574,1,0,0:0:0:0:
256,192,125642,1,0,0:0:0:0:
256,192,125711,1,8,0:0:0:0:
256,192,125848,1,8,0:0:0:0:
256,192,125985,1,0,0:0:0:0:
256,192,126122,1,8,0:0:0:0:
256,192,126396,1,0,0:0:0:0:
256,192,126533,1,8,0:0:0:0:
256,192,126670,1,0,0:0:0:0:
256,192,126807,1,8,0:0:0:0:
256,192,126875,1,8,0:0:0:0:
256,192,126944,1,0,0:0:0:0:
256,192,127081,1,8,0:0:0:0:
256,192,127218,1,8,0:0:0:0:
256,192,127355,1,0,0:0:0:0:
256,192,127492,1,0,0:0:0:0:
256,192,127629,1,8,0:0:0:0:
256,192,127766,1,0,0:0:0:0:
256,192,127834,1,0,0:0:0:0:
256,192,127903,1,8,0:0:0:0:
256,192,128040,1,8,0:0:0:0:
256,192,128177,1,0,0:0:0:0:
256,192,128314,1,8,0:0:0:0:
256,192,128588,1,0,0:0:0:0:
256,192,128725,1,8,0:0:0:0:
256,192,128862,1,0,0:0:0:0:
256,192,128999,1,8,0:0:0:0:
256,192,129067,1,8,0:0:0:0:
256,192,129136,1,0,0:0:0:0:
256,192,129273,1,8,0:0:0:0:
256,192,129341,1,8,0:0:0:0:
256,192,129410,1,8,0:0:0:0:
256,192,129547,1,0,0:0:0:0:
256,192,129821,1,8,0:0:0:0:
256,192,129958,1,0,0:0:0:0:
256,192,130026,1,0,0:0:0:0:
256,192,130095,1,8,0:0:0:0:
256,192,130232,1,8,0:0:0:0:
256,192,130368,1,0,0:0:0:0:
256,192,130505,1,8,0:0:0:0:
256,192,130779,1,0,0:0:0:0:
256,192,130916,1,8,0:0:0:0:
256,192,131053,1,0,0:0:0:0:
256,192,131190,1,8,0:0:0:0:
256,192,131259,1,8,0:0:0:0:
256,192,131327,1,0,0:0:0:0:
256,192,131464,1,8,0:0:0:0:
256,192,131601,1,8,0:0:0:0:
256,192,131738,1,0,0:0:0:0:
256,192,132012,1,8,0:0:0:0:
256,192,132149,1,0,0:0:0:0:
256,192,132218,1,0,0:0:0:0:
256,192,132286,1,8,0:0:0:0:
256,192,132423,1,8,0:0:0:0:
256,192,132560,1,0,0:0:0:0:
256,192,132697,1,8,0:0:0:0:
256,192,132834,1,0,0:0:0:0:
256,192,133108,1,0,0:0:0:0:
256,192,133382,1,8,0:0:0:0:
256,192,133656,1,8,0:0:0:0:
256,192,133725,1,8,0:0:0:0:
256,192,133793,1,8,0:0:0:0:
256,192,133930,1,0,0:0:0:0:
256,192,134204,1,0,0:0:0:0:
256,192,134478,1,8,0:0:0:0:
256,192,134752,1,12,0:0:0:0:
256,192,135026,1,4,0:0:0:0:
256,192,135300,1,8,0:0:0:0:
256,192,135437,1,0,0:0:0:0:
256,192,135505,1,0,0:0:0:0:
256,192,135574,1,8,0:0:0:0:
256,192,135711,1,8,0:0:0:0:
256,192,135848,1,0,0:0:0:0:
256,192,135985,1,8,0:0:0:0:
256,192,136259,1,0,0:0:0:0:
256,192,136396,1,8,0:0:0:0:
256,192,136533,1,8,0:0:0:0:
256,192,136670,12,0,138725,0:0:0:0:
256,192,138862,5,12,0:0:0:0:
256,192,139136,1,8,0:0:0:0:
256,192,139410,1,0,0:0:0:0:
256,192,139684,1,8,0:0:0:0:
