osu file format v14

[General]
AudioFilename: audio.mp3
AudioLeadIn: 0
PreviewTime: -1
Countdown: 1
SampleSet: Normal
StackLeniency: 0.7
Mode: 0
LetterboxInBreaks: 0
WidescreenStoryboard: 1

[Editor]
DistanceSpacing: 1.9
BeatDivisor: 2
GridSize: 8
TimelineZoom: 2.3

[Metadata]
Title:La Fontaine
TitleUnicode:La Fontaine
Artist:mommy
ArtistUnicode:mommy
Creator:iWhorse
Version:Extra
Source:
Tags:
BeatmapID:1433248
BeatmapSetID:677751

[Difficulty]
HPDrainRate:5.7
CircleSize:4
OverallDifficulty:9
ApproachRate:9.6
SliderMultiplier:1.6
SliderTickRate:1

[Events]
//Background and Video events
//Break Periods
//Storyboard Layer 0 (Background)
//Storyboard Layer 1 (Fail)
//Storyboard Layer 2 (Pass)
//Storyboard Layer 3 (Foreground)
//Storyboard Sound Samples

[TimingPoints]
1769,234.375,5,1,0,50,1,0
11144,-76.9230769230769,5,1,0,50,0,0
11495,-142.857142857143,5,1,0,50,0,0
12315,-76.9230769230769,5,1,0,50,0,0
12667,-142.857142857143,5,1,0,50,0,0
13487,-100,5,1,0,50,0,0
13839,-142.857142857143,5,1,0,50,0,0
14659,-166.666666666667,5,1,0,50,0,0
15831,-76.9230769230769,5,1,0,50,0,0
16183,-142.857142857143,5,1,0,50,0,0
17003,-76.9230769230769,5,1,0,50,0,0
17354,-142.857142857143,5,1,0,50,0,0
18175,-100,5,1,0,50,0,0
18526,-90.9090909090909,5,1,0,50,0,0
19347,-125,5,1,0,50,0,0
20519,-76.9230769230769,5,1,0,50,0,0
20870,-142.857142857143,5,1,0,50,0,0
21690,-76.9230769230769,5,1,0,50,0,0
22042,-142.857142857143,5,1,0,50,0,0
22862,-100,5,1,0,50,0,0
23214,-90.9090909090909,5,1,0,50,0,0
24034,-125,5,1,0,50,0,0
34581,-76.9230769230769,5,1,0,50,0,0
34932,-142.857142857143,5,1,0,50,0,0
35752,-76.9230769230769,5,1,0,50,0,0
36104,-142.857142857143,5,1,0,50,0,0
36924,-100,5,1,0,50,0,0
37276,-142.857142857143,5,1,0,50,0,0
38096,-166.666666666667,5,1,0,50,0,0
39268,-76.9230769230769,5,1,0,50,0,0
39620,-142.857142857143,5,1,0,50,0,0
40440,-76.9230769230769,5,1,0,50,0,0
40791,-142.857142857143,5,1,0,50,0,0
41612,-100,5,1,0,50,0,0
41963,-90.9090909090909,5,1,0,50,0,0
42784,-125,5,1,0,50,0,0
43956,-71.4285714285714,5,1,0,50,0,0
44659,-50,5,1,0,50,0,0
45128,-62.5,5,1,0,50,0,0
47472,-100,5,1,0,50,0,0
47940,-166.666666666667,5,1,0,50,0,0
48644,-71.4285714285714,5,1,0,50,0,0
49347,-50,5,1,0,50,0,0
49933,-55.5555555555556,5,1,0,50,0,0
52276,-166.666666666667,5,1,0,50,0,0
54503,-83.3333333333333,5,1,0,50,0,0
55206,-62.5,5,1,0,50,0,0
59894,-142.857142857143,5,1,0,50,0,0
65050,234.375,5,1,0,50,1,0
65050,234.375,5,1,0,50,1,0
66222,260.416666666667,5,1,0,50,1,0
66222,260.416666666667,5,1,0,50,1,0
67263,334.821428571429,5,1,0,50,1,0
67263,334.821428571429,5,1,0,50,1,0
67597,208.333333333333,5,1,0,50,1,0
67597,208.333333333333,5,1,0,50,1,0
67597,-52.6315789473684,5,1,0,50,0,0
101033,234.375,5,1,0,50,1,0
101033,234.375,5,1,0,50,1,0
109236,237.154150197628,5,1,0,50,1,0
109236,237.154150197628,5,1,0,50,1,0
110421,247.933884297521,5,1,0,50,1,0
110421,247.933884297521,5,1,0,50,1,0
111164,375,5,1,0,50,1,0
111914,234.375,5,1,0,50,1,0

[HitObjects]
256,192,1769,6,0,P|352:264|464:216,1,240
288,40,2354,1,0,0:0:0:0:
312,56,2472,1,0,0:0:0:0:
136,176,2706,1,0,0:0:0:0:
288,344,2940,6,0,P|296:248|216:128,1,240
144,264,3526,1,0,0:0:0:0:
72,168,3644,1,0,0:0:0:0:
376,232,3878,1,0,0:0:0:0:
160,64,4112,6,0,P|244:135|392:96,1,240
176,192,4698,1,0,0:0:0:0:
216,176,4815,1,0,0:0:0:0:
120,336,5050,1,0,0:0:0:0:
464,328,5284,6,0,P|344:264|232:272,1,240
96,80,5870,1,0,0:0:0:0:
200,8,5987,1,0,0:0:0:0:
296,64,6104,2,0,L|392:32,2,80
120,208,6456,6,0,P|184:280|328:296,1,240
264,80,7042,1,0,0:0:0:0:
312,120,7159,1,0,0:0:0:0:
136,104,7393,1,0,0:0:0:0:
336,336,7628,6,0,P|256:280|216:128,1,240
416,160,8214,1,0,0:0:0:0:
312,104,8331,1,0,0:0:0:0:
432,312,8565,1,0,0:0:0:0:
64,168,8800,6,0,P|160:240|280:208,1,240
264,328,9386,1,0,0:0:0:0:
304,296,9503,1,0,0:0:0:0:
120,280,9737,1,0,0:0:0:0:
256,24,9972,5,0,0:0:0:0:
144,88,10089,1,0,0:0:0:0:
248,160,10206,1,0,0:0:0:0:
344,96,10323,2,0,B|360:96|368:88|400:56|400:40|384:40,3,80
176,192,10909,5,0,0:0:0:0:
424,328,11144,2,0,P|408:216|320:128,1,207.999990478516
312,120,11495,2,0,L|240:96,1,55.9999982910157
168,304,11729,1,0,0:0:0:0:
224,272,11847,2,0,L|280:240,1,55.9999982910157
368,264,12081,2,0,L|312:304,1,55.9999982910157
16,224,12315,6,0,P|112:224|200:160,1,207.999990478516
216,120,12667,2,0,P|248:96|272:96,1,55.9999982910157
440,152,12901,1,0,0:0:0:0:
368,280,13019,2,0,P|336:224|336:208,1,55.9999982910157
328,80,13253,2,0,P|360:136|360:152,1,55.9999982910157
176,320,13487,6,0,P|264:224|272:192,1,160
272,168,13839,2,0,L|248:112,1,55.9999982910157
48,104,14073,1,0,0:0:0:0:
64,184,14190,2,0,P|65:211|81:234,1,55.9999982910157
168,176,14425,2,0,P|166:148|150:125,1,55.9999982910157
160,296,14659,6,0,P|224:304|304:256,1,143.999995605469
416,64,15362,5,0,0:0:0:0:
320,120,15479,1,0,0:0:0:0:
224,64,15596,1,0,0:0:0:0:
144,160,15714,1,0,0:0:0:0:
200,248,15831,6,0,P|152:272|40:176,1,207.999990478516
40,168,16183,2,0,P|48:112|56:104,1,55.9999982910157
264,32,16417,1,0,0:0:0:0:
232,128,16534,2,0,L|208:184,1,55.9999982910157
152,96,16769,2,0,L|176:40,1,55.9999982910157
184,280,17003,6,0,P|240:312|368:248,1,207.999990478516
368,240,17354,2,0,P|376:200|392:176,1,55.9999982910157
296,64,17589,1,0,0:0:0:0:
272,160,17706,2,0,P|272:184|256:224,1,55.9999982910157
136,152,17940,2,0,P|160:152|200:168,1,55.9999982910157
32,224,18175,6,0,P|48:280|152:320,1,160
208,264,18526,2,0,L|296:232,1,88.000002685547
424,128,18761,1,0,0:0:0:0:
256,56,18878,1,0,0:0:0:0:
304,336,19112,1,0,0:0:0:0:
400,40,19347,6,0,B|360:56|328:64|360:104|288:160|232:152,1,192
248,312,20050,5,0,0:0:0:0:
120,184,20167,1,0,0:0:0:0:
304,144,20284,1,0,0:0:0:0:
144,280,20402,1,0,0:0:0:0:
336,256,20519,6,0,P|256:208|208:32,1,207.999990478516
216,72,20870,2,0,L|240:16,1,55.9999982910157
408,88,21104,1,0,0:0:0:0:
456,152,21222,2,0,L|496:208,1,55.9999982910157
344,136,21456,2,0,L|296:80,1,55.9999982910157
152,344,21690,6,0,P|264:280|256:176,1,207.999990478516
264,192,22042,2,0,P|232:160|224:144,1,55.9999982910157
136,48,22276,1,0,0:0:0:0:
88,152,22394,2,0,P|104:200|112:208,1,55.9999982910157
256,88,22628,2,0,P|208:104|200:112,1,55.9999982910157
432,176,22862,6,0,P|344:160|264:200,1,160
208,312,23214,2,0,P|256:304|288:280,1,88.000002685547
168,72,23448,1,0,0:0:0:0:
160,176,23565,2,0,P|192:216|240:224,1,88.000002685547
336,136,23800,2,0,P|288:117|242:134,1,88.000002685547
304,384,24034,6,0,B|272:312|296:272|336:248|280:184,1,192
216,80,24737,5,0,0:0:0:0:
296,192,24854,1,0,0:0:0:0:
312,56,24972,1,0,0:0:0:0:
360,128,25089,1,0,0:0:0:0:
208,160,25206,6,0,P|144:168|40:96,1,192
176,264,25792,1,0,0:0:0:0:
152,248,25909,1,0,0:0:0:0:
328,248,26144,1,0,0:0:0:0:
240,16,26378,6,0,P|216:96|264:192,1,192
96,160,26964,5,0,0:0:0:0:
200,232,27081,1,0,0:0:0:0:
184,112,27198,1,0,0:0:0:0:
104,248,27315,1,0,0:0:0:0:
104,72,27433,1,0,0:0:0:0:
416,216,27550,6,0,P|328:208|232:128,1,192
280,288,28136,1,0,0:0:0:0:
256,264,28253,1,0,0:0:0:0:
424,328,28487,1,0,0:0:0:0:
56,160,28722,6,0,P|80:264|144:344,1,192
216,128,29308,1,0,0:0:0:0:
368,80,29426,1,0,0:0:0:0:
168,264,29659,1,0,0:0:0:0:
304,368,29894,6,0,P|304:280|376:152,1,192
248,88,30479,1,0,0:0:0:0:
264,128,30597,1,0,0:0:0:0:
104,200,30831,1,0,0:0:0:0:
176,352,31065,6,0,P|208:272|184:128,1,192
368,152,31651,1,0,0:0:0:0:
216,88,31769,1,0,0:0:0:0:
336,312,32003,1,0,0:0:0:0:
48,312,32237,6,0,P|96:224|232:200,1,192
160,88,32823,1,0,0:0:0:0:
152,104,32940,1,0,0:0:0:0:
24,32,33175,1,0,0:0:0:0:
360,80,33409,6,0,P|296:128|272:248,1,192
192,160,33995,1,0,0:0:0:0:
48,88,34112,1,0,0:0:0:0:
216,328,34347,1,0,0:0:0:0:
352,96,34581,6,0,P|264:168|248:264,1,207.999990478516
256,288,34933,2,0,L|288:344,1,55.9999982910157
408,312,35167,1,0,0:0:0:0:
432,264,35284,2,0,P|424:200|416:200,1,55.9999982910157
328,136,35519,2,0,L|376:200,1,55.9999982910157
72,232,35753,6,0,B|200:240|232:128|232:120,1,207.999990478516
232,104,36104,2,0,P|184:72|168:80,1,55.9999982910157
48,32,36339,1,0,0:0:0:0:
32,120,36456,2,0,L|16:176,1,55.9999982910157
128,128,36690,2,0,L|176:72,1,55.9999982910157
376,176,36925,6,0,P|288:224|184:160,1,160
208,200,37276,2,0,L|160:160,1,55.9999982910157
144,40,37511,1,0,0:0:0:0:
320,48,37628,2,0,P|296:112|272:128,1,55.9999982910157
232,136,37862,2,0,P|232:72|248:64,1,55.9999982910157
408,80,38097,6,0,B|448:128|400:184|472:256,1,191.999994140625
136,176,38800,5,0,0:0:0:0:
304,112,38917,1,0,0:0:0:0:
168,264,39034,1,0,0:0:0:0:
240,200,39151,1,0,0:0:0:0:
112,336,39269,6,0,P|64:264|104:152,1,207.999990478516
112,144,39620,2,0,L|168:96,1,55.9999982910157
280,96,39854,1,0,0:0:0:0:
248,240,39972,2,0,P|208:184|208:168,1,55.9999982910157
328,176,40206,2,0,P|360:224|360:248,1,55.9999982910157
208,336,40440,6,0,P|320:336|416:272,1,207.999990478516
416,280,40792,2,0,P|424:240|416:216,1,55.9999982910157
424,72,41026,1,0,0:0:0:0:
320,112,41144,2,0,L|288:168,1,55.9999982910157
280,280,41378,2,0,L|336:216,1,55.9999982910157
152,48,41612,6,0,P|168:144|248:200,1,160
320,184,41964,2,0,L|416:152,1,88.000002685547
472,72,42198,1,0,0:0:0:0:
312,8,42315,2,0,L|296:104,1,88.000002685547
352,280,42550,2,0,L|368:184,1,88.000002685547
128,56,42784,6,0,P|136:144|280:208,1,256
416,320,43487,5,0,0:0:0:0:
296,264,43604,1,0,0:0:0:0:
424,208,43722,1,0,0:0:0:0:
200,200,43839,1,0,0:0:0:0:
400,16,43956,6,0,P|344:112|224:120,1,223.999993164063
239,126,44425,1,0,0:0:0:0:
16,200,44659,6,0,P|105:309|328:328,1,320
424,112,45011,5,0,0:0:0:0:
376,176,45069,1,0,0:0:0:0:
296,200,45128,2,0,P|152:160|72:64,1,256
82,84,45597,1,0,0:0:0:0:
448,184,45831,5,0,0:0:0:0:
392,264,45948,1,0,0:0:0:0:
296,304,46065,1,0,0:0:0:0:
192,248,46183,1,0,0:0:0:0:
240,144,46300,5,0,0:0:0:0:
312,208,46417,1,0,0:0:0:0:
344,112,46534,1,0,0:0:0:0:
256,48,46651,1,0,0:0:0:0:
152,80,46769,1,0,0:0:0:0:
160,176,46886,1,0,0:0:0:0:
64,136,47003,5,0,0:0:0:0:
88,256,47120,1,0,0:0:0:0:
176,328,47237,1,0,0:0:0:0:
272,248,47354,1,0,0:0:0:0:
224,112,47472,2,0,P|88:32|24:40,1,160
80,88,47822,1,0,0:0:0:0:
112,120,47940,2,0,L|127:165,1,47.9999985351563
64,304,48175,5,0,0:0:0:0:
184,352,48292,1,0,0:0:0:0:
288,304,48409,1,0,0:0:0:0:
328,192,48526,1,0,0:0:0:0:
296,88,48644,2,0,P|248:32|112:56,1,223.999993164063
112,55,49112,1,0,0:0:0:0:
456,272,49347,6,0,B|248:264|192:120,1,320
72,240,49698,5,0,0:0:0:0:
160,296,49757,1,0,0:0:0:0:
256,312,49816,2,0,P|400:272|456:152,1,287.999991210938
455,154,50284,1,0,0:0:0:0:
128,40,50519,5,0,0:0:0:0:
56,112,50637,1,0,0:0:0:0:
40,208,50754,1,0,0:0:0:0:
96,296,50871,1,0,0:0:0:0:
136,200,50987,5,0,0:0:0:0:
224,160,51104,1,0,0:0:0:0:
296,216,51222,1,0,0:0:0:0:
256,328,51339,1,0,0:0:0:0:
184,280,51456,1,0,0:0:0:0:
264,232,51573,1,0,0:0:0:0:
344,296,51690,5,0,0:0:0:0:
416,224,51808,1,0,0:0:0:0:
384,144,51925,1,0,0:0:0:0:
296,184,52042,1,0,0:0:0:0:
224,88,52159,1,0,0:0:0:0:
200,72,52276,2,0,P|144:96|136:104,1,47.9999985351563
176,56,52511,2,0,P|131:97|126:107,1,47.9999985351563
144,48,52745,1,0,0:0:0:0:
104,56,52862,2,0,P|96:116|99:127,1,47.9999985351563
72,72,53097,2,0,P|85:131|92:140,1,47.9999985351563
224,216,53331,5,0,0:0:0:0:
240,240,53448,2,0,P|296:216|304:208,1,47.9999985351563
264,256,53683,2,0,P|308:214|313:204,1,47.9999985351563
296,264,53917,1,0,0:0:0:0:
336,256,54034,2,0,P|343:195|340:184,1,47.9999985351563
368,240,54269,2,0,P|354:180|347:171,1,47.9999985351563
128,32,54503,6,0,P|208:96|240:192,1,191.999994140625
208,296,54854,1,0,0:0:0:0:
96,264,54972,1,0,0:0:0:0:
96,168,55089,1,0,0:0:0:0:
456,328,55206,6,0,P|352:304|240:192,1,256
40,24,55558,5,0,0:0:0:0:
128,72,55616,1,0,0:0:0:0:
232,112,55675,2,0,P|360:120|480:48,1,256
432,112,56026,1,0,0:0:0:0:
392,224,56144,1,0,0:0:0:0:
416,320,56261,1,0,0:0:0:0:
280,256,56378,5,0,0:0:0:0:
184,240,56495,1,0,0:0:0:0:
104,264,56612,1,0,0:0:0:0:
40,320,56729,1,0,0:0:0:0:
32,192,56847,5,0,0:0:0:0:
88,104,56964,1,0,0:0:0:0:
192,72,57081,1,0,0:0:0:0:
296,128,57198,1,0,0:0:0:0:
304,256,57315,1,0,0:0:0:0:
200,296,57433,1,0,0:0:0:0:
344,376,57550,5,0,0:0:0:0:
440,336,57667,1,0,0:0:0:0:
456,232,57784,1,0,0:0:0:0:
416,128,57901,1,0,0:0:0:0:
288,48,58019,1,0,0:0:0:0:
72,88,58253,5,0,0:0:0:0:
168,80,58370,1,0,0:0:0:0:
224,176,58487,1,0,0:0:0:0:
128,160,58604,1,0,0:0:0:0:
96,320,58722,5,0,0:0:0:0:
272,288,58839,1,0,0:0:0:0:
368,232,58956,1,0,0:0:0:0:
408,128,59073,1,0,0:0:0:0:
464,360,59190,1,0,0:0:0:0:
272,88,59425,5,0,0:0:0:0:
168,104,59542,1,0,0:0:0:0:
144,192,59659,1,0,0:0:0:0:
192,264,59776,1,0,0:0:0:0:
16,112,59894,6,0,P|48:40|104:-24,1,111.999996582031
376,168,60247,5,0,0:0:0:0:
352,272,60304,1,0,0:0:0:0:
264,352,60364,2,0,P|184:312|168:280,1,111.999996582031
88,208,60714,1,0,0:0:0:0:
112,96,60831,1,0,0:0:0:0:
192,16,60948,1,0,0:0:0:0:
184,152,61065,1,0,0:0:0:0:
304,216,61183,5,0,0:0:0:0:
416,176,61300,1,0,0:0:0:0:
464,96,61417,1,0,0:0:0:0:
352,104,61534,1,0,0:0:0:0:
360,192,61651,5,0,0:0:0:0:
288,256,61769,1,0,0:0:0:0:
200,224,61886,1,0,0:0:0:0:
224,144,62003,1,0,0:0:0:0:
304,160,62120,1,0,0:0:0:0:
224,192,62237,5,0,0:0:0:0:
216,272,62354,1,0,0:0:0:0:
280,304,62472,1,0,0:0:0:0:
352,280,62589,1,0,0:0:0:0:
408,224,62706,1,0,0:0:0:0:
416,192,62823,6,0,P|390:160|360:145,1,55.9999982910157
424,160,63058,2,0,P|389:138|356:135,1,55.9999982910157
424,128,63292,1,0,0:0:0:0:
416,104,63409,2,0,P|376:96|344:104,1,55.9999982910157
401,74,63644,2,0,P|360:80|333:98,1,55.9999982910157
120,136,63878,5,0,0:0:0:0:
123,169,63995,2,0,P|157:190|190:193,1,55.9999982910157
126,202,64230,2,0,P|166:209|198:202,1,55.9999982910157
137,232,64464,1,0,0:0:0:0:
156,259,64581,2,0,P|196:252|223:234,1,55.9999982910157
180,282,64816,2,0,P|215:262|235:235,1,55.9999982910157
224,96,65050,5,0,0:0:0:0:
240,80,65167,2,0,L|240:160,1,80
256,72,65401,2,0,L|256:160,1,80
272,64,65635,1,0,0:0:0:0:
288,56,65753,2,0,L|288:144,1,80
304,48,65987,2,0,L|304:136,1,80
288,288,66221,5,0,0:0:0:0:
272,304,66352,2,0,L|272:224,1,80
256,312,66612,2,0,L|256:224,1,80
240,320,66873,1,0,0:0:0:0:
224,328,67003,2,0,L|224:240,1,80
208,336,67263,2,0,L|208:248,1,80
