osu file format v14

[General]
AudioFilename: audio.mp3
AudioLeadIn: 0
PreviewTime: 12519
Countdown: 0
SampleSet: Soft
StackLeniency: 0
Mode: 0
LetterboxInBreaks: 0
WidescreenStoryboard: 1

[Editor]
DistanceSpacing: 0.8
BeatDivisor: 4
GridSize: 32
TimelineZoom: 2.4

[Metadata]
Title:Saikyou Muteki! Chou Ero App! -remix-
TitleUnicode:最強無敵!超エロアプリ!-remix-
Artist:momiji, Datenshi Kokoeru, Aruku
ArtistUnicode:momiji, 堕天使ココエル, あるく
Creator:hanabyte
Version:Swimsuit Sushi
Source:もっと!孕ませ!炎のおっぱい異世界エロ魔法学園!
Tags:full combo olsonn nik nikolomara kyrie irving oppai fooders jieusieu ourb novelty japanese pop jpop visual novel vn eroge video game milk factory みるくふぁくとりー momiji Datenshi Kokoeru Aruku otto! haramase! honoo no chou ero♡appli gakuen! コバヤシユウヤ kobayashi yuya sofmap
BeatmapID:4065549
BeatmapSetID:1961645

[Difficulty]
HPDrainRate:4.5
CircleSize:4
OverallDifficulty:8
ApproachRate:8
SliderMultiplier:1.8
SliderTickRate:1

[Events]
//Background and Video events
0,0,"uohhhhhhhhhh.jpg",0,0
//Break Periods
//Storyboard Layer 0 (Background)
//Storyboard Layer 1 (Fail)
//Storyboard Layer 2 (Pass)
//Storyboard Layer 3 (Foreground)
//Storyboard Layer 4 (Overlay)
//Storyboard Sound Samples

[TimingPoints]
687,372.670807453416,4,2,10,40,1,0
6649,-100,4,2,1,40,0,0
7022,-100,4,2,10,40,0,0
8140,-100,4,2,2,40,0,0
8513,-100,4,2,10,40,0,0
9258,-142.857142857143,4,2,10,40,0,0
9537,-142.857142857143,4,2,10,5,0,0
9631,-100,4,2,10,40,0,0
11121,-100,4,2,3,50,0,0
12053,-100,4,2,90,40,0,0
12612,-100,4,2,10,50,0,0
14009,-100,4,2,10,5,0,0
14103,-100,4,2,10,50,0,0
14662,-100,4,2,11,50,0,0
14941,-100,4,2,10,5,0,0
15034,-100,4,2,12,50,0,0
15127,-100,4,2,12,5,0,0
15221,-76.9230769230769,4,2,12,50,0,0
15500,-76.9230769230769,4,2,12,5,0,0
15593,-100,4,2,10,50,0,0
16898,-100,4,2,11,50,0,0
17270,-100,4,2,12,50,0,0
17457,-100,4,2,10,50,0,0
17643,-100,4,2,13,50,0,0
18575,-76.9230769230769,4,2,10,50,0,0
18854,-76.9230769230769,4,2,10,5,0,0
18947,-100,4,2,10,50,0,0
20065,-100,4,2,14,50,0,0
20438,-100,4,2,10,50,0,0
20624,-100,4,2,11,50,0,0
20904,-100,4,2,10,5,0,0
20997,-100,4,2,15,50,0,0
21090,-100,4,2,15,5,0,0
21183,-76.9230769230769,4,2,15,50,0,0
21463,-76.9230769230769,4,2,15,5,0,0
21556,-76.9230769230769,4,2,10,55,0,0
22767,-76.9230769230769,4,2,10,5,0,0
22860,-66.6666666666667,4,2,11,50,0,0
23233,-66.6666666666667,4,2,12,50,0,0
23606,-66.6666666666667,4,2,13,50,0,0
23978,-66.6666666666667,4,2,14,50,0,0
24165,-58.8235294117647,4,2,14,50,0,0
24537,-58.8235294117647,4,2,14,40,0,0
26773,-100,4,2,50,40,0,0
27519,-100,4,2,10,50,0,0
27891,-100,4,2,20,35,0,0
28264,-100,4,2,21,40,0,0
28637,-100,4,2,20,40,0,0
28823,-100,4,2,22,40,0,0
29382,-100,4,2,23,35,0,0
29755,-100,4,2,21,40,0,0
30127,-100,4,2,20,40,0,0
30314,-100,4,2,23,40,0,0
30407,-100,4,2,23,5,0,0
30500,-100,4,2,14,40,0,0
31246,-100,4,2,23,40,0,0
31618,-100,4,2,14,40,0,0
31805,-100,4,2,23,28,0,0
31991,-100,4,2,21,40,0,0
32829,-100,4,2,1,40,0,0
32923,-100,4,2,12,40,0,0
33016,-100,4,2,12,5,0,0
33109,-100,4,2,12,40,0,0
33482,-100,4,2,10,50,0,0
33854,-100,4,2,20,35,0,0
34227,-100,4,2,21,40,0,0
34600,-100,4,2,20,40,0,0
34786,-100,4,2,22,40,0,0
35345,-100,4,2,24,35,0,0
35718,-100,4,2,24,40,0,0
36090,-100,4,2,20,40,0,0
36277,-100,4,2,23,40,0,0
36370,-100,4,2,23,5,0,0
36463,-100,4,2,14,40,0,0
37208,-100,4,2,23,40,0,0
37581,-100,4,2,14,40,0,0
37767,-100,4,2,23,28,0,0
37954,-100,4,2,21,40,0,0
38792,-100,4,2,15,40,0,0
39258,-100,4,2,1,40,0,0
39444,-76.9230769230769,4,2,25,40,0,0
40376,-76.9230769230769,4,2,10,40,0,0
40469,-76.9230769230769,4,2,10,5,0,0
40562,-76.9230769230769,4,2,10,40,0,0
40935,-76.9230769230769,4,2,25,40,0,0
41867,-76.9230769230769,4,2,10,40,0,0
41960,-76.9230769230769,4,2,10,5,0,0
42053,-76.9230769230769,4,2,10,40,0,0
42426,-76.9230769230769,4,2,25,40,0,0
43357,-76.9230769230769,4,2,10,40,0,0
43450,-76.9230769230769,4,2,10,5,0,0
43544,-76.9230769230769,4,2,10,40,0,0
43916,-50,4,2,10,45,0,0
44196,-50,4,2,10,5,0,0
44289,-50,4,2,10,45,0,0
44568,-50,4,2,10,5,0,0
44662,-50,4,2,10,45,0,0
44755,-50,4,2,10,5,0,0
44848,-50,4,2,12,45,0,0
44941,-50,4,2,12,5,0,0
45034,-50,4,2,12,45,0,0
45127,-50,4,2,12,5,0,0
45221,-50,4,2,12,45,0,0
45407,-71.4285714285714,4,2,23,40,0,0
45686,-71.4285714285714,4,2,23,5,0,0
45780,-133.333333333333,4,2,22,40,0,0
46152,-71.4285714285714,4,2,10,40,0,0
46432,-71.4285714285714,4,2,10,5,0,0
46525,-133.333333333333,4,2,22,40,0,0
46898,-133.333333333333,4,2,10,40,0,0
47270,-133.333333333333,4,2,11,40,0,0
47550,-133.333333333333,4,2,11,5,0,0
47643,-133.333333333333,4,2,10,40,0,0
47736,-133.333333333333,4,2,1,40,0,0
48016,-58.8235294117647,4,2,24,40,0,0
48388,-41.6666666666667,4,2,26,55,0,0
48482,-41.6666666666667,4,2,26,5,0,0
48575,-41.6666666666667,4,2,25,55,0,0
48947,-41.6666666666667,4,2,26,55,0,0
49041,-41.6666666666667,4,2,26,5,0,0
49134,-41.6666666666667,4,2,25,55,0,0
49506,-41.6666666666667,4,2,26,55,0,0
49600,-41.6666666666667,4,2,26,5,0,0
49693,-111.111111111111,4,2,27,60,0,0
50252,-111.111111111111,4,2,27,5,0,0
50624,-111.111111111111,4,2,27,50,0,0
50811,-111.111111111111,4,2,28,50,0,0
50997,-111.111111111111,4,2,29,50,0,0
51277,-111.111111111111,4,2,29,5,0,0
51370,-100,4,2,30,60,0,0
51556,-100,4,2,30,50,0,0
51742,-100,4,2,10,50,0,0
53792,-100,4,2,31,50,0,0
53885,-100,4,2,31,5,0,0
53978,-100,4,2,33,50,0,0
54351,-100,4,2,10,50,0,0
56401,-100,4,2,31,50,0,0
56587,-100,4,2,32,50,0,0
57146,-100,4,2,33,50,0,0
57332,-100,4,2,34,50,0,0
57519,-100,4,2,35,50,0,0
60314,-100,4,2,36,55,0,0
61059,-100,4,2,36,60,0,0
61805,-100,4,2,40,50,0,0
62084,-100,4,2,41,50,0,0
62364,-100,4,2,42,50,0,0
62643,-100,4,2,43,50,0,0
63295,-100,4,2,30,60,0,0
63482,-100,4,2,30,50,0,0
63668,-100,4,2,10,50,0,0
65065,-100,4,2,10,5,0,0
65159,-100,4,2,10,50,0,0
65718,-100,4,2,31,50,0,0
65811,-100,4,2,31,5,0,0
65904,-100,4,2,33,50,0,0
66277,-100,4,2,10,50,0,0
66929,-100,4,2,10,5,0,0
67022,-100,4,2,10,50,0,0
68326,-100,4,2,31,50,0,0
68513,-100,4,2,32,50,0,0
69072,-100,4,2,33,50,0,0
69258,-100,4,2,34,50,0,0
69444,-100,4,2,35,50,0,0
71867,-100,4,2,37,50,0,0
72239,-100,4,2,36,55,0,0
72985,-100,4,2,36,60,0,0
73730,-100,4,2,50,50,0,0
74662,-100,4,2,12,50,0,0
75221,-100,4,2,40,50,0,0
75966,-100,4,2,41,50,0,0
76339,-100,4,2,44,50,0,0
76711,-100,4,2,37,50,0,0
77643,-100,4,2,90,50,0,0
78202,-100,4,2,10,50,0,0
79600,-100,4,2,10,5,0,0
79693,-100,4,2,10,50,0,0
80252,-100,4,2,11,50,0,0
80531,-100,4,2,10,5,0,0
80624,-100,4,2,12,50,0,0
80718,-100,4,2,12,5,0,0
80811,-76.9230769230769,4,2,12,50,0,0
81090,-76.9230769230769,4,2,12,5,0,0
81183,-100,4,2,10,50,0,0
82488,-100,4,2,11,50,0,0
82860,-100,4,2,12,50,0,0
83047,-100,4,2,10,50,0,0
83233,-100,4,2,13,50,0,0
84165,-100,4,2,10,50,0,0
85655,-100,4,2,14,50,0,0
86028,-100,4,2,10,50,0,0
86214,-100,4,2,11,50,0,0
86494,-100,4,2,10,5,0,0
86587,-100,4,2,15,50,0,0
86680,-100,4,2,15,5,0,0
86773,-76.9230769230769,4,2,15,50,0,0
87053,-76.9230769230769,4,2,15,5,0,0
87146,-76.9230769230769,4,2,10,55,0,0
88450,-76.9230769230769,4,2,11,50,0,0
88823,-76.9230769230769,4,2,12,50,0,0
89196,-76.9230769230769,4,2,13,50,0,0
89568,-76.9230769230769,4,2,14,50,0,0
89848,-76.9230769230769,4,2,14,40,0,0
90500,-76.9230769230769,4,2,50,50,0,0
90873,-76.9230769230769,4,2,51,50,0,0
91059,-76.9230769230769,4,2,50,50,0,0
91432,-76.9230769230769,4,2,52,50,0,0
91991,-100,4,2,53,50,0,0
93109,-100,4,2,53,5,0,0

[Colours]
Combo1 : 225,164,240
Combo2 : 166,240,230
Combo3 : 72,109,238
Combo4 : 240,191,117

[HitObjects]
9,64,687,6,0,B|23:23|74:23|74:23|76:14|76:14|76:23|76:23|125:44|124:91,1,180,0|0,3:2|1:2,0:0:0:0:
123,80,1432,1,0,3:2:0:0:
100,155,1618,1,0,0:0:0:0:
150,211,1805,1,0,1:2:0:0:
150,211,2177,6,0,P|201:203|249:194,1,90,0|0,3:2|0:0,0:0:0:0:
285,257,2550,1,0,1:2:0:0:
32,384,2736,2,0,B|49:338|89:313|89:313|70:209,1,180,0|8,0:0|0:0,0:0:0:0:
263,384,3295,1,8,3:2:0:0:
321,45,3668,6,0,B|284:43|263:92|263:92|254:92|254:92|263:94|263:94|263:145|304:159,1,180,0|0,3:2|1:2,0:0:0:0:
303,159,4413,1,0,3:2:0:0:
371,133,4600,1,0,0:0:0:0:
420,188,4786,1,0,1:2:0:0:
420,188,5159,6,0,L|436:6,1,180,0|0,3:2|1:2,0:0:0:0:
435,8,6090,5,8,0:0:0:0:
131,70,6277,1,8,3:2:0:0:
195,122,6649,6,0,P|202:163|205:224,1,90,2|0,3:2|0:0,0:0:0:0:
96,295,7022,2,0,P|98:336|106:397,1,90,0|0,1:2|0:0,0:0:0:0:
117,204,7395,5,0,3:2:0:0:
1,333,7581,1,0,0:0:0:0:
179,290,7767,1,0,1:2:0:0:
237,346,8140,6,0,B|404:380|404:380|431:363,1,180,2|0,3:2|1:2,0:0:0:0:
237,346,8699,1,0,0:0:0:0:
463,316,9072,5,8,0:0:0:0:
323,134,9258,2,0,B|302:178|302:178|318:246,1,94.499997116089,8|0,3:2|0:0,0:0:0:0:
388,188,9631,6,0,B|401:227|452:227|452:227|454:236|454:236|454:227|454:227|503:206|502:170,1,180,0|0,3:2|1:2,0:0:0:0:
431,117,10190,1,0,0:0:0:0:
259,279,10376,2,0,P|254:318|244:381,1,90,0|0,3:2|0:0,0:0:0:0:
246,368,10749,2,0,P|175:318|176:232,1,180,0|10,1:2|3:3,0:0:0:0:
176,232,12239,6,0,L|164:173,2,45,10|8|4,0:3|0:3|0:3,0:0:0:0:
104,143,12612,6,0,P|59:131|-15:118,1,90,6|0,3:2|0:0,0:0:0:0:
179,110,12985,2,0,P|189:72|214:-6,1,90,2|0,1:1|0:0,0:0:0:0:
124,285,13357,1,2,3:2:0:0:
302,211,13544,1,2,0:0:0:0:
436,357,13730,2,0,L|303:384,1,135,2|0,1:1|0:0,0:0:0:0:
217,341,14103,5,2,3:2:0:0:
217,341,14289,1,2,0:0:0:0:
302,211,14475,1,2,1:1:0:0:
179,110,14662,2,0,P|127:140|121:232,1,135,2|0,0:0|0:0,0:0:0:0:
124,285,15034,2,0,L|194:267,1,45,10|0,0:0|0:0,0:0:0:0:
302,211,15221,6,0,B|291:247|240:247|240:247|238:256|238:256|238:247|238:247|189:226|191:189,1,175.499991966248,12|0,3:2|0:0,0:0:0:0:
255,142,15593,6,0,P|264:87|278:27,1,90,2|0,3:2|0:0,0:0:0:0:
48,102,15966,2,0,P|57:47|71:-13,1,90,2|0,1:1|0:0,0:0:0:0:
190,189,16339,1,2,3:2:0:0:
139,0,16525,1,2,0:0:0:0:
190,189,16711,1,2,1:1:0:0:
114,170,16898,6,0,L|-3:196,1,90,2|0,0:1|3:2,0:0:0:0:
255,254,17270,6,0,L|138:280,1,90,2|0,0:1|1:2,0:0:0:0:
376,327,17643,6,0,L|259:353,1,90,2|0,0:1|3:2,0:0:0:0:
488,381,18016,1,2,1:2:0:0:
488,381,18109,1,2,1:2:0:0:
488,381,18202,1,2,1:2:0:0:
346,233,18388,1,4,1:2:0:0:
512,162,18575,6,0,B|500:126|449:126|449:126|447:117|447:117|447:126|447:126|398:147|400:184,1,175.499991966248,6|0,3:2|0:0,0:0:0:0:
346,233,18947,2,0,P|306:222|249:217,1,90,2|0,1:1|0:0,0:0:0:0:
2,168,19320,1,2,3:2:0:0:
172,119,19506,1,2,0:0:0:0:
230,308,19693,1,2,1:1:0:0:
161,250,19879,1,0,0:0:0:0:
236,3,20065,6,0,P|242:54|249:92,1,90,2|0,3:2|0:0,0:0:0:0:
346,233,20438,1,2,1:1:0:0:
172,119,20624,2,0,P|116:89|27:125,1,135,2|0,0:0|0:0,0:0:0:0:
2,168,20997,2,0,L|13:225,1,45,10|0,0:0|0:0,0:0:0:0:
48,346,21183,6,0,B|13:330|17:280|17:280|8:277|8:277|17:278|17:278|42:231|79:236,1,175.499991966248,12|0,3:2|0:0,0:0:0:0:
117,308,21556,5,2,3:2:0:0:
295,384,21742,1,0,3:2:0:0:
222,358,21929,5,2,1:1:0:0:
465,231,22115,1,0,3:2:0:0:
403,274,22301,5,2,3:2:0:0:
345,2,22488,1,2,3:2:0:0:
345,2,22581,1,2,3:2:0:0:
345,2,22674,2,0,L|339:71,1,58.4999973220826,2|0,1:1|0:0,0:0:0:0:
497,295,22860,6,0,B|498:227|429:195|429:195|430:185|430:185|426:195|426:195|353:181|320:243,1,270.000010299683,6|6,3:1|3:1,0:0:0:0:
0,218,23606,6,0,B|-1:150|67:118|67:118|66:108|66:108|70:118|70:118|144:104|176:166,1,270.000010299683,6|6,3:1|3:1,0:0:0:0:
245,306,24165,2,0,P|263:397|271:450,2,76.5000014591217,10|8|4,0:3|0:3|0:3,0:0:0:0:
0,218,24537,5,12,0:0:0:0:
497,295,24910,1,8,0:0:0:0:
497,295,25283,5,8,0:0:0:0:
0,218,25469,1,8,0:0:0:0:
497,295,25655,1,8,0:0:0:0:
50,281,26028,5,8,0:0:0:0:
122,251,26214,1,8,0:0:0:0:
119,173,26401,1,8,0:0:0:0:
47,147,26587,1,8,0:0:0:0:
217,0,26773,5,4,0:3:0:0:
217,0,26867,1,4,0:3:0:0:
217,0,26960,2,0,L|225:53,1,45,8|8,0:3|0:3,0:0:0:0:
271,215,27146,1,4,0:3:0:0:
263,170,27239,1,4,0:3:0:0:
270,126,27332,1,8,0:3:0:0:
291,86,27425,1,8,0:3:0:0:
364,111,27519,2,0,L|381:231,1,90,4|0,3:2|0:0,0:0:0:0:
423,384,27891,5,2,1:2:0:0:
408,331,27985,1,2,0:0:0:0:
449,291,28078,1,2,0:0:0:0:
491,329,28171,1,2,0:0:0:0:
441,345,28264,2,0,B|365:348|385:285|301:250|259:324,1,180,2|0,3:1|1:2,0:0:0:0:
210,384,28823,1,2,0:0:0:0:
210,384,28916,1,2,0:0:0:0:
210,384,29009,2,0,P|206:334|196:269,1,90,2|0,3:1|0:0,0:0:0:0:
0,131,29382,5,2,1:2:0:0:
51,158,29475,1,2,0:0:0:0:
30,108,29568,5,2,0:0:0:0:
47,191,29662,1,2,0:0:0:0:
91,195,29755,2,0,B|166:177|164:56|249:124,1,180,2|0,3:1|1:2,0:0:0:0:
232,112,30314,2,0,P|237:95|257:63,1,45,2|0,0:1|0:0,0:0:0:0:
301,18,30500,5,2,3:2:0:0:
301,18,30686,1,0,0:0:0:0:
357,184,30873,1,2,1:2:0:0:
357,184,31059,1,0,0:0:0:0:
512,157,31246,2,0,B|512:111|467:90|467:90|467:83|467:83|465:90|465:90|415:80|394:122,1,180,2|2,3:1|1:2,0:0:0:0:
362,384,31805,5,2,0:0:0:0:
362,384,31898,1,2,0:0:0:0:
362,384,31991,2,0,P|367:328|377:274,1,90,2|0,3:2|0:0,0:0:0:0:
151,244,32364,2,0,P|146:188|136:134,1,90,2|0,1:2|0:0,0:0:0:0:
260,4,32736,1,0,3:2:0:0:
260,4,32829,1,0,1:2:0:0:
260,4,32923,6,0,L|259:62,1,45,2|0,3:2|0:0,0:0:0:0:
228,198,33109,2,0,B|265:178|256:129|256:129|263:126|263:126|256:127|256:127|234:81|189:82,1,180,4|4,1:2|3:2,0:0:0:0:
0,312,33854,5,2,1:2:0:0:
26,361,33947,1,2,0:0:0:0:
84,330,34041,1,2,0:0:0:0:
99,384,34134,1,2,0:0:0:0:
149,384,34227,2,0,B|205:326|164:248|68:264|125:201,1,180,2|0,3:1|1:2,0:0:0:0:
215,339,34786,1,2,0:0:0:0:
215,339,34879,1,2,0:0:0:0:
215,339,34972,2,0,L|329:357,1,90,2|0,3:1|0:0,0:0:0:0:
489,135,35345,5,2,1:2:0:0:
511,180,35438,1,2,0:0:0:0:
457,230,35531,1,2,0:0:0:0:
510,225,35624,1,2,0:0:0:0:
472,188,35718,2,0,B|384:232|397:320|331:267,1,180,2|0,3:1|1:2,0:0:0:0:
334,269,36277,2,0,P|328:232|317:207,1,45,2|0,0:1|0:0,0:0:0:0:
278,166,36463,5,2,3:2:0:0:
157,217,36649,1,0,0:0:0:0:
0,43,36836,5,2,1:2:0:0:
166,101,37022,1,0,0:0:0:0:
124,291,37208,2,0,B|78:291|57:246|57:246|50:246|50:246|57:244|57:244|47:194|89:173,1,180,2|2,3:1|1:2,0:0:0:0:
191,375,37767,5,2,0:0:0:0:
191,375,37860,1,2,0:0:0:0:
191,375,37954,2,0,P|196:325|206:273,1,90,2|0,3:2|0:0,0:0:0:0:
395,144,38326,1,2,1:2:0:0:
512,355,38513,1,0,0:0:0:0:
395,144,38699,5,0,3:2:0:0:
388,177,38792,1,0,1:2:0:0:
382,210,38885,1,2,1:2:0:0:
376,243,38978,1,0,1:2:0:0:
369,276,39071,1,4,1:2:0:0:
471,10,39258,5,0,1:2:0:0:
471,10,39351,1,0,1:2:0:0:
471,10,39444,2,0,B|409:25|324:-60|308:252|157:11|19:139,1,467.999978576661,6|0,3:2|3:2,0:0:0:0:
29,130,40376,2,0,L|45:51,1,58.4999973220826,10|0,2:1|0:0,0:0:0:0:
55,0,40562,1,10,2:1:0:0:
29,130,40935,6,0,B|90:145|175:59|191:372|342:131|480:259,1,467.999978576661,2|0,3:2|3:2,0:0:0:0:
471,250,41867,2,0,L|455:171,1,58.4999973220826,10|0,0:1|0:0,0:0:0:0:
445,120,42053,1,10,0:1:0:0:
471,250,42426,6,0,B|409:265|324:179|308:492|157:251|19:379,1,467.999978576661,2|0,3:2|3:2,0:0:0:0:
29,370,43358,2,0,L|45:291,1,58.4999973220826,10|0,0:1|0:0,0:0:0:0:
55,241,43544,1,10,0:1:0:0:
405,43,43916,6,0,B|421:-14|486:-12|486:-12|520:93|415:140,1,270,6|0,3:2|0:0,0:0:0:0:
474,205,44289,2,0,B|421:174|419:129|419:129|356:109|356:109|368:120|368:120|263:87,1,270,6|0,3:2|0:0,0:0:0:0:
210,67,44662,2,0,B|187:61|168:80|168:80|194:86|221:61,1,90,6|0,3:2|0:0,0:0:0:0:
266,11,44848,6,0,P|287:49|282:93,1,90,10|0,0:2|0:0,0:0:0:0:
173,233,45034,2,0,P|142:194|178:114,1,90,12|0,3:2|0:0,0:0:0:0:
47,85,45221,1,0,3:2:0:0:
47,85,45314,1,0,3:2:0:0:
47,85,45407,2,0,L|243:155,1,188.999994232178,6|0,3:2|0:0,0:0:0:0:
288,170,45780,6,0,L|225:148,1,67.5000025749208,2|0,1:1|0:0,0:0:0:0:
282,93,46152,6,0,L|352:289,1,188.999994232178,2|0,3:2|0:0,0:0:0:0:
368,334,46525,6,0,L|345:270,1,67.5000025749208,2|0,1:1|0:0,0:0:0:0:
438,376,46898,5,2,3:2:0:0:
451,298,47084,1,2,0:0:0:0:
463,219,47270,2,0,L|480:89,1,101.250003862381,2|0,1:2|0:0,0:0:0:0:
490,42,47643,5,2,3:1:0:0:
490,42,47736,1,0,1:2:0:0:
490,42,47829,1,0,0:0:0:0:
490,42,48016,2,0,B|473:8|429:17|429:17|428:11|428:11|428:17|428:17|388:35|388:76,1,153.000002918243,2|0,1:1|0:0,0:0:0:0:
254,322,48388,6,0,B|274:345|259:374|259:374|238:349|256:314,1,107.999996704102,6|0,3:2|0:0,0:0:0:0:
238,251,48575,1,6,3:2:0:0:
67,163,48761,5,0,0:0:0:0:
158,51,48947,6,0,B|178:28|163:-1|163:-1|142:24|160:59,1,107.999996704102,6|0,3:2|0:0,0:0:0:0:
143,122,49134,1,6,3:2:0:0:
303,205,49320,5,0,0:0:0:0:
253,322,49506,6,0,B|273:345|258:374|258:374|237:349|255:314,1,107.999996704102,6|0,3:2|0:0,0:0:0:0:
238,251,49693,2,0,P|141:210|-16:213,1,242.999992584229,6|0,3:2|0:0,0:0:0:0:
320,282,50624,5,0,3:2:0:0:
378,334,50811,2,0,P|401:329|429:324,1,40.4999987640381,2|0,1:2|1:2,0:0:0:0:
512,263,50997,2,0,P|513:197|469:117,1,121.499996292114,10|0,0:3|0:0,0:0:0:0:
492,146,51370,6,0,L|506:34,1,90,4|0,3:2|0:0,0:0:0:0:
305,109,51742,2,0,L|317:20,1,90,0|0,1:2|0:0,0:0:0:0:
172,178,52115,2,0,B|93:256|-18:199|-18:199,1,180,0|0,3:2|1:2,0:0:0:0:
36,117,52674,1,0,0:0:0:0:
172,178,52860,6,0,B|154:225|189:278|189:278,1,90,0|0,3:2|0:0,0:0:0:0:
272,384,53233,1,0,1:2:0:0:
429,343,53419,1,0,0:0:0:0:
428,182,53606,1,0,3:2:0:0:
216,185,53792,6,0,L|172:178,1,45,10|0,0:0|0:0,0:0:0:0:
267,128,53978,2,0,B|312:139|363:144|363:144,1,90,10|0,3:2|0:0,0:0:0:0:
167,28,54351,6,0,B|39:6|33:132|33:132,2,180,0|0|0,3:2|1:2|3:2,0:0:0:0:
360,61,55283,1,0,0:0:0:0:
331,266,55469,1,0,1:2:0:0:
129,230,55655,1,0,0:0:0:0:
386,327,55842,6,0,P|413:286|401:236,1,90,0|0,3:2|0:0,0:0:0:0:
260,176,56214,1,0,1:2:0:0:
186,314,56401,1,2,3:2:0:0:
186,314,56494,1,2,3:2:0:0:
186,314,56587,2,0,B|259:312|322:374|322:374,2,135,6|6|6,3:2|3:2|3:2,0:0:0:0:
89,151,57332,6,0,L|-19:167,1,90,8|2,3:3|0:3,0:0:0:0:
133,3,57705,2,0,L|141:92,1,90,4|2,1:3|0:3,0:0:0:0:
176,225,58078,6,0,L|68:241,1,90,8|2,3:3|0:3,0:0:0:0:
220,77,58451,2,0,L|228:166,1,90,4|2,1:3|0:2,0:0:0:0:
264,296,58823,5,8,3:3:0:0:
319,152,59009,1,2,3:3:0:0:
319,152,59103,1,2,3:3:0:0:
319,152,59196,2,0,L|327:241,1,90,8|4,1:3|3:3,0:0:0:0:
375,371,59568,6,0,L|267:387,1,90,0|2,0:0|3:2,0:0:0:0:
419,223,59941,2,0,L|427:312,1,90,2|2,1:2|0:2,0:0:0:0:
489,194,60314,6,0,B|522:111|469:12|469:12,1,180,2|2,3:2|1:1,0:0:0:0:
472,19,60873,1,0,3:2:0:0:
0,384,61059,6,0,B|-33:301|20:202|20:202,1,180,0|2,3:2|1:1,0:0:0:0:
17,209,61618,1,0,3:2:0:0:
203,0,61805,6,0,P|209:30|210:46,3,45,2|8|4|4,3:3|3:3|3:3|3:3,0:0:0:0:
275,83,62177,2,0,P|269:109|268:128,3,45,2|8|2|8,1:3|3:3|3:3|3:3,0:0:0:0:
225,188,62550,1,4,3:3:0:0:
225,188,62643,1,4,1:3:0:0:
225,188,62736,2,0,L|237:256,1,45,2|8,3:3|3:3,0:0:0:0:
268,384,62923,2,0,P|277:327|282:263,1,90,4|0,1:2|3:2,0:0:0:0:
103,2,63295,6,0,B|-23:18|2:147|2:147,1,180,4|0,3:2|1:2,0:0:0:0:
91,262,63854,1,0,0:0:0:0:
225,188,64041,2,0,B|184:171|114:164|114:164,1,90,0|0,3:2|0:0,0:0:0:0:
0,227,64413,1,0,1:2:0:0:
38,383,64600,1,0,0:0:0:0:
225,188,64786,6,0,B|234:111|303:83|303:83,1,135,0|0,3:2|0:0,0:0:0:0:
301,83,65159,2,0,L|321:174,1,90,0|0,1:2|0:0,0:0:0:0:
433,261,65531,1,0,3:2:0:0:
483,113,65718,6,0,P|451:106|420:104,1,45,10|0,0:0|0:0,0:0:0:0:
407,177,65904,2,0,B|455:190|507:191|507:191,1,90,10|0,3:2|0:0,0:0:0:0:
282,384,66277,6,0,B|286:343|265:286|265:286,1,90,0|0,3:2|0:0,0:0:0:0:
120,168,66649,2,0,B|39:170|26:254|26:254,1,135,0|0,1:2|0:0,0:0:0:0:
49,322,67022,2,0,L|143:339,1,90,0|0,3:2|0:0,0:0:0:0:
250,184,67395,1,0,1:2:0:0:
85,81,67581,1,0,0:0:0:0:
268,295,67767,6,0,B|256:202|289:115|289:115,1,180,0|0,3:2|1:2,0:0:0:0:
478,11,68326,1,2,3:2:0:0:
478,11,68419,1,2,3:2:0:0:
478,11,68513,2,0,B|518:67|518:67|495:155,2,135,6|6|6,3:2|3:2|3:2,0:0:0:0:
85,81,69258,6,0,L|66:177,1,90,8|2,3:3|0:3,0:0:0:0:
188,19,69631,2,0,L|92:0,1,90,4|2,1:3|0:3,0:0:0:0:
152,173,70003,6,0,L|133:269,1,90,8|2,3:3|0:3,0:0:0:0:
255,111,70376,2,0,L|159:92,1,90,4|2,1:3|0:2,0:0:0:0:
213,273,70749,1,8,3:3:0:0:
337,208,70935,1,2,3:3:0:0:
337,208,71028,1,2,3:3:0:0:
337,208,71121,1,8,1:3:0:0:
67,169,71308,1,4,3:3:0:0:
337,208,71867,5,2,1:2:0:0:
337,208,72239,6,0,B|438:229|516:185|516:185,1,180,2|2,3:2|1:1,0:0:0:0:
311,128,72798,1,0,3:2:0:0:
175,306,72985,2,0,B|74:327|-4:283|-4:283,1,180,0|2,3:2|1:1,0:0:0:0:
195,227,73544,1,0,3:2:0:0:
257,384,73730,5,4,3:3:0:0:
264,362,73823,1,4,3:3:0:0:
270,341,73916,1,8,3:3:0:0:
273,318,74009,1,8,3:3:0:0:
275,296,74102,1,4,1:3:0:0:
276,273,74195,1,4,3:3:0:0:
275,251,74289,1,8,3:3:0:0:
273,229,74382,1,8,3:3:0:0:
269,206,74475,1,4,3:3:0:0:
265,184,74568,1,8,1:3:0:0:
259,164,74662,6,0,L|243:102,1,45,2|0,3:2|3:2,0:0:0:0:
56,11,74848,2,0,P|13:54|5:146,1,135,4|0,1:2|0:0,0:0:0:0:
68,167,75221,1,6,3:2:0:0:
295,0,75780,1,2,3:2:0:0:
512,207,75966,2,0,B|516:300|481:406|481:406,1,180,2|2,3:2|1:2,0:0:0:0:
487,384,76711,5,6,3:2:0:0:
136,284,76898,1,6,3:2:0:0:
313,243,77084,5,6,3:2:0:0:
0,124,77270,1,6,3:2:0:0:
0,124,77643,6,0,L|7:173,2,45,8|8|6,0:3|0:3|0:3,0:0:0:0:
71,99,78202,6,0,P|81:56|87:4,1,90,6|0,3:2|0:0,0:0:0:0:
106,190,78575,2,0,P|149:200|201:206,1,90,2|0,1:1|0:0,0:0:0:0:
6,168,78947,1,2,3:2:0:0:
171,114,79134,1,2,0:0:0:0:
6,168,79320,2,0,P|16:227|26:309,1,135,2|0,1:1|0:0,0:0:0:0:
71,372,79693,5,2,3:2:0:0:
194,205,79879,1,2,0:0:0:0:
351,338,80065,1,2,1:1:0:0:
512,170,80252,2,0,P|484:108|406:112,1,135,2|0,0:0|0:0,0:0:0:0:
346,120,80624,2,0,L|364:178,1,45,10|0,0:0|0:0,0:0:0:0:
411,288,80811,6,0,B|375:277|375:226|375:226|366:224|366:224|375:224|375:224|396:175|433:177,1,175.499991966248,12|0,3:2|0:0,0:0:0:0:
481,247,81183,6,0,P|497:296|508:375,1,90,2|0,3:2|0:0,0:0:0:0:
359,162,81556,2,0,P|306:178|254:184,1,90,2|0,1:1|0:0,0:0:0:0:
125,240,81929,1,2,3:2:0:0:
181,384,82115,1,2,0:0:0:0:
316,325,82301,1,2,1:1:0:0:
90,148,82488,6,0,L|-9:130,1,90,2|0,0:1|3:2,0:0:0:0:
213,256,82860,6,0,L|114:238,1,90,2|0,0:1|1:2,0:0:0:0:
360,199,83233,6,0,L|261:181,1,90,2|0,0:1|3:2,0:0:0:0:
480,294,83606,1,2,1:2:0:0:
480,294,83699,1,2,1:2:0:0:
480,294,83792,1,2,1:2:0:0:
395,128,83978,5,4,1:2:0:0:
395,128,84072,1,0,1:2:0:0:
395,128,84165,2,0,P|399:81|407:32,1,90,6|0,3:2|0:0,0:0:0:0:
271,182,84537,2,0,P|266:135|259:86,1,90,2|0,1:1|0:0,0:0:0:0:
443,198,84910,1,2,3:2:0:0:
260,92,85096,1,2,0:0:0:0:
124,239,85283,1,2,1:1:0:0:
296,329,85469,1,0,0:0:0:0:
211,384,85655,6,0,P|220:335|223:288,1,90,2|0,3:2|0:0,0:0:0:0:
161,133,86028,1,2,1:1:0:0:
14,289,86214,2,0,P|54:295|124:236,1,135,2|0,0:0|0:0,0:0:0:0:
123,238,86587,2,0,P|116:208|111:184,1,45,10|0,0:0|0:0,0:0:0:0:
17,97,86773,6,0,B|54:95|75:144|75:144|84:144|84:144|75:146|75:146|75:197|39:208,1,175.499991966248,12|0,3:2|0:0,0:0:0:0:
0,184,87146,5,2,3:2:0:0:
118,69,87332,1,0,3:2:0:0:
512,252,87519,5,2,1:1:0:0:
396,129,87705,1,0,3:2:0:0:
257,384,87891,5,2,3:2:0:0:
256,160,88078,1,2,3:2:0:0:
256,192,88171,1,2,3:2:0:0:
256,224,88264,1,2,1:1:0:0:
256,0,88450,5,6,3:1:0:0:
512,192,88823,5,6,3:1:0:0:
257,384,89196,5,6,3:1:0:0:
0,192,89568,5,6,3:1:0:0:
64,156,89755,2,0,L|75:89,2,58.4999973220826,10|8|4,0:3|0:3|0:3,0:0:0:0:
0,192,90500,5,6,3:2:0:0:
257,384,90873,5,6,3:2:0:0:
512,192,91059,5,6,3:2:0:0:
256,0,91432,5,6,3:2:0:0:
77,232,91991,6,0,B|116:86|261:107|261:107|264:90|264:90|262:107|262:107|417:150|393:338,1,540,2|0,0:0|0:0,0:0:0:0:
