osu file format v14

[General]
AudioFilename: audio.mp3
AudioLeadIn: 0
PreviewTime: 12519
Countdown: 0
SampleSet: Soft
StackLeniency: 1
Mode: 0
LetterboxInBreaks: 0
WidescreenStoryboard: 1

[Editor]
DistanceSpacing: 1.3
BeatDivisor: 4
GridSize: 32
TimelineZoom: 2.6

[Metadata]
Title:Saikyou Muteki! Chou Ero App! -remix-
TitleUnicode:最強無敵!超エロアプリ!-remix-
Artist:momiji, Datenshi Kokoeru, Aruku
ArtistUnicode:momiji, 堕天使ココエル, あるく
Creator:hanabyte
Version:Hard
Source:もっと!孕ませ!炎のおっぱい異世界エロ魔法学園!
Tags:full combo olsonn nik nikolomara kyrie irving oppai fooders jieusieu ourb novelty japanese pop jpop visual novel vn eroge video game milk factory みるくふぁくとりー momiji Datenshi Kokoeru Aruku otto! haramase! honoo no chou ero♡appli gakuen! コバヤシユウヤ kobayashi yuya sofmap
BeatmapID:4067861
BeatmapSetID:1961645

[Difficulty]
HPDrainRate:4.5
CircleSize:3.5
OverallDifficulty:5.5
ApproachRate:7
SliderMultiplier:1.4
SliderTickRate:1

[Events]
//Background and Video events
0,0,"uohhhhhhhhhh.jpg",0,0
//Break Periods
//Storyboard Layer 0 (Background)
//Storyboard Layer 1 (Fail)
//Storyboard Layer 2 (Pass)
//Storyboard Layer 3 (Foreground)
//Storyboard Layer 4 (Overlay)
//Storyboard Sound Samples

[TimingPoints]
687,372.670807453416,4,2,10,40,1,0
687,-111.111111111111,4,2,10,40,0,0
6649,-111.111111111111,4,2,1,40,0,0
7022,-111.111111111111,4,2,10,40,0,0
8140,-111.111111111111,4,2,2,40,0,0
8513,-111.111111111111,4,2,10,40,0,0
9910,-111.111111111111,4,2,10,5,0,0
10003,-111.111111111111,4,2,10,40,0,0
11121,-111.111111111111,4,2,3,50,0,0
12239,-111.111111111111,4,2,90,40,0,0
12612,-83.3333333333333,4,2,10,50,0,0
14662,-83.3333333333333,4,2,11,50,0,0
14848,-83.3333333333333,4,2,10,50,0,0
15034,-83.3333333333333,4,2,12,50,0,0
15593,-83.3333333333333,4,2,10,50,0,0
16898,-83.3333333333333,4,2,11,50,0,0
17270,-83.3333333333333,4,2,12,50,0,0
17643,-83.3333333333333,4,2,13,50,0,0
18016,-83.3333333333333,4,2,13,50,0,0
18575,-83.3333333333333,4,2,10,50,0,0
20065,-83.3333333333333,4,2,14,50,0,0
20438,-83.3333333333333,4,2,10,50,0,0
20624,-83.3333333333333,4,2,11,50,0,0
20997,-83.3333333333333,4,2,15,50,0,0
21556,-83.3333333333333,4,2,10,55,0,0
22860,-83.3333333333333,4,2,11,50,0,0
23233,-83.3333333333333,4,2,12,50,0,0
23606,-83.3333333333333,4,2,13,50,0,0
23978,-83.3333333333333,4,2,14,50,0,0
24537,-111.111111111111,4,2,14,40,0,0
26773,-111.111111111111,4,2,50,40,0,0
27519,-100,4,2,20,50,0,0
27891,-100,4,2,20,35,0,0
28264,-100,4,2,21,40,0,0
28637,-100,4,2,20,40,0,0
28823,-100,4,2,22,40,0,0
29382,-100,4,2,23,35,0,0
29755,-100,4,2,21,40,0,0
30127,-100,4,2,20,40,0,0
30314,-100,4,2,23,40,0,0
30500,-100,4,2,14,40,0,0
31246,-100,4,2,23,40,0,0
31525,-100,4,2,23,5,0,0
31618,-100,4,2,14,40,0,0
31805,-100,4,2,23,28,0,0
31991,-100,4,2,21,40,0,0
32829,-100,4,2,1,40,0,0
32923,-100,4,2,12,40,0,0
33482,-100,4,2,10,50,0,0
33854,-100,4,2,20,35,0,0
34227,-100,4,2,21,40,0,0
34600,-100,4,2,20,40,0,0
34786,-100,4,2,22,40,0,0
35345,-100,4,2,24,35,0,0
35718,-100,4,2,24,40,0,0
36090,-100,4,2,20,40,0,0
36277,-100,4,2,23,40,0,0
36463,-100,4,2,14,40,0,0
37208,-100,4,2,23,40,0,0
37581,-100,4,2,14,40,0,0
37767,-100,4,2,23,28,0,0
37954,-100,4,2,21,40,0,0
38792,-100,4,2,15,40,0,0
39444,-83.3333333333333,4,2,25,40,0,0
40376,-83.3333333333333,4,2,10,40,0,0
40935,-83.3333333333333,4,2,25,40,0,0
41867,-83.3333333333333,4,2,10,40,0,0
42426,-83.3333333333333,4,2,25,40,0,0
43357,-83.3333333333333,4,2,10,40,0,0
43916,-83.3333333333333,4,2,10,45,0,0
44196,-83.3333333333333,4,2,10,5,0,0
44289,-83.3333333333333,4,2,10,45,0,0
44568,-83.3333333333333,4,2,10,5,0,0
44662,-83.3333333333333,4,2,10,45,0,0
44848,-83.3333333333333,4,2,12,45,0,0
45407,-100,4,2,23,40,0,0
45780,-100,4,2,22,40,0,0
46152,-100,4,2,10,40,0,0
46525,-100,4,2,22,40,0,0
46898,-100,4,2,10,40,0,0
47270,-100,4,2,11,40,0,0
47643,-100,4,2,10,40,0,0
47736,-100,4,2,1,40,0,0
48016,-100,4,2,24,40,0,0
48388,-83.3333333333333,4,2,26,55,0,0
48575,-83.3333333333333,4,2,25,55,0,0
48947,-83.3333333333333,4,2,26,55,0,0
49134,-83.3333333333333,4,2,25,55,0,0
49506,-83.3333333333333,4,2,26,55,0,0
49693,-83.3333333333333,4,2,27,55,0,0
51370,-83.3333333333333,4,2,30,50,0,0
51742,-83.3333333333333,4,2,10,50,0,0
53792,-83.3333333333333,4,2,31,50,0,0
53978,-83.3333333333333,4,2,33,50,0,0
54351,-83.3333333333333,4,2,10,50,0,0
56401,-83.3333333333333,4,2,31,50,0,0
56587,-83.3333333333333,4,2,32,50,0,0
57146,-83.3333333333333,4,2,33,50,0,0
57332,-83.3333333333333,4,2,34,50,0,0
57705,-83.3333333333333,4,2,35,50,0,0
60314,-83.3333333333333,4,2,36,55,0,0
60593,-83.3333333333333,4,2,36,5,0,0
60686,-83.3333333333333,4,2,36,55,0,0
61059,-83.3333333333333,4,2,36,60,0,0
61339,-83.3333333333333,4,2,36,5,0,0
61432,-83.3333333333333,4,2,36,60,0,0
61805,-83.3333333333333,4,2,40,50,0,0
62084,-83.3333333333333,4,2,41,50,0,0
62364,-83.3333333333333,4,2,42,50,0,0
62643,-83.3333333333333,4,2,43,50,0,0
63295,-83.3333333333333,4,2,30,50,0,0
63668,-83.3333333333333,4,2,10,50,0,0
65065,-83.3333333333333,4,2,10,5,0,0
65159,-83.3333333333333,4,2,10,50,0,0
65718,-83.3333333333333,4,2,31,50,0,0
65904,-83.3333333333333,4,2,33,50,0,0
66277,-83.3333333333333,4,2,10,50,0,0
68326,-83.3333333333333,4,2,31,50,0,0
68513,-83.3333333333333,4,2,32,50,0,0
69072,-83.3333333333333,4,2,33,50,0,0
69258,-83.3333333333333,4,2,34,50,0,0
69631,-83.3333333333333,4,2,35,50,0,0
71867,-83.3333333333333,4,2,37,50,0,0
72146,-83.3333333333333,4,2,37,5,0,0
72239,-83.3333333333333,4,2,36,55,0,0
72985,-83.3333333333333,4,2,36,60,0,0
73730,-83.3333333333333,4,2,50,50,0,0
74662,-83.3333333333333,4,2,12,50,0,0
75221,-83.3333333333333,4,2,40,50,0,0
75966,-83.3333333333333,4,2,41,50,0,0
76339,-83.3333333333333,4,2,44,50,0,0
76711,-83.3333333333333,4,2,37,50,0,0
77643,-83.3333333333333,4,2,90,50,0,0
78202,-83.3333333333333,4,2,10,50,0,0
80252,-83.3333333333333,4,2,11,50,0,0
80531,-83.3333333333333,4,2,11,5,0,0
80624,-83.3333333333333,4,2,12,50,0,0
81183,-83.3333333333333,4,2,10,50,0,0
82488,-83.3333333333333,4,2,11,50,0,0
82860,-83.3333333333333,4,2,12,50,0,0
83233,-83.3333333333333,4,2,13,50,0,0
83606,-83.3333333333333,4,2,13,50,0,0
84165,-83.3333333333333,4,2,10,50,0,0
85655,-83.3333333333333,4,2,14,50,0,0
85935,-83.3333333333333,4,2,14,5,0,0
86028,-83.3333333333333,4,2,10,50,0,0
86214,-83.3333333333333,4,2,11,50,0,0
86587,-83.3333333333333,4,2,15,50,0,0
87146,-83.3333333333333,4,2,10,55,0,0
88450,-83.3333333333333,4,2,11,50,0,0
88823,-83.3333333333333,4,2,12,50,0,0
89196,-83.3333333333333,4,2,13,50,0,0
89568,-83.3333333333333,4,2,14,50,0,0
89848,-83.3333333333333,4,2,14,40,0,0
90500,-83.3333333333333,4,2,50,50,0,0
90873,-83.3333333333333,4,2,51,50,0,0
91059,-83.3333333333333,4,2,50,50,0,0
91432,-125,4,2,52,50,0,0
93109,-125,4,2,53,5,0,0

[Colours]
Combo1 : 225,164,240
Combo2 : 166,240,230
Combo3 : 72,109,238
Combo4 : 240,191,117

[HitObjects]
0,0,687,5,0,3:2:0:0:
84,93,1059,1,0,1:2:0:0:
192,29,1432,2,0,P|246:52|315:54,1,125.999996154785,0|0,3:2|1:2,0:0:0:0:
469,102,2177,6,0,L|480:163,1,62.9999980773926,0|0,3:2|0:0,0:0:0:0:
455,240,2550,1,0,1:2:0:0:
455,240,2736,1,0,0:0:0:0:
414,359,3109,2,0,P|385:349|348:344,1,62.9999980773926,8|8,0:0|3:2,0:0:0:0:
234,384,3668,6,0,P|171:331|175:279,1,125.999996154785,0|0,3:2|1:2,0:0:0:0:
107,174,4413,1,0,3:2:0:0:
2,244,4786,1,0,1:2:0:0:
58,384,5159,6,0,P|76:321|89:255,1,125.999996154785,0|0,3:2|1:2,0:0:0:0:
11,97,6090,1,8,0:0:0:0:
11,97,6277,1,8,3:2:0:0:
87,164,6649,6,0,L|166:175,1,62.9999980773926,2|0,3:2|0:0,0:0:0:0:
202,110,7022,2,0,L|271:103,1,62.9999980773926,0|0,1:2|0:0,0:0:0:0:
320,163,7395,2,0,B|380:194|380:194|448:177,1,125.999996154785,0|0,3:2|1:2,0:0:0:0:
498,69,8140,6,0,P|477:22|400:14,1,125.999996154785,2|0,3:2|1:2,0:0:0:0:
336,45,8699,1,0,0:0:0:0:
320,163,9072,5,8,0:0:0:0:
320,163,9258,1,8,3:2:0:0:
396,263,9631,6,0,L|414:372,1,94.499997116089,0|0,3:2|0:0,0:0:0:0:
399,377,10003,2,0,L|316:365,1,62.9999980773926,0|0,1:2|0:0,0:0:0:0:
278,311,10376,2,0,P|222:313|153:340,2,125.999996154785,0|0|10,3:2|1:2|3:3,0:0:0:0:
249,31,12053,5,8,0:0:0:0:
249,31,12239,2,0,L|243:-9,2,31.4999990386963,10|8|4,0:3|0:3|0:3,0:0:0:0:
213,109,12612,6,0,P|174:113|111:129,1,83.9999974365235,6|0,3:2|0:0,0:0:0:0:
61,189,12985,2,0,P|65:234|80:286,1,83.9999974365235,2|0,1:1|0:0,0:0:0:0:
111,362,13357,1,2,3:2:0:0:
111,362,13544,1,2,0:0:0:0:
189,302,13730,2,0,P|239:292|282:290,1,83.9999974365235,2|0,1:1|0:0,0:0:0:0:
403,378,14103,5,2,3:2:0:0:
489,340,14289,1,2,0:0:0:0:
508,249,14475,2,0,P|502:210|465:152,2,83.9999974365235,2|2|0,1:1|0:0|3:2,0:0:0:0:
414,232,15034,5,10,0:0:0:0:
414,232,15221,2,0,L|330:213,1,83.9999974365235,12|0,3:2|0:0,0:0:0:0:
263,132,15593,2,0,P|197:130|150:46,1,167.999994873047,2|2,3:2|1:1,0:0:0:0:
242,14,16152,1,0,0:0:0:0:
327,79,16339,2,0,P|367:75|416:59,1,83.9999974365235,2|2,3:2|0:0,0:0:0:0:
493,18,16711,5,2,1:1:0:0:
493,18,16898,2,0,B|512:101|512:101|467:191,1,167.999994873047,2|2,3:1|3:1,0:0:0:0:
320,226,17643,2,0,B|301:309|301:309|346:399,1,167.999994873047,2|2,3:1|1:2,0:0:0:0:
338,383,18109,1,2,1:2:0:0:
338,383,18202,2,0,P|384:370|432:364,1,83.9999974365235,2|4,1:2|1:2,0:0:0:0:
475,276,18575,6,0,P|440:272|373:255,1,83.9999974365235,6|0,3:2|0:0,0:0:0:0:
313,219,18947,2,0,P|272:209|230:204,1,83.9999974365235,2|0,1:1|0:0,0:0:0:0:
144,138,19320,5,2,3:2:0:0:
77,205,19506,1,2,0:0:0:0:
0,158,19693,1,2,1:1:0:0:
118,53,20065,6,0,P|201:41|300:20,1,167.999994873047,2|2,3:2|1:1,0:0:0:0:
375,0,20624,1,2,0:0:0:0:
508,101,20997,2,0,P|493:145|485:207,1,83.9999974365235,10|12,0:0|3:2,0:0:0:0:
405,329,21556,6,0,P|366:320|320:313,1,83.9999974365235,2|0,3:2|3:2,0:0:0:0:
269,234,21929,2,0,P|227:228|184:218,1,83.9999974365235,2|0,1:1|3:2,0:0:0:0:
104,268,22301,1,2,3:2:0:0:
34,207,22488,1,2,3:2:0:0:
34,207,22581,1,2,3:2:0:0:
34,207,22674,2,0,L|50:98,1,83.9999974365235,2|6,1:1|3:1,0:0:0:0:
166,6,23233,5,6,3:1:0:0:
334,2,23606,1,6,3:1:0:0:
452,120,23978,1,6,3:1:0:0:
401,198,24165,2,0,L|419:270,2,41.9999987182618,10|8|4,0:3|0:3|0:3,0:0:0:0:
321,145,24537,6,0,B|263:116|263:116|186:130,2,125.999996154785,12|8|8,0:0|0:0|0:0,0:0:0:0:
401,198,25469,1,8,0:0:0:0:
452,120,25655,2,0,L|442:55,1,62.9999980773926,8|0,0:0|0:0,0:0:0:0:
347,61,26028,6,0,L|363:-2,2,62.9999980773926,8|8|8,0:0|0:0|0:0,0:0:0:0:
321,145,26587,1,8,0:0:0:0:
237,117,26773,5,4,0:3:0:0:
237,117,26867,1,4,0:3:0:0:
237,117,26960,1,8,0:3:0:0:
237,117,27053,1,8,0:3:0:0:
237,117,27146,2,0,L|188:127,3,31.4999990386963,4|4|8|8,0:3|0:3|0:3|0:3,0:0:0:0:
164,105,27519,6,0,L|78:86,1,70,4|0,3:2|0:0,0:0:0:0:
6,153,27891,2,0,L|13:205,3,35,2|2|2|2,1:2|0:0|0:0|0:0,0:0:0:0:
30,223,28264,2,0,B|68:270|109:206|144:222|156:257,1,140,2|0,3:1|1:2,0:0:0:0:
234,309,28823,1,2,0:0:0:0:
234,309,28916,1,2,0:0:0:0:
234,309,29009,2,0,L|329:291,1,70,2|0,3:1|0:0,0:0:0:0:
369,219,29382,6,0,L|376:184,3,35,2|2|2|2,1:2|0:0|0:0|0:0,0:0:0:0:
360,150,29755,2,0,B|338:94|371:123|378:61|425:63|453:91,1,140,2|0,3:1|1:2,0:0:0:0:
507,162,30314,1,2,0:1:0:0:
507,162,30407,1,0,0:0:0:0:
507,162,30500,2,0,P|496:243|489:334,1,140,2|2,3:2|1:2,0:0:0:0:
433,375,31059,1,0,0:0:0:0:
356,322,31246,6,0,P|305:307|246:303,1,105,2|0,3:1|0:0,0:0:0:0:
240,293,31618,2,0,L|169:310,1,70,2|0,1:2|0:0,0:0:0:0:
92,361,31991,2,0,B|55:295|55:295|71:210,1,140,2|2,3:2|1:2,0:0:0:0:
162,97,32736,6,0,L|158:55,2,35,0|0|2,3:2|1:2|3:2,0:0:0:0:
235,132,33109,1,4,1:2:0:0:
338,10,33482,5,4,3:2:0:0:
419,66,33854,2,0,L|411:111,3,35,2|2|2|2,1:2|0:0|0:0|0:0,0:0:0:0:
441,133,34227,2,0,B|475:158|450:211|366:233,1,140,2|0,3:1|1:2,0:0:0:0:
324,307,34786,1,2,0:0:0:0:
324,307,34879,1,2,0:0:0:0:
324,307,34972,2,0,L|240:295,1,70,2|0,3:1|0:0,0:0:0:0:
171,228,35345,6,0,L|160:185,3,35,2|2|2|2,1:2|0:0|0:0|0:0,0:0:0:0:
134,166,35718,2,0,B|129:119|179:111|241:85|202:58,1,140,2|0,3:1|1:2,0:0:0:0:
139,9,36277,1,2,0:1:0:0:
139,9,36370,1,0,0:0:0:0:
139,9,36463,2,0,P|63:5|22:62,1,140,2|2,3:2|1:2,0:0:0:0:
0,140,37022,1,0,0:0:0:0:
31,232,37208,2,0,L|180:251,1,140,2|2,3:1|1:2,0:0:0:0:
276,193,37767,5,2,0:0:0:0:
276,193,37860,1,2,0:0:0:0:
276,193,37954,2,0,P|287:237|288:279,1,70,2|0,3:2|0:0,0:0:0:0:
387,253,38326,2,0,P|395:219|400:184,1,70,2|0,1:2|0:0,0:0:0:0:
494,153,38699,1,0,3:2:0:0:
494,153,38792,1,0,1:2:0:0:
494,153,38885,1,2,1:2:0:0:
494,153,38978,1,0,1:2:0:0:
494,153,39072,1,4,1:2:0:0:
457,0,39444,6,0,B|352:-62|304:144|204:-20|134:58,1,335.999989746094,6|0,3:2|3:2,0:0:0:0:
64,29,40376,1,10,2:1:0:0:
17,94,40562,1,10,2:1:0:0:
87,185,40935,6,0,B|191:122|239:329|339:165|409:243,1,335.999989746094,2|0,3:2|3:2,0:0:0:0:
477,207,41867,1,10,0:1:0:0:
512,278,42053,1,10,0:1:0:0:
386,330,42425,6,0,B|281:267|233:474|133:310|63:388,1,335.999989746094,2|0,3:2|3:2,0:0:0:0:
0,340,43357,1,10,0:1:0:0:
19,265,43544,1,10,0:1:0:0:
103,164,43916,6,0,B|130:152|130:152|248:178,1,125.999996154785,6|0,3:2|0:0,0:0:0:0:
242,188,44289,2,0,L|264:34,1,125.999996154785,6|0,3:2|0:0,0:0:0:0:
249,46,44662,2,0,B|227:56|227:56|137:40,1,83.9999974365235,6|10,3:2|0:2,0:0:0:0:
67,29,45034,1,12,3:2:0:0:
5,108,45221,5,0,3:2:0:0:
5,108,45314,1,0,3:2:0:0:
5,108,45407,2,0,P|26:196|31:278,1,140,6|2,3:2|1:1,0:0:0:0:
109,306,45966,1,0,0:0:0:0:
202,260,46152,2,0,P|209:176|230:107,1,140,2|2,3:2|1:1,0:0:0:0:
311,63,46711,1,0,0:0:0:0:
393,120,46898,2,0,P|410:164|415:207,1,70,2|2,3:2|0:0,0:0:0:0:
492,259,47270,2,0,P|490:295|456:369,1,105,2|0,1:2|0:0,0:0:0:0:
439,378,47643,6,0,L|379:365,2,35,2|0|0,3:1|1:2|0:0,0:0:0:0:
407,278,48016,2,0,L|275:240,1,105,2|0,1:1|0:0,0:0:0:0:
286,241,48388,6,0,L|234:153,1,83.9999974365235,6|6,3:2|3:2,0:0:0:0:
118,5,48947,6,0,L|92:90,1,83.9999974365235,6|6,3:2|3:2,0:0:0:0:
9,291,49506,6,0,L|114:272,1,83.9999974365235,6|6,3:2|3:2,0:0:0:0:
256,192,49879,12,0,50997,0:3:0:0:
512,33,51370,6,0,P|440:35|327:56,1,167.999994873047,4|0,3:2|1:2,0:0:0:0:
270,108,51929,1,0,0:0:0:0:
187,15,52115,6,0,P|130:10|69:105,1,167.999994873047,0|0,3:2|1:2,0:0:0:0:
124,175,52674,1,0,0:0:0:0:
82,262,52860,2,0,L|-9:244,1,83.9999974365235,0|0,3:2|0:0,0:0:0:0:
31,343,53233,2,0,L|118:363,1,83.9999974365235,0|0,1:2|0:0,0:0:0:0:
208,318,53606,1,0,3:2:0:0:
290,384,53792,2,0,B|310:343|310:343|297:279,1,83.9999974365235,10|10,0:0|3:2,0:0:0:0:
232,152,54351,6,0,P|238:114|240:68,1,83.9999974365235,0|0,3:2|0:0,0:0:0:0:
323,10,54724,2,0,P|329:52|339:99,1,83.9999974365235,0|0,1:2|0:0,0:0:0:0:
416,143,55096,2,0,P|435:222|533:253,1,167.999994873047,0|0,3:2|1:2,0:0:0:0:
509,169,55655,1,0,0:0:0:0:
426,243,55842,6,0,P|375:266|354:376,1,167.999994873047,0|0,3:2|1:2,0:0:0:0:
255,333,56401,1,2,3:2:0:0:
255,333,56494,1,2,3:2:0:0:
255,333,56587,2,0,B|214:341|214:341|176:373|176:373|115:386,2,125.999996154785,6|6|6,3:2|3:2|3:2,0:0:0:0:
278,243,57332,2,0,P|206:223|81:203,1,167.999994873047,8|2,3:3|1:3,0:0:0:0:
26,170,57891,1,8,0:3:0:0:
26,170,57985,1,8,0:3:0:0:
26,170,58078,2,0,P|42:106|56:-10,1,167.999994873047,8|2,3:3|1:3,0:0:0:0:
151,13,58637,1,8,0:3:0:0:
208,103,58823,6,0,P|283:79|308:-3,1,167.999994873047,8|4,3:3|1:3,0:0:0:0:
308,94,59382,2,0,P|401:116|499:144,1,167.999994873047,4|0,3:3|3:2,0:0:0:0:
512,226,59941,1,2,1:2:0:0:
384,382,60314,6,0,B|391:313|391:313|347:243,1,125.999996154785,2|0,3:2|0:0,0:0:0:0:
356,241,60686,2,0,L|264:255,1,83.9999974365235,2|0,1:1|3:2,0:0:0:0:
167,228,61059,2,0,B|160:159|160:159|204:89,1,125.999996154785,0|0,3:2|0:0,0:0:0:0:
195,87,61431,2,0,L|287:101,1,83.9999974365235,2|0,1:1|3:2,0:0:0:0:
361,43,61805,6,0,L|408:51,3,41.9999987182618,2|8|4|4,3:3|3:3|3:3|3:3,0:0:0:0:
419,87,62177,6,0,L|466:95,3,41.9999987182618,2|8|2|8,1:3|3:3|3:3|3:3,0:0:0:0:
481,114,62550,5,4,3:3:0:0:
481,114,62643,1,4,1:3:0:0:
481,114,62736,1,2,3:3:0:0:
466,211,62923,1,4,1:2:0:0:
324,354,63295,6,0,P|234:361|152:387,1,167.999994873047,4|0,3:2|1:2,0:0:0:0:
89,322,63854,1,0,0:0:0:0:
150,248,64041,2,0,L|162:154,1,83.9999974365235,0|0,3:2|0:0,0:0:0:0:
97,90,64413,1,0,1:2:0:0:
6,134,64600,1,0,0:0:0:0:
26,226,64786,6,0,P|96:234|151:248,1,125.999996154785,0|0,3:2|0:0,0:0:0:0:
163,261,65159,2,0,L|265:246,1,83.9999974365235,0|0,1:2|0:0,0:0:0:0:
318,170,65531,1,0,3:2:0:0:
392,236,65718,2,0,P|380:280|378:333,1,83.9999974365235,10|10,0:0|3:2,0:0:0:0:
512,205,66277,6,0,P|515:132|418:81,1,167.999994873047,0|0,3:2|1:2,0:0:0:0:
379,2,66836,1,0,0:0:0:0:
297,63,67022,2,0,L|206:81,1,83.9999974365235,0|0,3:2|0:0,0:0:0:0:
118,32,67395,1,0,1:2:0:0:
51,105,67581,1,0,0:0:0:0:
107,188,67767,2,0,B|124:257|37:261|59:368,1,167.999994873047,0|0,3:2|1:2,0:0:0:0:
150,384,68326,1,2,3:2:0:0:
150,384,68419,1,2,3:2:0:0:
150,384,68513,2,0,B|190:373|190:373|221:340|221:340|268:328,2,125.999996154785,6|6|6,3:2|3:2|3:2,0:0:0:0:
180,271,69258,6,0,L|351:312,1,167.999994873047,8|2,3:3|1:3,0:0:0:0:
435,375,69817,1,8,0:3:0:0:
435,375,69910,1,8,0:3:0:0:
435,375,70003,2,0,B|484:307|484:307|450:213,1,167.999994873047,8|2,3:3|1:3,0:0:0:0:
418,141,70562,1,2,0:2:0:0:
486,77,70749,1,8,3:3:0:0:
426,0,70935,1,2,3:3:0:0:
426,0,71028,1,2,3:3:0:0:
426,0,71121,2,0,P|383:10|324:22,2,83.9999974365235,8|4|0,1:3|3:3|0:0,0:0:0:0:
274,132,71867,6,0,P|225:99|226:4,1,125.999996154785,2|0,1:2|0:0,0:0:0:0:
208,21,72239,6,0,L|102:34,1,83.9999974365235,2|0,3:2|3:2,0:0:0:0:
99,126,72612,2,0,L|15:136,1,83.9999974365235,2|0,1:1|3:2,0:0:0:0:
135,234,72985,6,0,L|241:247,1,83.9999974365235,0|0,3:2|3:2,0:0:0:0:
232,346,73357,2,0,L|338:359,1,83.9999974365235,2|0,1:1|3:2,0:0:0:0:
415,306,73730,5,4,3:3:0:0:
415,306,73823,1,4,3:3:0:0:
415,306,73916,1,8,3:3:0:0:
415,306,74009,1,8,3:3:0:0:
415,306,74103,2,0,L|424:253,3,41.9999987182618,4|4|8|8,1:3|3:3|3:3|3:3,0:0:0:0:
445,258,74475,2,0,L|454:205,3,41.9999987182618,4|8|2|0,3:3|1:3|3:2|3:2,0:0:0:0:
472,198,74848,2,0,P|488:155|484:108,1,83.9999974365235,4|0,1:2|3:2,0:0:0:0:
399,26,75221,6,0,P|350:32|311:152,1,167.999994873047,6|0,3:2|1:2,0:0:0:0:
342,222,75780,1,2,3:2:0:0:
279,301,75966,2,0,P|205:278|82:256,1,167.999994873047,2|2,3:2|1:2,0:0:0:0:
3,92,76711,5,6,3:2:0:0:
73,34,76898,1,6,3:2:0:0:
126,114,77084,1,6,3:2:0:0:
200,48,77270,1,6,3:2:0:0:
394,99,77643,6,0,L|454:111,2,41.9999987182618,8|8|6,0:3|0:3|0:3,0:0:0:0:
177,233,78202,6,0,P|166:283|162:332,1,83.9999974365235,6|0,3:2|0:0,0:0:0:0:
257,369,78575,2,0,P|266:328|271:286,1,83.9999974365235,2|0,1:1|0:0,0:0:0:0:
332,205,78947,1,2,3:2:0:0:
332,205,79134,1,2,0:0:0:0:
430,199,79320,2,0,P|481:211|530:217,1,83.9999974365235,2|0,1:1|0:0,0:0:0:0:
483,118,79693,6,0,P|474:77|458:26,2,83.9999974365235,2|2|2,3:2|0:0|1:1,0:0:0:0:
381,118,80252,2,0,P|316:110|232:86,1,125.999996154785,2|0,0:0|0:0,0:0:0:0:
234,104,80624,1,10,0:0:0:0:
207,0,80811,1,12,3:2:0:0:
22,142,81183,6,0,P|70:155|103:170,1,83.9999974365235,2|0,3:2|0:0,0:0:0:0:
164,247,81556,2,0,P|144:301|138:337,1,83.9999974365235,2|0,1:1|0:0,0:0:0:0:
227,383,81929,1,2,3:2:0:0:
310,339,82115,1,2,0:0:0:0:
276,240,82301,5,2,1:1:0:0:
276,240,82488,2,0,B|354:200|354:200|466:223,1,167.999994873047,2|2,3:1|3:1,0:0:0:0:
242,148,83233,2,0,B|164:108|164:108|52:131,1,167.999994873047,2|2,3:1|1:2,0:0:0:0:
71,121,83699,1,2,1:2:0:0:
60,111,83792,2,0,L|39:13,1,83.9999974365235,2|4,1:2|1:2,0:0:0:0:
130,15,84165,6,0,P|167:10|215:1,1,83.9999974365235,6|0,3:2|0:0,0:0:0:0:
276,67,84537,2,0,P|321:53|368:49,1,83.9999974365235,2|0,1:1|0:0,0:0:0:0:
446,3,84910,1,2,3:2:0:0:
446,3,85096,1,2,0:0:0:0:
509,78,85283,2,0,B|516:118|516:118|484:170,1,83.9999974365235,2|0,1:1|0:0,0:0:0:0:
426,233,85655,6,0,P|380:209|297:202,1,125.999996154785,2|0,3:2|0:0,0:0:0:0:
291,195,86028,2,0,L|278:290,1,83.9999974365235,2|2,1:1|0:0,0:0:0:0:
107,384,86587,6,0,L|93:296,1,83.9999974365235,10|12,0:0|3:2,0:0:0:0:
0,184,87146,5,2,3:2:0:0:
89,144,87332,1,0,3:2:0:0:
136,65,87519,5,2,1:1:0:0:
226,93,87705,1,0,3:2:0:0:
322,80,87891,6,0,P|335:44|346:-22,1,83.9999974365235,2|2,3:2|3:2,0:0:0:0:
365,0,88171,1,2,3:2:0:0:
389,2,88264,1,2,1:1:0:0:
451,75,88450,5,6,3:1:0:0:
359,263,88823,1,6,3:1:0:0:
226,93,89196,1,6,3:1:0:0:
135,286,89568,1,6,3:1:0:0:
70,221,89755,2,0,L|13:211,2,41.9999987182618,10|8|4,0:3|0:3|0:3,0:0:0:0:
256,384,90500,5,6,3:2:0:0:
256,256,90873,1,6,3:2:0:0:
256,256,91059,1,6,3:2:0:0:
388,254,91432,6,0,B|406:112|272:74|272:74|276:48|276:48|270:74|270:74|146:56|112:198,1,504,6|0,3:2|0:0,0:0:0:0:
