osu file format v14

[General]
AudioFilename: audio.mp3
AudioLeadIn: 0
PreviewTime: 152952
Countdown: 0
SampleSet: Soft
StackLeniency: 0.4
Mode: 0
LetterboxInBreaks: 0
WidescreenStoryboard: 0

[Editor]
Bookmarks: 108070,138070
DistanceSpacing: 0.9
BeatDivisor: 16
GridSize: 8
TimelineZoom: 3.300002

[Metadata]
Title:Tsugai Kogarashi
TitleUnicode:番凩
Artist:mokona x Yosuke
ArtistUnicode:mokona×洋介
Creator:Pachiru
Version:Odorimasho
Source:初音ミク -Project DIVA- extend
Tags:仕事してP hinayukki@sigotositeP Shigotoshite-P cover Sumowinds Pair of Wintry Winds KAITO MEIKO Shurelia BlastTheKidd _yosuke sumowind folk video game japanese novelty
BeatmapID:2360392
BeatmapSetID:822996

[Difficulty]
HPDrainRate:7
CircleSize:4
OverallDifficulty:7
ApproachRate:9
SliderMultiplier:2
SliderTickRate:1

[Events]
//Background and Video events
0,0,"sword_anime_scene-wallpaper-1920x1080.jpg",0,0
//Break Periods
//Storyboard Layer 0 (Background)
//Storyboard Layer 1 (Fail)
//Storyboard Layer 2 (Pass)
//Storyboard Layer 3 (Foreground)
//Storyboard Layer 4 (Overlay)
//Storyboard Sound Samples

[TimingPoints]
-1624,600,4,2,1,30,1,0
176,-133.333333333333,4,2,1,30,0,0
19976,-133.333333333333,4,2,1,25,0,0
39176,-133.333333333333,4,2,1,30,0,0
75176,612.244897959184,4,2,1,35,1,0
75176,-133.333333333333,4,2,1,35,0,0
75787,666.666666666667,4,2,1,35,1,0
76453,701.754385964912,4,2,1,35,1,0
76453,-200,4,2,1,35,0,0
76628,-200,4,2,1,15,0,0
76803,-200,4,2,1,20,0,0
76979,-200,4,2,1,25,0,0
77154,-200,4,2,1,30,0,0
77330,-200,4,2,1,35,0,0
77524,727.272727272727,4,2,1,60,1,0
78070,468.75,4,2,1,50,1,0
78070,-83.3333333333333,4,2,1,50,0,0
93070,-100,4,2,1,40,0,0
123070,-100,4,2,1,45,0,0
153070,-166.666666666667,4,2,1,50,0,0
166195,-133.333333333333,4,2,1,50,0,0
168070,-83.3333333333333,4,2,1,60,0,1
197132,-200,4,2,1,50,0,0
197366,545.454545454546,4,2,1,30,1,0
197638,612.244897959184,4,2,1,30,1,0
197791,697.674418604651,4,2,1,30,1,0
197966,909.090909090909,4,2,1,30,1,0
198421,594.059405940594,4,2,1,35,1,0
198421,-133.333333333333,4,2,1,35,0,0
215054,638.297872340426,4,2,1,35,1,0
215692,666.666666666667,4,2,1,35,1,0
218358,-100,4,2,1,25,0,0
219692,-100,4,2,1,15,0,0
220358,-100,4,2,1,10,0,0
221025,-100,4,2,1,5,0,0

[Colours]
Combo1 : 102,102,102
Combo2 : 83,169,255
Combo3 : 24,53,252
Combo4 : 210,185,0
Combo5 : 255,159,113
Combo6 : 236,118,0
Combo7 : 251,251,0
Combo8 : 192,192,192

[HitObjects]
64,152,176,101,0,3:3:0:0:
80,224,476,1,2,0:2:0:0:
96,296,776,6,0,P|148:308|200:268,1,112.500004291535,4|4,3:3|3:3,0:3:0:0:
244,136,1376,2,0,P|216:176|224:216,1,75.0000028610231,2|4,0:2|3:3,0:3:0:0:
292,192,1976,1,0,0:3:0:0:
212,68,2276,1,4,3:3:0:0:
364,24,2576,2,0,L|408:12,1,37.5000014305115,2|0,3:2|3:3,0:3:0:0:
480,96,2876,2,0,L|436:84,1,37.5000014305115,0|0,3:3|3:3,0:3:0:0:
368,196,3176,102,0,B|384:164|384:164|368:128,1,75.0000028610231,4|0,0:3|0:3,0:3:0:0:
300,160,3626,1,4,3:3:0:0:
340,304,3776,2,0,P|324:260|300:248,1,75.0000028610231,2|4,0:2|3:3,0:3:0:0:
188,316,4376,2,0,B|224:332|224:332|256:316,1,75.0000028610231,0|4,3:3|0:3,0:3:0:0:
48,224,4976,2,0,L|56:272,1,37.5000014305115,2|0,3:2|3:3,0:3:0:0:
132,148,5276,2,0,L|125:184,1,37.5000014305115,4|0,3:3|3:3,0:3:0:0:
68,80,5576,6,0,B|112:52|112:52|176:64,1,112.500004291535,4|4,3:3|3:3,0:3:0:0:
248,124,6176,2,0,P|252:76|272:56,1,75.0000028610231,2|4,0:2|3:3,0:3:0:0:
324,112,6776,1,0,0:3:0:0:
460,36,7076,1,4,3:3:0:0:
344,112,7376,2,0,L|352:164,1,37.5000014305115,2|0,3:2|3:3,0:3:0:0:
428,228,7676,2,0,L|422:190,1,37.5000014305115,0|0,3:3|3:3,0:3:0:0:
304,304,7976,102,0,B|392:296,1,75.0000028610231,4|0,3:3|0:3,0:3:0:0:
448,340,8426,1,4,3:3:0:0:
356,224,8576,2,0,L|256:232,1,75.0000028610231,2|4,0:2|3:3,0:3:0:0:
104,240,9176,1,0,3:3:0:0:
104,240,9476,1,4,3:3:0:0:
200,80,9776,2,0,L|188:124,1,37.5000014305115,2|0,3:2|3:3,0:3:0:0:
84,144,10076,2,0,L|128:156,1,37.5000014305115,4|0,3:3|3:3,0:3:0:0:
276,204,10376,6,0,P|224:188|164:228,1,112.500004291535,4|4,3:3|3:3,0:3:0:0:
230,266,10976,1,2,0:2:0:0:
316,136,11276,1,4,3:3:0:0:
296,304,11576,1,0,0:3:0:0:
382,174,11876,1,4,3:3:0:0:
356,352,12176,2,0,P|368:336|372:316,1,37.5000014305115,2|0,3:2|3:3,0:3:0:0:
336,232,12476,2,0,P|350:243|368:247,1,37.5000014305115,0|0,3:3|3:3,0:3:0:0:
460,360,12776,102,0,P|446:313|458:281,1,75.0000028610231,4|0,3:3|0:3,0:3:0:0:
492,224,13226,1,4,3:3:0:0:
439,96,13376,2,0,P|430:132|440:168,1,75.0000028610231,2|4,0:2|3:3,0:3:0:0:
460,360,13976,1,0,3:3:0:0:
460,360,14276,1,4,3:3:0:0:
276,260,14576,2,0,L|336:264,1,37.5000014305115,2|0,3:2|3:3,0:3:0:0:
220,344,14876,2,0,L|257:341,1,37.5000014305115,4|0,3:3|3:3,0:3:0:0:
132,240,15176,6,0,B|185:262|185:262|213:199,1,112.500004291535,4|4,3:3|3:3,0:3:0:0:
104,108,15776,2,0,P|128:132|176:132,1,75.0000028610231,2|4,0:2|3:3,0:3:0:0:
320,88,16376,1,0,0:3:0:0:
208,20,16676,1,4,3:3:0:0:
280,160,16976,2,0,L|324:172,1,37.5000014305115,2|0,3:2|3:3,0:3:0:0:
428,120,17276,2,0,L|391:110,1,37.5000014305115,0|0,3:3|3:3,0:3:0:0:
396,224,17576,101,4,3:3:0:0:
496,184,17876,1,8,0:3:0:0:
376,328,18176,1,4,3:3:0:0:
476,280,18476,1,2,0:2:0:0:
300,264,18776,1,4,3:3:0:0:
172,348,19076,1,0,3:0:0:0:
136,344,19226,1,0,3:3:0:0:
100,340,19376,86,0,L|104:292,1,37.5000014305115,2|0,3:2|3:3,0:3:0:0:
52,240,19676,2,0,L|56:192,1,37.5000014305115,0|0,3:3|3:3,0:3:0:0:
176,160,19976,102,0,P|136:128|132:68,1,112.500004291535,4|8,3:3|0:2,0:3:0:0:
204,88,20576,1,2,0:2:0:0:
144,228,20876,1,8,0:2:0:0:
292,168,21176,2,0,P|252:192|240:228,1,75.0000028610231,0|8,0:3|0:2,0:3:0:0:
328,316,21776,1,2,3:2:0:0:
324,280,21926,1,0,0:0:0:0:
320,244,22076,1,0,0:3:0:0:
216,312,22376,22,0,L|260:308,1,37.5000014305115,8|0,0:3|0:3,0:3:0:0:
432,252,22676,2,0,L|388:256,1,37.5000014305115,0|0,3:3|0:3,0:3:0:0:
220,348,22976,2,0,L|264:344,1,37.5000014305115,8|0,0:3|0:3,0:3:0:0:
436,288,23276,2,0,L|392:292,1,37.5000014305115,0|0,3:3|0:3,0:3:0:0:
252,264,23576,2,0,L|156:272,1,75.0000028610231,2|0,0:2|0:3,0:3:0:0:
40,360,24176,54,0,L|88:352,1,37.5000014305115,2|0,0:2|0:3,0:3:0:0:
112,344,24476,1,0,3:3:0:0:
32,144,24776,102,0,B|16:200|16:200|52:240,1,112.500004291535,4|8,3:3|0:2,0:3:0:0:
108,180,25376,1,2,0:2:0:0:
60,52,25676,1,8,0:2:0:0:
176,220,25976,2,0,P|188:180|172:136,1,75.0000028610231,0|8,0:3|0:2,0:3:0:0:
144,8,26576,2,0,P|136:44|148:79,1,75.0000028610231,2|0,0:2|0:3,0:3:0:0:
296,28,27176,70,0,L|244:36,1,37.5000014305115,0|0,3:3|0:3,0:3:0:0:
413,97,27476,2,0,L|450:91,1,37.5000014305115,8|0,0:3|0:3,0:3:0:0:
300,52,27776,2,0,L|248:60,1,37.5000014305115,0|0,3:3|0:3,0:3:0:0:
417,121,28076,2,0,L|454:115,1,37.5000014305115,8|0,0:3|0:3,0:3:0:0:
264,144,28376,2,0,P|280:200|328:224,1,112.500004291535,2|0,0:2|0:3,0:3:0:0:
400,264,28976,85,2,3:2:0:0:
412,300,29126,1,0,0:3:0:0:
404,336,29276,1,0,3:0:0:0:
252,300,29576,6,0,B|219:323|219:323|128:318,1,112.500004291535,4|8,0:3|0:2,0:3:0:0:
109,317,30176,1,2,0:2:0:0:
62,171,30476,1,8,0:2:0:0:
35,299,30776,2,0,P|55:261|93:245,1,75.0000028610231,0|8,0:3|0:2,0:3:0:0:
205,171,31376,2,0,P|185:209|147:225,1,75.0000028610231,2|0,3:2|0:3,0:3:0:0:
134,72,31976,6,0,L|185:86,1,37.5000014305115,8|0,0:3|0:3,0:3:0:0:
301,46,32276,2,0,L|271:69,1,37.5000014305115,0|0,3:3|0:3,0:3:0:0:
138,95,32576,2,0,L|189:109,1,37.5000014305115,8|0,0:3|0:3,0:3:0:0:
305,69,32876,2,0,L|275:92,1,37.5000014305115,0|0,3:3|0:3,0:3:0:0:
198,210,33176,2,0,P|221:179|286:211,1,112.500004291535,2|0,3:2|0:3,0:3:0:0:
314,269,33776,69,2,3:2:0:0:
350,260,33926,1,0,0:3:0:0:
386,252,34076,1,0,3:3:0:0:
458,107,34376,38,0,P|428:145|354:155,1,112.500004291535,4|8,0:3|0:2,0:3:0:0:
332,144,34976,1,2,0:2:0:0:
355,35,35276,1,8,0:2:0:0:
254,113,35576,2,0,P|221:102|167:107,1,75.0000028610231,0|8,0:3|0:2,0:3:0:0:
43,161,36176,1,2,0:2:0:0:
80,169,36326,1,0,0:3:0:0:
115,154,36476,1,8,0:3:0:0:
48,288,36776,70,0,B|95:261|95:261|161:278,1,112.500004291535,4|8,3:3|0:2,0:3:0:0:
185,291,37376,1,2,0:2:0:0:
254,167,37676,1,8,0:2:0:0:
276,343,37976,22,0,P|291:300|284:256,1,75.0000028610231,0|0,3:3|0:3,0:3:0:0:
398,172,38576,1,0,3:2:0:0:
390,208,38726,1,0,0:3:0:0:
394,245,38876,1,8,0:2:0:0:
428,92,39176,102,0,B|387:77|349:102|349:102|313:121|262:100,1,150.000005722046,4|2,3:2|0:2,0:3:0:0:
175,42,40076,1,0,3:3:0:0:
105,181,40376,2,0,P|119:146|115:107,1,75.0000028610231,0|0,0:2|3:3,0:3:0:0:
245,181,40976,1,2,0:2:0:0:
232,147,41126,1,0,0:3:0:0:
235,110,41276,1,0,3:3:0:0:
183,248,41576,6,0,P|226:275|287:266,1,112.500004291535,0|8,3:3|0:2,0:3:0:0:
319,244,42176,1,2,0:2:0:0:
253,355,42476,1,8,3:2:0:0:
407,341,42776,2,0,P|367:324|322:333,1,75.0000028610231,0|0,0:3|3:3,0:3:0:0:
492,206,43376,102,0,P|477:213|462:229,1,37.5000014305115,2|0,3:2|0:3,0:3:0:0:
355,152,43676,2,0,P|370:159|385:175,1,37.5000014305115,8|0,3:3|0:3,0:3:0:0:
463,94,43976,21,4,3:3:0:0:
323,225,44276,1,8,0:3:0:0:
382,29,44576,1,0,3:3:0:0:
465,214,44876,1,8,0:3:0:0:
294,106,45176,1,0,3:3:0:0:
463,94,45476,1,8,0:3:0:0:
323,225,45776,2,0,L|328:284,1,37.5000014305115,2|0,0:2|0:3,0:3:0:0:
334,339,46076,1,0,3:3:0:0:
312,148,46376,70,0,B|255:131|255:131|209:161,1,112.500004291535,4|8,3:3|0:2,0:3:0:0:
176,183,46976,1,2,0:2:0:0:
245,54,47276,1,8,0:2:0:0:
268,218,47576,2,0,P|271:262|258:297,1,75.0000028610231,0|8,0:3|0:2,0:3:0:0:
99,229,48176,1,2,0:2:0:0:
93,269,48326,1,2,0:2:0:0:
112,305,48476,2,0,P|93:309|78:319,1,37.5000014305115,8|8,0:3|0:3,0:3:0:0:
183,194,48776,38,0,P|151:155|58:152,1,150.000005722046,4|2,3:3|0:2,0:3:0:0:
118,60,49676,1,0,3:3:0:0:
246,145,49976,2,0,P|231:90|240:54,1,75.0000028610231,0|0,0:3|3:3,0:3:0:0:
390,86,50576,1,2,3:2:0:0:
354,98,50726,1,0,0:2:0:0:
317,96,50876,2,0,P|313:71|319:47,1,37.5000014305115,8|0,0:3|0:3,0:3:0:0:
456,154,51176,70,0,L|452:288,1,112.500004291535,4|8,3:3|0:2,0:3:0:0:
450,307,51776,1,2,0:2:0:0:
305,217,52076,1,8,0:2:0:0:
376,356,52376,2,0,P|362:313|369:274,1,75.0000028610231,0|8,0:3|0:2,0:3:0:0:
310,143,52976,2,0,P|333:155|357:158,1,37.5000014305115,2|0,3:2|3:3,0:3:0:0:
428,84,53276,2,0,P|424:109|412:130,1,37.5000014305115,8|8,0:3|0:3,0:3:0:0:
300,0,53576,38,0,P|343:27|343:107,1,112.500004291535,4|8,3:3|0:2,0:3:0:0:
343,124,54176,1,2,0:2:0:0:
217,73,54476,1,0,3:3:0:0:
260,222,54776,2,0,P|248:183|256:148,1,75.0000028610231,0|0,0:3|3:3,0:3:0:0:
280,23,55376,1,2,0:2:0:0:
254,55,55526,1,2,0:2:0:0:
217,73,55676,2,0,P|196:79|169:74,1,37.5000014305115,8|0,0:3|0:3,0:3:0:0:
48,21,55976,70,0,B|74:56|74:56|64:157,1,112.500004291535,4|8,3:3|0:2,0:3:0:0:
60,165,56576,1,2,0:2:0:0:
44,312,56876,2,0,P|77:281|112:271,1,75.0000028610231,0|0,3:3|0:3,0:3:0:0:
228,321,57476,1,0,3:3:0:0:
192,180,57776,6,0,L|144:171,1,37.5000014305115,2|0,3:2|3:3,0:3:0:0:
318,138,58076,2,0,L|354:144,1,37.5000014305115,8|8,0:3|0:3,0:3:0:0:
182,17,58376,6,0,P|216:51|281:52,1,112.500004291535,4|8,3:2|0:2,0:3:0:0:
313,32,58976,1,2,0:2:0:0:
280,203,59276,1,0,3:3:0:0:
280,203,59426,1,0,0:3:0:0:
280,203,59576,2,0,P|317:212|353:201,1,75.0000028610231,0|8,3:3|3:2,0:3:0:0:
474,126,60176,1,2,0:2:0:0:
465,166,60326,1,2,0:2:0:0:
457,206,60476,2,0,L|446:274,1,37.5000014305115,8|4,0:3|0:3,0:3:0:0:
431,363,60776,102,0,P|391:338|330:349,1,112.500004291535,4|8,3:3|0:2,0:3:0:0:
295,263,61376,2,0,P|335:240|349:196,1,75.0000028610231,0|0,3:0|3:3,0:3:0:0:
280,149,61826,1,8,0:2:0:0:
280,149,61976,2,0,P|240:172|226:216,1,75.0000028610231,0|0,3:3|3:3,0:3:0:0:
186,343,62576,1,2,0:2:0:0:
153,317,62726,1,2,0:2:0:0:
111,319,62876,2,0,P|90:329|74:346,1,37.5000014305115,8|8,0:3|0:3,0:3:0:0:
34,185,63176,6,0,B|88:207|88:207|156:174,1,112.500004291535,4|8,3:3|0:2,0:3:0:0:
174,166,63776,1,0,3:3:0:0:
78,41,64076,1,0,3:3:0:0:
78,41,64226,1,8,0:2:0:0:
78,41,64376,2,0,L|85:123,1,75.0000028610231,0|0,3:3|3:3,0:3:0:0:
253,164,64976,1,2,0:2:0:0:
241,124,65126,1,2,0:2:0:0:
210,95,65276,2,0,P|191:89|164:89,1,37.5000014305115,8|8,0:3|0:3,0:3:0:0:
213,250,65576,102,0,L|307:241,1,75.0000028610231,4|0,3:3|3:3,0:3:0:0:
387,299,66026,1,8,0:2:0:0:
431,233,66176,2,0,L|418:123,1,75.0000028610231,0|0,3:3|3:3,0:3:0:0:
411,85,66626,1,8,0:2:0:0:
411,85,66776,2,0,P|366:70|330:78,1,75.0000028610231,0|0,3:3|3:3,0:3:0:0:
231,193,67376,2,0,L|242:152,1,37.5000014305115,2|2,0:2|0:2,0:3:0:0:
172,49,67676,2,0,L|181:85,1,37.5000014305115,8|8,0:3|0:3,0:3:0:0:
134,194,67976,6,0,P|111:162|36:148,1,112.500004291535,4|8,3:2|0:2,0:3:0:0:
5,164,68576,1,0,3:3:0:0:
62,308,68876,1,0,3:3:0:0:
62,308,69026,1,8,0:2:0:0:
62,308,69176,2,0,L|54:226,1,75.0000028610231,0|0,3:3|3:3,0:3:0:0:
177,333,69776,1,2,0:2:0:0:
181,291,69926,1,2,0:2:0:0:
188,250,70076,2,0,L|193:185,1,37.5000014305115,8|8,0:3|0:3,0:3:0:0:
201,98,70376,102,0,P|243:119|311:98,1,112.500004291535,4|8,3:3|0:2,0:3:0:0:
331,73,70976,1,0,3:3:0:0:
419,198,71276,2,0,L|428:143,1,37.5000014305115,0|8,3:3|0:2,0:3:0:0:
435,120,71576,1,0,3:3:0:0:
317,197,71876,1,0,3:3:0:0:
322,237,72026,1,0,3:3:0:0:
328,277,72176,1,2,0:2:0:0:
333,317,72326,1,2,0:2:0:0:
339,357,72476,1,8,3:3:0:0:
212,287,72776,6,0,L|97:296,1,112.500004291535,4|8,0:3|0:2,0:3:0:0:
58,300,73376,1,0,3:3:0:0:
166,192,73676,2,0,L|230:188,1,37.5000014305115,0|8,3:3|0:2,0:3:0:0:
89,135,73976,1,0,3:3:0:0:
209,36,74276,1,0,3:3:0:0:
321,152,74576,1,2,0:2:0:0:
330,111,74726,1,2,0:2:0:0:
316,72,74876,1,8,3:3:0:0:
178,143,75176,102,0,L|197:307,1,150.000005722046,4|4,3:3|0:3,0:3:0:0:
367,59,76453,6,0,L|363:106,5,25,4|2|2|2|2|2,0:3|0:3|0:3|0:3|0:3|0:3,0:3:0:0:
363,106,77524,1,4,0:2:0:0:
155,326,78070,6,0,P|198:250|291:246,1,179.999994506836,4|8,3:2|0:2,0:3:0:0:
347,285,78538,1,2,0:3:0:0:
263,155,78773,1,0,3:3:0:0:
215,154,78890,1,8,0:2:0:0:
171,175,79007,1,8,0:3:0:0:
196,11,79241,1,0,3:3:0:0:
314,211,79476,2,0,P|336:182|336:145,1,59.9999981689454,2|0,3:3|3:3,0:3:0:0:
347,24,79710,2,0,P|326:56|325:90,1,59.9999981689454,0|0,3:3|3:3,0:3:0:0:
476,211,79945,70,0,P|423:181|308:216,1,179.999994506836,4|8,3:0|0:2,0:3:0:0:
271,275,80413,1,2,0:3:0:0:
147,142,80648,1,0,3:3:0:0:
154,94,80765,1,8,0:2:0:0:
160,46,80882,1,8,0:3:0:0:
134,248,81116,1,0,3:3:0:0:
234,102,81351,2,0,P|242:68|239:36,1,59.9999981689454,2|0,3:3|3:3,0:3:0:0:
81,34,81585,2,0,P|73:68|76:100,1,59.9999981689454,0|0,3:3|3:3,0:3:0:0:
216,271,81820,38,0,P|208:203|110:169,1,179.999994506836,4|8,3:3|0:2,0:3:0:0:
44,201,82288,1,2,0:3:0:0:
148,343,82523,1,0,3:3:0:0:
142,295,82640,1,8,0:2:0:0:
134,248,82757,1,8,0:3:0:0:
125,85,82991,1,0,3:3:0:0:
229,243,83226,2,0,L|237:320,1,59.9999981689454,2|0,3:3|3:3,0:3:0:0:
289,149,83460,2,0,L|282:89,1,59.9999981689454,0|0,3:3|3:3,0:3:0:0:
409,278,83695,70,0,P|481:259|415:206,1,179.999994506836,4|8,0:3|0:2,0:3:0:0:
356,217,84163,1,2,0:3:0:0:
389,136,84280,1,2,0:2:0:0:
389,136,84398,2,0,L|378:59,1,59.9999981689454,0|8,3:3|0:2,0:3:0:0:
271,183,84632,2,0,B|211:213|211:213|96:198,1,179.999994506836,8|8,0:3|0:2,0:3:0:0:
39,86,85101,2,0,P|70:99|89:132,1,59.9999981689454,2|0,3:3|3:3,0:3:0:0:
70,271,85335,2,0,P|46:289|17:293,1,59.9999981689454,0|0,3:3|3:3,0:3:0:0:
99,198,85570,38,0,B|144:218|183:191|183:191|224:163|269:183,1,179.999994506836,4|8,3:3|0:2,0:3:0:0:
340,218,86038,1,2,0:3:0:0:
137,124,86273,1,0,3:3:0:0:
124,79,86390,1,8,0:2:0:0:
139,34,86507,1,8,0:3:0:0:
281,87,86741,1,0,3:3:0:0:
144,212,86976,2,0,P|111:221|77:212,1,59.9999981689454,2|0,3:3|3:3,0:3:0:0:
207,306,87210,2,0,P|240:297|274:306,1,59.9999981689454,0|0,3:3|3:3,0:3:0:0:
207,124,87445,70,8,P|255:164|355:121,1,179.999994506836,4|0,3:3|0:3,0:2:0:0:
375,50,87913,1,2,0:3:0:0:
486,188,88148,1,0,3:3:0:0:
497,237,88265,1,8,0:2:0:0:
477,282,88382,2,0,P|422:302|355:263,1,119.999996337891,8|0,0:3|3:3,0:3:0:0:
302,218,88734,1,8,0:2:0:0:
302,218,88851,2,0,P|282:246|279:279,1,59.9999981689454,2|0,3:3|3:3,0:3:0:0:
303,130,89085,2,0,P|268:134|242:154,1,59.9999981689454,0|0,3:3|3:3,0:3:0:0:
402,209,89320,38,0,B|385:78|385:78|337:49,1,179.999994506836,4|8,3:3|0:2,0:3:0:0:
275,13,89788,1,2,0:3:0:0:
159,177,90023,1,0,3:3:0:0:
136,134,90140,1,8,0:2:0:0:
146,81,90257,1,8,0:3:0:0:
303,200,90491,1,0,3:3:0:0:
197,351,90726,2,0,L|105:345,1,59.9999981689454,2|0,3:3|3:3,0:3:0:0:
59,339,90960,1,0,3:3:0:0:
212,269,91195,70,0,P|276:283|353:369,1,179.999994506836,4|8,3:3|0:2,0:3:0:0:
434,339,91663,2,0,P|416:255|452:169,1,179.999994506836,4|8,3:3|0:2,0:3:0:0:
511,120,92132,1,4,3:3:0:0:
385,34,92366,1,0,3:3:0:0:
343,42,92484,1,8,0:2:0:0:
301,50,92601,86,0,L|314:125,1,59.9999981689454,2|2,0:2|0:2,0:3:0:0:
247,223,92835,2,0,L|236:163,1,59.9999981689454,8|8,0:3|0:3,0:3:0:0:
127,34,93070,6,0,B|101:79|101:79|115:185,1,150,4|8,3:3|0:2,0:3:0:0:
119,210,93538,1,8,0:3:0:0:
140,358,93773,1,0,3:3:0:0:
38,210,94007,2,0,P|54:264|110:286,1,100,0|8,0:3|0:2,0:3:0:0:
188,199,94476,1,2,3:2:0:0:
153,205,94593,1,0,3:2:0:0:
119,210,94710,1,8,3:3:0:0:
310,291,94945,6,0,L|346:353,1,50,0|0,3:3|0:3,0:3:0:0:
202,291,95179,2,0,L|166:353,1,50,8|8,0:3|0:2,0:3:0:0:
305,200,95413,38,0,L|367:234,1,50,0|0,3:3|0:3,0:3:0:0:
207,200,95648,2,0,L|144:234,1,50,8|0,0:3|0:3,0:3:0:0:
297,112,95882,86,0,B|338:98|367:122|367:122|397:151|442:134,1,150,4|0,3:3|0:3,0:3:0:0:
471,127,96351,1,2,0:2:0:0:
487,96,96468,1,0,3:3:0:0:
491,61,96585,1,0,3:3:0:0:
321,189,96820,6,0,L|331:362,1,150,4|8,3:3|0:2,0:3:0:0:
332,373,97288,1,8,0:3:0:0:
423,263,97523,1,0,3:3:0:0:
242,227,97757,2,0,L|250:339,1,100,0|8,0:3|0:2,0:3:0:0:
105,237,98226,1,2,3:2:0:0:
102,269,98343,1,0,3:3:0:0:
100,301,98460,1,0,3:3:0:0:
129,148,98695,6,0,P|135:125|135:82,1,50,8|0,0:3|0:3,0:3:0:0:
187,238,98929,2,0,P|186:258|190:288,1,50,0|8,3:3|0:2,0:3:0:0:
237,149,99163,70,0,P|243:126|243:83,1,50,8|0,0:3|0:3,0:3:0:0:
295,239,99397,2,0,P|294:259|298:289,1,50,0|0,3:3|0:3,0:3:0:0:
362,151,99632,86,0,L|377:-2,1,150,4|0,3:3|0:3,0:3:0:0:
453,54,100101,2,0,L|446:118,1,50,2|8,3:2|0:2,0:3:0:0:
443,138,100335,1,0,0:3:0:0:
285,62,100570,6,0,B|214:91|214:91|141:62,1,150,4|8,3:3|0:2,0:3:0:0:
113,50,101038,1,8,0:3:0:0:
5,157,101273,1,0,3:3:0:0:
178,215,101507,2,0,P|156:166|107:147,1,100,0|8,0:3|0:2,0:3:0:0:
164,293,101976,1,2,3:2:0:0:
197,299,102093,1,0,3:3:0:0:
228,283,102210,1,8,3:3:0:0:
442,238,102445,6,0,P|474:278|480:307,1,50,0|0,3:3|0:3,0:3:0:0:
332,238,102679,2,0,P|299:278|293:307,1,50,8|8,3:3|0:2,0:3:0:0:
441,157,102913,38,0,P|490:169|513:189,1,50,0|0,3:3|0:3,0:3:0:0:
331,157,103148,2,0,P|306:159|283:168,1,50,8|0,3:3|0:3,0:3:0:0:
455,50,103382,70,0,P|383:76|310:46,1,150,4|0,3:3|0:3,0:3:0:0:
288,31,103851,1,2,3:2:0:0:
254,20,103968,1,0,3:3:0:0:
219,25,104085,1,8,3:3:0:0:
258,188,104320,38,0,B|203:162|203:162|77:178,1,150,4|8,3:3|0:2,0:3:0:0:
80,180,104788,1,0,3:3:0:0:
186,263,105023,1,0,3:3:0:0:
156,83,105257,2,0,L|54:97,1,100,0|8,0:3|0:2,0:3:0:0:
227,20,105726,1,2,3:2:0:0:
261,27,105843,1,0,3:3:0:0:
295,33,105960,1,0,3:3:0:0:
464,12,106195,70,0,P|410:55|403:156,1,150,4|8,3:3|0:2,0:3:0:0:
401,165,106663,1,8,0:3:0:0:
452,315,106898,1,0,3:3:0:0:
321,171,107132,86,0,P|350:228|441:233,1,150,4|0,3:3|0:3,0:3:0:0:
401,165,107601,2,0,P|351:217|366:288,1,150,10|0,3:2|0:3,0:3:0:0:
426,337,108070,6,0,B|381:326|351:350|351:350|323:372|268:359,1,150,4|8,3:2|0:2,0:3:0:0:
223,319,108538,1,8,0:3:0:0:
81,366,108773,1,0,3:3:0:0:
152,181,109007,2,0,L|146:298,1,100,0|8,0:3|0:2,0:3:0:0:
48,100,109476,1,2,3:2:0:0:
52,139,109593,1,0,3:3:0:0:
57,178,109710,1,0,3:3:0:0:
244,151,109945,102,0,B|324:140|324:140|370:195,1,150,4|8,0:3|0:2,0:3:0:0:
391,225,110413,1,8,0:3:0:0:
396,71,110648,1,0,3:3:0:0:
286,229,110882,2,0,L|176:242,1,100,0|8,0:3|0:2,0:3:0:0:
41,170,111351,70,0,L|47:236,1,50,2|2,3:2|3:2,0:3:0:0:
105,335,111585,2,0,L|109:285,1,50,8|8,3:3|3:3,0:3:0:0:
137,82,111820,70,0,P|161:151|241:177,1,150,4|8,3:3|0:2,0:3:0:0:
267,175,112288,1,8,0:3:0:0:
369,57,112523,1,0,3:3:0:0:
398,255,112757,1,0,0:3:0:0:
452,127,112991,1,8,0:3:0:0:
472,317,113226,1,2,3:2:0:0:
442,344,113343,1,2,3:2:0:0:
402,345,113460,1,0,3:3:0:0:
283,257,113695,38,0,B|224:227|224:227|129:241,1,150,4|8,3:3|0:2,0:3:0:0:
99,302,114163,2,0,L|-4:290,1,100,8|0,0:3|3:3,0:3:0:0:
106,167,114632,1,0,0:2:0:0:
192,270,114866,1,0,3:3:0:0:
268,155,115101,1,2,3:2:0:0:
264,115,115218,1,0,3:3:0:0:
239,83,115335,1,8,3:3:0:0:
202,65,115452,1,0,3:3:0:0:
162,57,115570,70,0,P|244:54|295:-8,1,150,4|8,3:2|0:2,0:3:0:0:
357,39,116038,2,0,P|349:92|372:138,1,100,8|0,3:3|3:2,0:3:0:0:
490,229,116507,1,0,0:3:0:0:
448,74,116741,1,0,3:3:0:0:
387,250,116976,2,0,L|396:304,1,50,2|8,3:2|0:2,0:3:0:0:
402,338,117210,1,0,3:3:0:0:
437,166,117445,38,0,P|374:152|301:204,1,150,4|8,3:3|0:2,0:3:0:0:
288,231,117913,1,8,3:3:0:0:
195,105,118148,1,0,3:3:0:0:
144,273,118382,2,0,P|125:222|143:173,1,100,0|8,0:3|0:2,0:3:0:0:
249,31,118851,1,2,3:2:0:0:
288,35,118968,1,2,3:2:0:0:
327,39,119085,1,8,3:3:0:0:
366,42,119202,1,8,3:3:0:0:
405,49,119320,70,0,B|398:106|398:106|366:132|366:132|355:200,1,150,4|8,3:3|0:2,3:3:0:0:
412,236,119788,2,0,P|467:204|515:211,1,100,8|0,3:3|3:3,0:3:0:0:
405,344,120257,1,0,0:3:0:0:
297,258,120491,1,0,3:3:0:0:
190,351,120726,1,2,3:2:0:0:
186,301,120843,1,8,0:2:0:0:
184,261,120960,1,0,3:3:0:0:
104,38,121195,38,0,B|71:83|71:83|79:189,1,150,4|8,3:3|0:2,0:3:0:0:
84,216,121663,1,8,0:3:0:0:
259,188,121898,1,0,3:3:0:0:
259,188,122015,2,0,P|310:198|357:179,1,100,8|8,0:2|0:2,0:3:0:0:
402,118,122366,2,0,P|405:91|397:63,1,50,0|0,3:3|3:3,0:3:0:0:
378,34,122601,1,2,3:2:0:0:
342,15,122718,1,2,3:2:0:0:
302,15,122835,1,8,3:3:0:0:
265,31,122952,1,8,3:3:0:0:
212,87,123070,54,0,P|160:113|71:94,1,150,4|8,3:2|0:2,0:3:0:0:
43,68,123538,1,2,0:3:0:0:
144,194,123773,1,8,0:3:0:0:
42,302,124007,2,0,P|92:279|156:282,1,100,0|8,3:3|3:3,0:3:0:0:
300,346,124476,1,10,3:2:0:0:
286,308,124593,1,2,3:2:0:0:
297,269,124710,1,8,0:3:0:0:
323,239,124827,1,8,0:3:0:0:
361,227,124945,101,4,3:3:0:0:
455,351,125179,1,4,0:3:0:0:
393,149,125413,1,8,0:3:0:0:
373,318,125648,1,0,3:3:0:0:
465,108,125882,2,0,P|425:72|349:80,1,100,0|0,3:2|3:3,0:3:0:0:
451,237,126351,2,0,L|380:229,1,50,2|2,3:2|3:2,0:3:0:0:
361,227,126585,1,0,3:3:0:0:
217,108,126820,6,0,P|259:145|187:179,1,150,4|8,0:3|0:2,0:3:0:0:
135,152,127288,2,0,P|85:140|33:157,1,100,2|8,3:3|0:3,0:3:0:0:
41,339,127757,2,0,P|91:351|143:334,1,100,0|0,3:3|3:3,0:3:0:0:
275,226,128226,2,0,L|279:289,1,50,2|2,3:2|3:2,0:3:0:0:
281,315,128460,1,8,0:3:0:0:
164,242,128695,101,4,0:3:0:0:
339,140,128929,1,0,3:3:0:0:
108,177,129163,1,4,0:3:0:0:
317,57,129398,1,0,3:3:0:0:
164,242,129632,2,0,P|238:252|282:347,1,150,4|8,0:3|0:2,0:3:0:0:
356,289,130101,2,0,P|347:245|356:225,1,50,2|2,3:2|3:2,0:3:0:0:
363,204,130335,1,8,0:3:0:0:
188,328,130570,6,0,L|16:325,1,150,4|8,0:3|0:2,0:3:0:0:
0,324,131038,1,2,0:3:0:0:
62,161,131273,1,0,3:3:0:0:
169,250,131507,2,0,L|58:248,1,100,8|0,0:3|3:3,0:3:0:0:
22,87,131976,1,2,3:2:0:0:
59,73,132093,1,2,3:2:0:0:
98,78,132210,1,8,0:3:0:0:
127,104,132327,1,8,0:3:0:0:
144,140,132445,101,4,3:3:0:0:
170,20,132679,1,0,3:3:0:0:
62,161,132913,2,0,P|56:207|75:283,1,100,4|8,0:3|3:3,0:3:0:0:
286,282,133382,2,0,B|207:262|207:262|145:303,1,150,4|8,0:3|0:2,0:3:0:0:
98,353,133851,2,0,B|73:369|73:369|49:366,1,50,2|2,3:2|3:2,0:3:0:0:
14,358,134085,1,0,3:3:0:0:
54,139,134320,6,0,P|120:158|223:149,1,150,4|8,0:3|0:2,0:3:0:0:
239,145,134788,1,2,0:3:0:0:
106,61,135023,1,8,0:3:0:0:
144,70,135140,1,8,0:2:0:0:
183,65,135257,1,8,0:3:0:0:
239,226,135491,1,0,3:3:0:0:
102,288,135726,1,2,0:2:0:0:
141,283,135843,1,2,0:2:0:0:
179,292,135960,1,0,3:3:0:0:
311,186,136195,101,4,3:3:0:0:
355,330,136429,1,0,3:3:0:0:
350,114,136663,1,4,3:3:0:0:
388,258,136898,1,0,3:3:0:0:
244,144,137132,2,0,B|207:129|173:158|173:158|139:186|90:163,1,150,4|8,3:3|0:2,0:3:0:0:
66,152,137601,1,2,0:2:0:0:
43,118,137718,1,2,0:2:0:0:
46,78,137835,1,0,3:3:0:0:
225,220,138070,70,0,B|264:246|264:246|385:222,1,150,4|8,3:2|0:2,0:3:0:0:
404,219,138538,1,2,0:3:0:0:
278,357,138773,1,2,2:0:0:0:
238,354,138890,1,2,2:0:0:0:
198,351,139007,2,0,L|49:341,1,150,2|2,3:2|0:0,0:3:0:0:
56,265,139476,2,0,L|115:269,1,50,0|8,3:3|0:2,0:3:0:0:
162,193,139710,69,2,3:2:0:0:
162,193,139827,1,2,3:2:0:0:
162,193,139945,2,0,L|96:189,1,50,2|2,0:2|0:2,0:3:0:0:
72,187,140179,1,0,3:3:0:0:
259,105,140413,1,8,0:2:0:0:
72,31,140648,1,2,0:2:0:0:
255,184,140882,2,0,P|312:170|323:157,1,75,2|0,0:2|0:0,0:3:0:0:
333,140,141116,2,0,L|361:144,2,25,8|0|8,0:2|0:0|0:2,0:0:0:0:
417,66,141351,2,0,L|366:61,1,50,2|0,3:2|0:3,0:3:0:0:
322,57,141585,1,2,3:2:0:0:
410,246,141820,37,10,3:2:0:0:
402,285,141937,1,0,3:3:0:0:
413,323,142054,1,2,3:2:0:0:
440,351,142171,1,0,3:3:0:0:
466,321,142288,1,10,3:2:0:0:
476,282,142405,1,0,3:3:0:0:
463,243,142523,1,2,3:2:0:0:
435,213,142640,1,0,3:3:0:0:
409,183,142757,69,10,3:2:0:0:
399,144,142874,1,0,3:3:0:0:
412,105,142992,1,2,3:2:0:0:
440,75,143109,1,0,3:3:0:0:
465,108,143226,1,10,3:2:0:0:
473,147,143343,1,0,3:3:0:0:
462,185,143460,1,0,3:3:0:0:
435,213,143577,1,2,3:2:0:0:
396,225,143695,38,0,B|292:214,1,100,4|0,0:3|0:0,0:3:0:0:
238,267,144046,1,8,3:2:0:0:
238,267,144163,2,0,P|213:268|185:285,1,50,2|2,0:2|0:2,0:3:0:0:
164,309,144398,1,0,3:2:0:0:
230,160,144632,2,0,P|167:162|107:85,1,150,2|8,3:2|0:2,0:3:0:0:
104,62,145101,1,2,3:2:0:0:
90,24,145218,1,0,3:3:0:0:
55,4,145335,1,0,3:3:0:0:
196,81,145570,69,2,3:2:0:0:
229,59,145687,1,2,3:2:0:0:
263,38,145804,1,8,3:3:0:0:
297,16,145921,1,0,3:3:0:0:
332,10,146038,1,2,3:2:0:0:
368,27,146155,1,0,3:3:0:0:
404,44,146273,1,4,3:0:0:0:
441,60,146390,1,4,3:3:0:0:
477,77,146507,2,0,L|470:136,1,50,4|0,3:3|3:3,0:3:0:0:
465,166,146741,1,0,3:3:0:0:
455,320,146976,37,8,0:3:0:0:
426,291,147093,1,8,0:3:0:0:
390,277,147210,1,4,0:3:0:0:
350,278,147327,1,4,0:3:0:0:
314,296,147445,2,0,P|296:310|284:339,1,50,2|0,0:2|3:3,0:0:0:0:
275,378,147679,1,4,3:3:0:0:
137,357,147913,69,2,0:2:0:0:
155,321,148030,1,2,0:2:0:0:
160,281,148148,1,12,3:3:0:0:
151,242,148265,1,8,0:3:0:0:
128,208,148382,2,0,P|118:175|129:137,1,75,4|0,0:3|0:0,0:3:0:0:
146,122,148616,2,0,L|144:95,2,25,0|0|0,3:2|3:2|3:2,0:0:0:0:
225,181,148851,2,0,L|274:187,1,50,8|0,0:2|0:3,0:3:0:0:
318,194,149085,1,2,0:2:0:0:
309,14,149320,37,4,3:3:0:0:
288,48,149437,1,0,3:3:0:0:
277,86,149554,1,0,3:3:0:0:
278,126,149671,1,0,3:3:0:0:
294,163,149788,1,4,3:3:0:0:
318,194,149905,1,0,3:3:0:0:
338,228,150023,1,0,3:3:0:0:
347,267,150140,1,0,3:3:0:0:
337,305,150257,70,0,P|308:310|278:301,1,50,4|0,3:3|0:3,0:3:0:0:
224,264,150491,2,0,P|195:259|165:268,1,50,2|0,3:2|0:3,0:3:0:0:
137,277,150726,1,2,3:2:0:0:
109,243,150843,1,2,0:2:0:0:
98,200,150960,1,2,3:2:0:0:
105,156,151077,1,2,3:2:0:0:
130,120,151194,37,4,3:3:0:0:
202,336,151429,1,2,0:2:0:0:
311,195,151663,2,0,L|316:229,2,25,10|2|2,3:2|3:2|3:2,0:0:0:0:
296,116,151898,1,2,0:2:0:0:
329,304,152132,1,8,0:3:0:0:
404,146,152366,1,2,0:2:0:0:
209,173,152601,1,4,3:2:0:0:
209,173,153070,86,0,B|162:156|121:186|121:186|83:220|18:194,1,179.999994506836,2|8,0:2|0:2,0:3:0:0:
176,250,154007,2,0,L|169:378,1,119.999996337891,2|2,0:2|3:3,0:3:0:0:
262,365,154710,1,8,0:2:0:0:
353,360,154945,5,0,3:3:0:0:
349,270,155414,1,0,3:3:0:0:
444,264,155882,1,0,3:3:0:0:
436,168,156351,2,0,L|430:106,1,59.9999981689454,10|8,0:2|0:2,0:3:0:0:
432,16,156820,102,0,P|390:45|305:29,1,119.999996337891,0|0,3:3|3:3,0:3:0:0:
80,16,157757,2,0,P|121:45|206:29,1,119.999996337891,0|2,3:3|3:2,0:3:0:0:
256,6,158460,1,8,0:2:0:0:
250,82,158695,6,0,L|238:219,1,119.999996337891,2|8,0:2|0:2,0:3:0:0:
231,276,159398,1,0,0:3:0:0:
169,232,159632,1,0,3:3:0:0:
348,363,160101,2,0,L|415:355,1,59.9999981689454,2|8,3:2|0:2,0:3:0:0:
453,293,160570,102,0,P|446:249|310:220,1,179.999994506836,0|0,3:3|3:3,0:3:0:0:
276,254,161507,1,8,0:2:0:0:
376,78,161976,2,0,P|341:86|297:70,1,59.9999981689454,2|8,3:3|0:2,0:3:0:0:
247,51,162445,5,0,3:3:0:0:
255,130,162679,1,0,3:3:0:0:
181,100,162913,1,0,3:3:0:0:
192,176,163148,1,0,3:2:0:0:
116,151,163382,1,2,3:2:0:0:
129,226,163617,1,0,3:3:0:0:
144,301,163851,1,2,3:2:0:0:
53,201,164085,1,0,3:3:0:0:
204,248,164320,101,8,3:2:0:0:
87,354,164554,1,2,3:2:0:0:
185,174,164788,1,8,3:2:0:0:
239,362,165023,1,2,3:2:0:0:
123,127,165257,1,8,3:2:0:0:
279,289,165491,1,0,3:3:0:0:
54,250,165726,2,0,L|155:235,1,89.9999972534181,2|8,3:2|0:2,0:2:0:0:
172,165,166195,6,0,P|212:194|285:181,1,112.500004291535,0|8,3:3|0:2,0:3:0:0:
316,167,166663,1,0,3:3:0:0:
227,33,166898,1,0,3:3:0:0:
227,33,167015,2,0,L|237:138,1,75.0000028610231,0|8,0:3|0:2,0:3:0:0:
309,83,167366,2,0,L|304:35,1,37.5000014305115,0|0,3:3|0:3,0:3:0:0:
367,3,167601,5,4,3:0:0:0:
386,52,167718,1,0,3:0:0:0:
427,75,167835,1,8,0:3:0:0:
478,72,167952,1,8,0:3:0:0:
512,41,168070,70,0,P|480:112|510:206,1,179.999994506836,4|8,3:2|0:2,0:3:0:0:
411,265,168538,2,0,P|361:224|307:217,1,119.999996337891,2|0,0:3|3:3,0:3:0:0:
249,268,168890,1,0,3:3:0:0:
249,268,169007,2,0,P|242:334|265:375,1,59.9999981689454,4|0,3:3|0:3,0:3:0:0:
195,189,169241,2,0,P|202:123|179:82,1,59.9999981689454,0|0,3:3|0:3,0:3:0:0:
138,269,169476,2,0,P|131:335|154:376,1,59.9999981689454,4|0,3:3|3:3,0:3:0:0:
84,190,169710,2,0,P|91:124|68:83,1,59.9999981689454,0|0,3:3|3:3,0:3:0:0:
46,20,169945,38,0,P|120:49|215:20,1,179.999994506836,4|8,0:3|0:2,0:3:0:0:
278,70,170413,2,0,P|341:40|406:69,1,119.999996337891,2|0,0:3|3:3,0:3:0:0:
450,110,170765,1,0,3:3:0:0:
450,110,170882,2,0,L|438:204,1,59.9999981689454,8|0,0:3|3:3,0:3:0:0:
436,244,171116,1,4,0:3:0:0:
246,176,171351,1,2,3:2:0:0:
250,211,171468,1,0,3:3:0:0:
255,246,171585,1,8,0:3:0:0:
78,146,171820,70,0,B|129:125|163:158|163:158|193:187|247:175,1,179.999994506836,4|8,3:3|0:2,0:3:0:0:
308,27,172288,2,0,P|242:55|225:117,1,119.999996337891,2|0,0:3|3:3,0:3:0:0:
309,116,172640,1,0,3:3:0:0:
309,116,172757,2,0,L|393:101,1,59.9999981689454,4|0,3:3|0:3,0:3:0:0:
469,187,172991,2,0,L|385:172,1,59.9999981689454,8|0,0:3|0:3,0:3:0:0:
455,46,173226,2,0,L|440:130,1,59.9999981689454,4|0,3:3|3:3,0:3:0:0:
347,250,173460,2,0,L|332:166,1,59.9999981689454,8|0,0:3|3:3,0:3:0:0:
315,87,173695,37,2,0:2:0:0:
367,352,173929,1,2,0:2:0:0:
243,44,174163,1,2,3:2:0:0:
414,293,174398,1,2,3:2:0:0:
138,224,174632,2,0,B|327:195,1,179.999994506836,8|0,0:3|0:3,0:3:0:0:
414,204,175101,1,2,3:2:0:0:
398,160,175218,1,0,3:3:0:0:
403,113,175335,1,8,0:3:0:0:
430,76,175452,1,8,0:3:0:0:
470,56,175570,70,0,P|396:68|310:-2,1,179.999994506836,4|8,0:3|0:2,0:3:0:0:
206,51,176038,2,0,P|245:107|231:176,1,119.999996337891,2|0,0:3|3:3,0:3:0:0:
177,250,176390,1,0,3:3:0:0:
177,250,176507,2,0,P|103:233|79:209,1,59.9999981689454,4|0,3:3|0:3,0:3:0:0:
322,198,176741,2,0,P|396:215|420:239,1,59.9999981689454,0|0,3:3|0:3,0:3:0:0:
229,173,176976,2,0,P|209:112|210:106,1,59.9999981689454,4|0,3:3|0:3,0:3:0:0:
265,277,177210,2,0,P|285:338|284:344,1,59.9999981689454,0|0,3:3|0:3,0:3:0:0:
292,121,177445,37,4,0:3:0:0:
205,328,177679,1,2,0:2:0:0:
232,60,177913,1,4,3:3:0:0:
348,280,178148,1,2,3:2:0:0:
162,193,178382,2,0,B|208:169|253:190|253:190|294:207|336:183,1,179.999994506836,8|0,0:3|0:3,0:3:0:0:
397,142,178851,2,0,L|390:77,1,59.9999981689454,2|2,3:2|0:2,0:3:0:0:
381,9,179085,1,4,0:3:0:0:
502,252,179320,70,0,B|449:293|449:293|328:275,1,179.999994506836,4|8,0:3|0:2,0:3:0:0:
227,253,179788,2,0,P|258:295|258:376,1,119.999996337891,2|0,0:3|3:3,0:3:0:0:
175,360,180140,1,0,3:3:0:0:
175,360,180257,2,0,P|155:319|156:288,1,59.9999981689454,4|0,0:3|0:3,0:3:0:0:
171,145,180491,2,0,P|151:186|152:217,1,59.9999981689454,8|0,0:3|0:3,0:3:0:0:
90,365,180726,2,0,P|70:324|71:293,1,59.9999981689454,4|0,3:3|3:3,0:3:0:0:
86,150,180960,2,0,P|66:191|67:222,1,59.9999981689454,8|0,0:3|3:3,0:3:0:0:
234,307,181195,37,4,0:3:0:0:
123,75,181429,1,2,0:3:0:0:
291,243,181663,1,8,0:2:0:0:
174,13,181898,1,0,3:3:0:0:
374,225,182132,2,0,P|334:172|223:192,1,179.999994506836,8|8,0:3|0:2,0:3:0:0:
186,248,182601,85,2,3:2:0:0:
181,283,182718,1,0,3:3:0:0:
194,316,182835,1,8,0:3:0:0:
75,67,183070,6,0,B|121:85|158:46|158:46|204:66|245:33,1,179.999994506836,4|8,3:2|0:2,0:3:0:0:
310,87,183538,2,0,P|296:154|323:207,1,119.999996337891,2|0,0:3|3:3,0:3:0:0:
380,268,183890,1,0,3:3:0:0:
380,268,184007,2,0,P|418:269|451:247,1,59.9999981689454,4|0,3:3|0:3,0:3:0:0:
242,232,184241,2,0,P|203:230|170:252,1,59.9999981689454,0|0,3:3|0:3,0:3:0:0:
390,346,184476,2,0,P|428:347|461:325,1,59.9999981689454,4|8,3:3|3:3,0:3:0:0:
252,310,184710,2,0,P|213:308|180:330,1,59.9999981689454,0|0,3:3|3:3,0:3:0:0:
399,194,184945,101,4,3:3:0:0:
232,381,185179,1,8,0:3:0:0:
266,127,185413,1,4,3:3:0:0:
390,346,185648,1,8,3:3:0:0:
187,242,185882,2,0,L|1:264,1,179.999994506836,4|8,0:3|0:2,0:3:0:0:
131,328,186351,86,0,L|197:319,1,59.9999981689454,2|0,3:2|3:3,0:3:0:0:
65,178,186585,2,0,L|5:186,1,59.9999981689454,0|0,3:3|3:3,0:3:0:0:
111,53,186820,102,0,P|155:105|261:104,1,179.999994506836,4|8,0:3|0:2,0:3:0:0:
361,52,187288,2,0,P|348:123|394:172,1,119.999996337891,2|0,0:3|3:3,0:3:0:0:
433,232,187640,1,0,3:3:0:0:
433,232,187757,2,0,P|441:274|428:306,1,59.9999981689454,4|0,3:3|0:3,0:3:0:0:
305,236,187991,2,0,P|295:264|299:293,1,59.9999981689454,8|0,0:3|0:3,0:3:0:0:
451,153,188226,2,0,P|489:173|504:204,1,59.9999981689454,4|0,0:3|3:3,0:3:0:0:
286,160,188460,2,0,P|247:180|232:211,1,59.9999981689454,8|0,0:3|3:3,0:3:0:0:
369,78,188695,5,4,0:3:0:0:
223,271,188929,1,2,3:2:0:0:
66,86,189163,1,4,3:3:0:0:
225,345,189398,1,2,3:2:0:0:
408,152,189632,2,0,B|342:158|342:158|308:186|308:186|234:193,1,179.999994506836,4|0,3:3|0:3,0:3:0:0:
167,260,190101,37,2,3:2:0:0:
127,240,190218,1,2,3:2:0:0:
84,231,190335,1,8,0:3:0:0:
41,245,190452,1,8,0:3:0:0:
11,276,190570,102,0,P|57:211|41:105,1,179.999994506836,4|8,3:3|0:2,0:3:0:0:
177,63,191038,2,0,P|202:119|263:136,1,119.999996337891,2|0,0:3|3:3,0:3:0:0:
315,44,191390,1,0,3:3:0:0:
315,44,191507,2,0,L|245:59,1,59.9999981689454,4|0,3:3|0:3,0:3:0:0:
296,204,191741,2,0,L|366:189,1,59.9999981689454,8|0,0:3|0:3,0:3:0:0:
185,149,191976,2,0,L|115:164,1,59.9999981689454,2|2,3:2|3:2,0:3:0:0:
166,309,192210,2,0,L|236:294,1,59.9999981689454,8|0,0:3|0:3,0:3:0:0:
32,259,192445,21,4,3:3:0:0:
216,378,192679,1,0,3:3:0:0:
53,146,192913,1,4,3:3:0:0:
13,374,193148,1,0,3:3:0:0:
182,227,193382,2,0,P|256:220|309:324,1,179.999994506836,0|0,3:3|0:3,0:3:0:0:
407,288,193851,69,2,0:2:0:0:
402,245,193968,1,0,3:3:0:0:
416,205,194085,1,4,3:3:0:0:
490,58,194320,38,0,L|304:41,1,179.999994506836,4|8,0:3|0:2,0:3:0:0:
240,140,194788,2,0,L|368:129,1,119.999996337891,2|0,0:3|3:3,0:3:0:0:
400,224,195140,1,0,3:3:0:0:
400,224,195257,2,0,L|312:212,1,59.9999981689454,4|0,3:3|0:3,0:3:0:0:
217,290,195491,2,0,L|305:278,1,59.9999981689454,8|0,0:3|0:3,0:3:0:0:
240,140,195726,2,0,L|252:228,1,59.9999981689454,4|0,3:3|3:3,0:3:0:0:
350,356,195960,2,0,L|358:296,1,59.9999981689454,8|0,0:3|3:3,0:3:0:0:
381,135,196195,69,2,3:2:0:0:
225,366,196429,1,0,3:3:0:0:
373,59,196663,1,2,3:2:0:0:
217,290,196897,1,0,3:2:0:0:
455,204,197132,38,2,P|354:210|425:283,1,250.5,14|0,3:0|0:3,0:2:0:0:
444,360,198421,22,0,P|387:364|321:334,1,112.500004291535,4|4,3:2|3:3,0:3:0:0:
282,288,199015,1,2,0:2:0:0:
146,353,199312,2,0,L|96:350,1,37.5000014305115,4|0,3:3|0:3,0:3:0:0:
74,349,199609,1,0,3:3:0:0:
194,191,199906,1,4,3:3:0:0:
54,255,200203,2,0,L|99:258,1,37.5000014305115,2|0,3:2|3:3,0:3:0:0:
194,191,200500,2,0,L|149:194,1,37.5000014305115,0|0,3:3|3:3,0:3:0:0:
51,119,200797,102,0,P|96:121|154:75,1,112.500004291535,4|4,0:3|0:3,0:3:0:0:
164,53,201391,1,2,0:2:0:0:
295,148,201688,2,0,L|291:210,1,37.5000014305115,4|0,3:3|0:3,0:3:0:0:
292,219,201985,1,0,3:3:0:0:
296,59,202282,1,4,3:3:0:0:
438,148,202579,1,2,3:2:0:0:
436,180,202727,1,0,3:3:0:0:
435,213,202876,1,2,3:2:0:0:
334,353,203173,6,0,B|281:329|281:329|206:344,1,112.500004291535,4|4,3:3|0:3,0:3:0:0:
194,346,203767,1,2,0:2:0:0:
59,211,204064,1,4,3:3:0:0:
88,226,204213,1,0,3:3:0:0:
102,256,204361,1,0,3:3:0:0:
153,97,204658,1,4,3:3:0:0:
274,224,204955,2,0,P|266:203|268:174,1,37.5000014305115,2|0,3:2|3:3,0:3:0:0:
259,66,205252,2,0,P|267:87|265:116,1,37.5000014305115,0|0,3:2|3:3,0:3:0:0:
347,192,205549,102,0,P|394:199|452:149,1,112.500004291535,4|4,3:3|0:3,0:3:0:0:
512,202,206143,2,0,L|505:259,1,37.5000014305115,2|0,0:2|0:3,0:3:0:0:
505,273,206440,1,4,3:3:0:0:
377,119,206737,2,0,P|369:76|385:30,1,75.0000028610231,0|4,3:3|3:3,0:3:0:0:
220,117,207331,1,2,0:2:0:0:
220,83,207480,1,2,0:2:0:0:
207,51,207628,1,8,0:3:0:0:
179,30,207777,1,8,0:3:0:0:
145,23,207925,6,0,L|26:30,1,112.500004291535,4|4,3:2|3:3,0:3:0:0:
0,32,208520,1,2,0:2:0:0:
96,191,208817,2,0,L|89:141,1,37.5000014305115,4|0,3:0|0:3,0:3:0:0:
84,120,209114,1,0,3:3:0:0:
18,274,209411,1,4,3:3:0:0:
128,368,209708,2,0,L|186:361,1,37.5000014305115,2|0,3:2|3:3,0:3:0:0:
251,301,210005,2,0,L|193:294,1,37.5000014305115,0|0,3:3|3:3,0:3:0:0:
114,206,210302,102,0,B|154:200|154:200|183:218|183:218|236:209,1,112.500004291535,4|4,3:3|3:3,0:3:0:0:
253,206,210896,1,2,0:2:0:0:
186,48,211193,1,4,3:3:0:0:
178,80,211341,1,0,3:3:0:0:
193,109,211490,1,2,0:2:0:0:
367,45,211787,1,4,3:3:0:0:
383,74,211935,1,0,0:0:0:0:
384,107,212084,2,0,P|380:125|373:142,1,37.5000014305115,2|2,3:2|3:2,0:3:0:0:
345,260,212381,2,0,P|339:239|324:215,1,37.5000014305115,0|0,3:3|3:3,0:3:0:0:
441,325,212678,6,0,B|366:312|409:357|306:334,1,112.500004291535,4|4,3:3|3:3,0:3:0:0:
299,332,213272,1,2,0:2:0:0:
114,366,213569,2,0,P|127:344|127:311,1,37.5000014305115,4|0,3:3|3:3,0:3:0:0:
129,298,213866,1,0,3:3:0:0:
84,131,214163,1,4,3:3:0:0:
200,262,214460,1,2,0:2:0:0:
183,232,214609,1,2,0:2:0:0:
151,220,214757,1,0,3:3:0:0:
256,41,215054,101,4,3:3:0:0:
256,343,215692,1,4,3:3:0:0:
256,213,216025,2,0,L|256:148,1,50,2|0,0:2|3:3,0:3:0:0:
255,90,216358,1,6,3:3:0:0:
256,192,216525,12,0,221192,2:3:0:0:
