osu file format v14

[General]
AudioFilename: audio.mp3
AudioLeadIn: 0
PreviewTime: 13361
Countdown: 0
SampleSet: Soft
StackLeniency: 0.7
Mode: 0
LetterboxInBreaks: 0
WidescreenStoryboard: 1

[Editor]
Bookmarks: 13769,40622,67475,80902,107755,134608,148035,174888,201741,228594
DistanceSpacing: 1
BeatDivisor: 4
GridSize: 8
TimelineZoom: 1

[Metadata]
Title:flash back,0217
TitleUnicode:flash back,0217
Artist:moff-P
ArtistUnicode:もっふーP
Creator:fllecc
Version:kuuti's hard
Source:
Tags:kuuti mikgazer vol.1 ハイカラレコード high collar record vocaloid japanese alternative rock noise shoegaze 初音ミク hatsune miku the voc@loid m@ster master 20 flashback,
BeatmapID:4390041
BeatmapSetID:2082778

[Difficulty]
HPDrainRate:5
CircleSize:4
OverallDifficulty:6
ApproachRate:7
SliderMultiplier:1.4
SliderTickRate:0.5

[Events]
//Background and Video events
0,0,"miku.jpg",0,0
//Break Periods
2,134808,136855
2,138164,145876
//Storyboard Layer 0 (Background)
//Storyboard Layer 1 (Fail)
//Storyboard Layer 2 (Pass)
//Storyboard Layer 3 (Foreground)
//Storyboard Layer 4 (Overlay)
//Storyboard Sound Samples

[TimingPoints]
343,419.58041958042,4,2,1,45,1,0
13349,-100,4,2,1,75,0,0
40622,-100,4,2,1,55,0,0
41252,-125,4,2,1,55,0,0
67475,-100,4,2,1,75,0,0
80902,-100,4,2,1,60,0,0
81741,-111.111111111111,4,2,1,60,0,0
107755,-100,4,2,1,75,0,0
137965,-125,4,2,1,75,0,0
148035,-95.2380952380952,4,2,1,80,0,0
174888,-100,4,2,1,75,0,0
228594,-100,4,2,1,45,0,0

[Colours]
Combo1 : 236,208,235
Combo2 : 216,219,243
Combo3 : 198,231,234

[HitObjects]
0,13,13349,5,8,0:0:0:0:
94,97,13769,2,0,P|160:107|188:168,2,140,6|8|2,3:1|0:1|3:1,0:0:0:0:
25,146,14818,2,0,P|34:179|38:214,1,70,2|8,3:1|0:1,0:0:0:0:
11,309,15238,6,0,B|80:287|80:287|141:315,1,140,6|0,3:1|3:0,0:0:0:0:
217,351,15867,1,10,0:1:0:0:
285,302,16077,1,0,3:0:0:0:
375,370,16287,2,0,B|374:348|364:324|364:324|370:294|370:294|356:267|362:229,1,140,2|8,3:1|0:1,0:0:0:0:
402,143,16916,5,0,0:0:0:0:
402,143,17021,1,0,0:0:0:0:
402,143,17126,2,0,P|336:133|308:72,2,140,6|8|2,3:2|0:1|3:1,0:0:0:0:
501,159,18175,2,0,P|478:185|462:219,1,70,2|8,3:1|0:1,0:0:0:0:
436,309,18594,6,0,B|391:298|391:298|366:260|366:260|318:249,1,140,6|0,3:1|3:0,0:0:0:0:
240,281,19224,1,10,0:1:0:0:
217,187,19433,6,0,B|172:198|172:198|147:235|147:235|99:246,1,140,6|0,3:2|3:0,0:0:0:0:
21,204,20063,2,0,L|31:130,1,70,10|8,0:1|0:0,0:0:0:0:
30,134,20377,1,8,0:0:0:0:
30,134,20482,1,6,3:1:0:0:
230,8,20902,6,0,P|262:42|356:52,1,140,8|0,0:1|3:0,0:0:0:0:
444,37,21531,2,0,P|432:72|428:107,1,70,0|8,3:0|0:1,0:0:0:0:
346,152,21951,6,0,B|380:215|380:215|364:280,1,140,6|0,3:1|3:0,0:0:0:0:
430,341,22580,1,10,0:1:0:0:
430,341,22790,1,0,0:0:0:0:
345,376,23000,2,0,L|269:385,1,70,2|2,3:1|3:1,0:0:0:0:
201,332,23419,1,10,0:1:0:0:
118,366,23629,1,0,0:0:0:0:
118,366,23734,1,0,0:0:0:0:
118,366,23839,1,6,3:2:0:0:
7,189,24259,6,0,P|72:176|90:112,1,140,8|0,0:1|3:0,0:0:0:0:
83,18,24888,2,0,P|116:32|150:39,1,70,0|8,3:0|0:1,0:0:0:0:
193,131,25308,6,0,B|249:143|260:119|269:101|328:114,1,140,6|0,3:1|3:0,0:0:0:0:
409,135,25937,1,8,0:1:0:0:
429,229,26147,6,0,B|372:241|361:217|352:199|293:212,1,140,6|2,3:2|3:1,0:0:0:0:
212,231,26776,1,8,0:1:0:0:
142,316,26986,5,8,0:1:0:0:
142,316,27091,1,8,0:1:0:0:
142,316,27196,2,0,P|129:271|44:252,2,140,6|8|2,3:1|0:1|3:1,0:0:0:0:
204,379,28245,2,0,P|239:366|280:362,1,70,2|8,3:1|0:1,0:0:0:0:
348,301,28664,6,0,B|358:331|358:331|429:316|420:254,1,140,6|0,3:1|3:0,0:0:0:0:
484,199,29294,1,10,0:1:0:0:
434,133,29503,1,0,3:0:0:0:
501,42,29713,2,0,B|470:38|447:51|447:51|417:46|417:46|395:59|361:57,1,140,2|8,3:1|0:1,0:0:0:0:
302,135,30343,5,2,0:1:0:0:
302,135,30447,1,0,0:0:0:0:
302,135,30552,2,0,P|252:134|213:52,2,140,6|8|2,3:2|0:1|3:1,0:0:0:0:
399,146,31601,2,0,P|378:179|368:214,1,70,2|8,3:1|0:1,0:0:0:0:
368,307,32021,6,0,B|309:273|309:273|239:289,1,140,6|0,3:1|3:0,0:0:0:0:
157,309,32650,1,10,0:1:0:0:
196,198,32860,6,0,B|136:231|136:231|66:216,1,140,6|0,3:2|3:0,0:0:0:0:
0,274,33489,1,10,0:1:0:0:
33,363,33699,1,8,0:1:0:0:
33,363,33804,1,8,0:1:0:0:
33,363,33909,1,6,3:1:0:0:
280,278,34329,6,0,P|288:208|283:138,1,140,8|0,0:1|3:0,0:0:0:0:
286,47,34958,2,0,P|255:63|221:69,1,70,0|8,3:0|0:1,0:0:0:0:
166,150,35377,6,0,B|137:137|107:114|107:114|73:125|38:131,1,140,6|0,3:1|3:0,0:0:0:0:
0,209,36007,1,10,0:1:0:0:
0,209,36217,1,0,0:0:0:0:
55,277,36426,2,0,L|124:268,1,70,2|2,3:1|3:1,0:0:0:0:
208,259,36846,1,8,0:1:0:0:
280,335,37056,1,0,0:0:0:0:
280,335,37161,1,0,0:0:0:0:
280,335,37266,1,6,3:2:0:0:
464,228,37685,6,0,P|456:160|465:87,1,140,8|0,0:1|3:0,0:0:0:0:
468,0,38315,2,0,P|412:19|380:21,1,70,0|8,3:0|0:1,0:0:0:0:
354,113,38734,6,0,B|309:102|309:102|284:64|284:64|236:53,1,140,6|0,3:1|3:0,0:0:0:0:
161,89,39363,1,10,0:1:0:0:
71,33,39573,6,0,L|87:171,1,140,6|0,3:2|3:0,0:0:0:0:
37,240,40203,1,10,0:1:0:0:
105,321,40412,5,8,0:1:0:0:
105,321,40517,1,8,0:1:0:0:
105,321,40622,2,0,B|162:308|173:329|187:348|243:337,1,140,4|8,3:1|0:0,0:0:0:0:
466,280,41461,1,2,3:2:0:0:
466,280,41671,2,0,L|473:215,1,56,2|8,3:2|0:0,0:0:0:0:
507,147,42091,2,0,P|452:148|401:125,1,112,2|0,3:2|3:0,0:0:0:0:
330,90,42720,1,8,0:0:0:0:
330,90,42930,2,0,P|274:88|223:111,1,112,2|0,0:0|3:0,0:0:0:0:
162,159,43559,1,8,0:0:0:0:
19,39,43979,6,0,L|33:150,1,112,0|8,3:0|0:0,0:0:0:0:
157,352,44818,1,2,3:2:0:0:
157,352,45028,2,0,L|164:287,1,56,2|8,3:2|0:0,0:0:0:0:
172,218,45447,2,0,P|227:220|278:243,1,112,2|0,3:2|3:0,0:0:0:0:
347,281,46077,1,8,0:0:0:0:
408,232,46287,2,0,L|401:163,1,56,2|0,0:0|3:0,0:0:0:0:
356,112,46706,1,0,3:0:0:0:
388,36,46916,1,8,0:0:0:0:
177,118,47336,6,0,P|122:120|84:81,2,112,2|8|0,3:2|0:0|3:0,0:0:0:0:
269,110,48384,2,0,P|255:144|250:172,1,56,0|8,3:0|0:0,0:0:0:0:
178,202,48804,2,0,P|197:254|201:309,1,112,2|0,3:2|3:0,0:0:0:0:
252,376,49433,1,8,0:0:0:0:
252,376,49643,2,0,P|290:337|344:339,1,112,2|0,0:0|3:0,0:0:0:0:
415,373,50273,1,8,0:0:0:0:
512,231,50692,6,0,L|498:120,2,112,2|8|0,3:2|0:0|3:0,0:0:0:0:
511,323,51741,2,0,P|487:308|460:300,1,56,0|8,3:0|0:0,0:0:0:0:
410,234,52161,2,0,B|359:257|359:257|304:245,1,112,2|0,3:2|3:0,0:0:0:0:
247,303,52790,1,8,0:0:0:0:
247,303,53000,2,0,B|196:280|196:280|141:291,1,112,2|0,0:2|3:0,0:0:0:0:
64,306,53629,1,10,0:0:0:0:
216,191,54049,6,0,P|225:135|220:80,1,112,4|8,3:1|0:0,0:0:0:0:
32,11,54888,1,2,3:2:0:0:
32,11,55098,2,0,P|27:38|30:66,1,56,2|8,3:2|0:0,0:0:0:0:
6,146,55517,2,0,P|59:152|81:200,1,112,2|0,3:2|3:0,0:0:0:0:
69,282,56147,1,8,0:0:0:0:
69,282,56356,2,0,P|124:284|183:300,1,112,2|0,0:0|3:0,0:0:0:0:
238,349,56986,1,8,0:0:0:0:
403,239,57405,6,0,P|350:233|328:185,1,112,0|8,3:0|0:0,0:0:0:0:
443,43,58245,1,2,3:2:0:0:
443,43,58455,2,0,L|450:108,1,56,2|8,3:2|0:0,0:0:0:0:
512,153,58874,2,0,P|490:204|487:260,1,112,2|0,0:2|3:0,0:0:0:0:
512,340,59503,1,8,0:0:0:0:
512,340,59713,2,0,P|484:342|458:353,1,56,2|0,0:0|3:0,0:0:0:0:
386,384,60133,1,0,3:0:0:0:
321,339,60343,1,8,0:0:0:0:
88,374,60762,6,0,P|77:342|0:315,2,112,2|8|0,3:2|0:0|3:0,0:0:0:0:
167,347,61811,2,0,L|175:290,1,56,0|8,3:0|0:0,0:0:0:0:
100,244,62231,2,0,L|86:133,1,112,2|0,3:2|3:0,0:0:0:0:
132,70,62860,1,8,0:0:0:0:
132,70,63070,2,0,P|160:91|238:85,1,112,2|0,0:2|3:0,0:0:0:0:
298,42,63699,1,8,0:0:0:0:
478,144,64119,6,0,L|464:255,2,112,2|8|0,3:2|0:0|3:0,0:0:0:0:
459,55,65168,2,0,P|435:70|408:78,1,56,0|8,3:0|0:0,0:0:0:0:
383,159,65588,2,0,B|341:151|341:151|322:128|322:128|283:120,1,112,2|0,3:2|3:0,0:0:0:0:
240,56,66217,1,8,0:0:0:0:
240,56,66426,2,0,B|198:63|198:63|179:87|179:87|140:94,1,112,2|2,0:3|3:0,0:0:0:0:
63,116,67056,1,12,0:0:0:0:
39,213,67266,5,8,0:1:0:0:
39,213,67370,1,8,0:1:0:0:
39,213,67475,2,0,P|105:221|126:283,2,140,6|8|2,3:1|0:1|3:1,0:0:0:0:
0,286,68524,2,0,P|21:313|36:344,1,70,2|8,3:1|0:1,0:0:0:0:
141,378,68944,6,0,B|186:367|186:367|211:329|211:329|259:318,1,140,6|0,3:1|3:0,0:0:0:0:
335,349,69573,1,10,0:1:0:0:
400,296,69783,1,0,3:0:0:0:
479,347,69993,2,0,B|507:295|475:246|475:246|481:202,1,140,2|8,3:1|0:1,0:0:0:0:
411,134,70622,5,2,0:1:0:0:
411,134,70727,1,0,0:0:0:0:
411,134,70832,2,0,P|375:133|337:224,2,140,6|8|2,3:2|0:1|3:1,0:0:0:0:
489,78,71881,2,0,P|455:67|427:46,1,70,2|8,3:1|0:1,0:0:0:0:
335,4,72301,6,0,B|276:36|276:36|205:19,1,140,6|0,3:1|3:0,0:0:0:0:
124,0,72930,1,10,0:1:0:0:
79,102,73140,6,0,B|146:84|146:84|210:113,1,140,6|2,3:2|3:1,0:0:0:0:
300,106,73769,2,0,B|304:142|304:142|283:169,1,70,10|8,0:1|0:1,0:0:0:0:
283,168,74083,1,8,0:1:0:0:
283,168,74188,1,6,3:1:0:0:
183,384,74608,6,0,P|166:350|67:337,1,140,8|0,0:1|3:0,0:0:0:0:
3,284,75238,2,0,P|5:249|17:216,1,70,0|8,3:0|0:1,0:0:0:0:
83,142,75657,6,0,B|129:152|129:152|154:190|154:190|199:201,1,140,6|0,3:1|3:0,0:0:0:0:
271,260,76287,1,10,0:1:0:0:
271,260,76496,1,0,0:0:0:0:
330,193,76706,2,0,L|321:117,1,70,2|2,3:1|3:1,0:0:0:0:
312,40,77126,1,10,0:1:0:0:
399,0,77336,1,0,0:0:0:0:
399,0,77440,1,0,0:0:0:0:
399,0,77545,1,6,3:2:0:0:
512,197,77965,6,0,P|444:204|403:259,1,140,8|0,0:1|3:0,0:0:0:0:
345,334,78594,2,0,P|331:302|307:276,1,70,0|8,3:0|0:1,0:0:0:0:
318,183,79014,6,0,B|261:171|250:195|241:213|182:200,1,140,6|0,3:1|3:0,0:0:0:0:
108,166,79643,1,10,0:1:0:0:
69,273,79853,6,0,B|126:261|137:285|146:303|205:290,1,140,6|0,3:2|3:0,0:0:0:0:
273,341,80482,1,10,0:1:0:0:
374,308,80692,5,8,0:1:0:0:
374,308,80797,1,8,0:1:0:0:
374,308,80902,2,0,P|395:248|386:170,1,140,4|8,3:1|0:0,0:0:0:0:
257,20,81741,1,2,3:2:0:0:
257,20,81951,2,0,P|264:50|258:81,1,62.9999980773926,2|8,3:2|0:0,0:0:0:0:
241,161,82370,2,0,P|184:161|151:219,1,125.999996154785,2|0,3:2|3:0,0:0:0:0:
92,270,83000,1,8,0:0:0:0:
144,331,83210,2,0,L|215:323,1,62.9999980773926,2|0,0:0|3:0,0:0:0:0:
275,283,83629,1,0,3:0:0:0:
344,324,83839,1,8,0:0:0:0:
500,220,84259,6,0,L|484:89,1,125.999996154785,0|8,3:0|0:0,0:0:0:0:
296,0,85098,1,2,3:2:0:0:
296,0,85308,2,0,L|290:66,1,62.9999980773926,2|8,3:2|0:0,0:0:0:0:
283,141,85727,2,0,P|251:137|223:123,1,62.9999980773926,2|0,3:2|0:0,0:0:0:0:
156,82,86147,1,2,3:2:0:0:
156,82,86356,1,8,0:0:0:0:
89,126,86566,2,0,P|104:186|94:248,1,125.999996154785,2|0,0:0|3:0,0:0:0:0:
55,317,87196,1,8,0:0:0:0:
292,382,87615,6,0,L|385:369,1,94.499997116089,2|0,3:2|0:0,0:0:0:0:
396,361,88035,2,0,L|471:374,2,62.9999980773926,8|0|0,0:0|0:0|3:0,0:0:0:0:
340,298,88664,2,0,P|357:272|363:241,1,62.9999980773926,0|8,3:0|0:0,0:0:0:0:
435,199,89084,2,0,P|408:138|410:69,1,125.999996154785,2|0,3:2|3:0,0:0:0:0:
343,29,89713,1,8,0:0:0:0:
343,29,89923,2,0,P|302:35|284:127,1,125.999996154785,2|0,0:0|3:0,0:0:0:0:
328,165,90552,1,8,0:0:0:0:
237,330,90972,6,0,L|111:314,1,125.999996154785,2|8,3:2|0:0,0:0:0:0:
62,252,91601,1,0,0:0:0:0:
62,252,91811,2,0,L|0:257,2,62.9999980773926,2|0|8,3:2|3:0|0:0,0:0:0:0:
144,240,92440,2,0,P|159:176|146:107,1,125.999996154785,2|0,3:2|3:0,0:0:0:0:
113,45,93070,1,8,0:0:0:0:
37,69,93280,2,0,P|30:99|33:130,1,62.9999980773926,2|0,0:2|3:0,0:0:0:0:
61,205,93699,1,0,3:0:0:0:
15,270,93909,1,10,0:0:0:0:
240,373,94329,6,0,P|299:349|361:348,1,125.999996154785,4|8,3:1|0:0,0:0:0:0:
512,202,95167,1,2,3:2:0:0:
512,202,95377,2,0,P|480:200|452:187,1,62.9999980773926,2|8,3:2|0:0,0:0:0:0:
372,210,95797,2,0,L|358:62,1,125.999996154785,2|0,3:2|3:0,0:0:0:0:
301,33,96426,1,8,0:0:0:0:
301,33,96636,2,0,P|269:35|241:48,1,62.9999980773926,2|0,0:2|3:0,0:0:0:0:
173,90,97056,1,0,3:0:0:0:
154,12,97266,1,8,0:0:0:0:
14,192,97685,6,0,P|76:189|133:215,1,125.999996154785,0|8,3:0|0:0,0:0:0:0:
332,345,98524,1,2,3:2:0:0:
332,345,98734,2,0,P|300:356|269:354,1,62.9999980773926,2|8,3:2|0:0,0:0:0:0:
190,384,99154,2,0,L|204:236,1,125.999996154785,2|0,3:2|3:0,0:0:0:0:
266,210,99783,1,8,0:0:0:0:
266,210,99993,2,0,L|258:136,1,62.9999980773926,2|0,0:2|3:0,0:0:0:0:
249,70,100412,1,0,3:0:0:0:
313,21,100622,1,8,0:0:0:0:
501,137,101042,6,0,B|515:184|515:184|490:231,1,94.499997116089,2|0,3:2|0:0,0:0:0:0:
500,234,101461,2,0,B|487:262|487:262|499:295,2,62.9999980773926,8|0|0,0:0|0:0|3:0,0:0:0:0:
425,175,102091,2,0,P|396:190|364:195,1,62.9999980773926,0|8,3:0|0:0,0:0:0:0:
320,262,102510,2,0,P|293:247|193:232,1,125.999996154785,2|0,3:2|3:0,0:0:0:0:
122,200,103140,1,8,0:0:0:0:
122,200,103349,2,0,P|114:241|164:310,1,125.999996154785,2|0,0:2|3:0,0:0:0:0:
237,332,103979,1,8,0:0:0:0:
17,366,104398,6,0,B|-12:309|-12:309|6:249,1,125.999996154785,2|8,3:2|0:0,0:0:0:0:
36,175,105028,1,0,0:0:0:0:
36,175,105238,2,0,B|45:145|45:145|34:114,2,62.9999980773926,2|0|8,3:2|3:0|0:0,0:0:0:0:
88,242,105867,6,0,B|129:231|129:231|152:196|152:196|197:186,1,125.999996154785,2|0,3:2|3:0,0:0:0:0:
246,118,106496,1,8,0:0:0:0:
246,118,106706,2,0,B|287:128|287:128|310:163|310:163|355:173,1,125.999996154785,2|2,0:3|3:0,0:0:0:0:
429,223,107336,2,0,L|440:161,1,62.9999980773926,12|2,0:0|0:3,0:0:0:0:
389,87,107755,6,0,P|444:104|484:30,2,140,4|8|2,3:1|0:1|3:1,0:0:0:0:
322,34,108804,2,0,P|289:42|260:66,1,70,0|8,3:0|0:1,0:0:0:0:
150,54,109224,6,0,B|183:113|183:113|172:184,1,140,6|0,3:1|3:0,0:0:0:0:
203,262,109853,1,8,0:1:0:0:
141,319,110063,1,0,0:0:0:0:
192,384,110273,2,0,L|261:373,1,70,0|0,3:0|3:0,0:0:0:0:
306,302,110692,2,0,L|375:313,1,70,10|0,0:1|0:0,0:0:0:0:
481,384,111112,6,0,P|461:317|488:254,1,140,6|8,3:2|0:1,0:0:0:0:
453,180,111741,1,0,0:0:0:0:
365,166,111951,1,2,3:1:0:0:
365,166,112161,2,0,P|373:202|360:241,1,70,2|8,3:1|0:1,0:0:0:0:
360,325,112580,6,0,B|297:319|298:297|294:272|235:271,1,140,6|0,3:1|3:0,0:0:0:0:
164,313,113210,1,8,0:1:0:0:
95,269,113419,1,0,0:0:0:0:
22,311,113629,2,0,P|13:277|16:242,1,70,0|0,3:0|3:0,0:0:0:0:
58,170,114049,1,8,0:1:0:0:
32,61,114259,5,0,0:0:0:0:
32,61,114363,1,0,0:0:0:0:
32,61,114468,2,0,P|100:72|169:33,2,140,4|8|2,3:1|0:1|3:1,0:0:0:0:
0,137,115517,2,0,P|29:154|49:183,1,70,0|8,3:0|0:1,0:0:0:0:
77,278,115937,6,0,B|122:267|122:267|147:229|147:229|195:218,1,140,6|0,3:1|3:0,0:0:0:0:
271,250,116566,1,8,0:1:0:0:
336,197,116776,1,0,0:0:0:0:
414,245,116986,2,0,L|425:175,1,70,0|0,3:0|3:0,0:0:0:0:
503,136,117405,2,0,L|492:66,1,70,10|0,0:1|0:0,0:0:0:0:
405,2,117825,6,0,P|376:24|336:31,1,70,6|0,3:2|0:0,0:0:0:0:
293,118,118245,2,0,B|233:84|233:84|160:101,1,140,10|2,0:1|3:1,0:0:0:0:
87,55,118874,2,0,L|76:124,1,70,2|8,3:1|0:1,0:0:0:0:
49,237,119294,6,2,B|109:203|109:203|182:220,1,140,6|0,3:1|3:0,0:1:0:0:
258,174,119923,2,0,L|269:244,1,70,8|0,0:1|3:0,0:0:0:0:
278,327,120343,1,8,0:1:0:0:
354,292,120552,1,0,3:0:0:0:
416,348,120762,1,8,0:1:0:0:
504,284,120972,5,8,0:1:0:0:
504,284,121077,1,8,0:1:0:0:
504,284,121182,2,0,P|483:242|470:145,2,140,4|8|2,3:1|0:1|3:1,0:0:0:0:
490,375,122231,2,0,P|462:353|429:342,1,70,0|8,3:0|0:1,0:0:0:0:
360,262,122650,6,0,B|300:296|300:296|227:279,1,140,6|0,3:1|3:0,0:0:0:0:
153,313,123280,1,8,0:1:0:0:
95,251,123489,1,0,3:0:0:0:
15,290,123699,2,0,L|7:219,1,70,0|0,3:0|3:0,0:0:0:0:
76,167,124119,2,0,L|84:96,1,70,10|0,0:1|0:0,0:0:0:0:
59,5,124538,6,0,B|121:2|125:22|132:44|195:45,1,140,2|12,3:1|0:0,0:0:0:0:
268,15,125168,1,0,0:0:0:0:
349,99,125377,2,0,B|287:96|283:116|276:138|213:139,1,140,2|8,3:1|0:1,0:0:0:0:
109,132,126007,6,0,P|139:165|136:266,1,140,6|0,3:1|0:0,0:0:0:0:
115,343,126636,2,0,L|196:334,1,70,8|0,0:1|0:0,0:0:0:0:
236,269,127056,2,0,L|317:278,1,70,2|0,3:1|0:0,0:0:0:0:
370,329,127475,1,8,0:1:0:0:
456,264,127685,5,0,0:0:0:0:
456,264,127790,1,0,0:0:0:0:
456,264,127895,2,0,P|495:305|482:390,2,140,6|10|2,3:1|0:1|3:1,0:0:0:0:
368,267,128944,2,0,P|375:229|396:198,1,70,2|8,3:1|0:1,0:0:0:0:
431,106,129363,6,0,B|361:122|361:122|301:88,1,140,6|0,3:1|3:0,0:0:0:0:
215,99,129993,1,8,0:1:0:0:
162,33,130203,1,0,0:0:0:0:
88,72,130412,2,0,L|99:142,1,70,0|0,3:0|3:0,0:0:0:0:
30,190,130832,2,0,L|19:260,1,70,10|0,0:1|0:0,0:0:0:0:
18,353,131252,6,0,P|48:334|82:330,1,70,6|0,3:2|0:0,0:0:0:0:
140,256,131671,2,0,B|200:290|200:290|270:276,1,140,10|0,0:1|3:0,0:0:0:0:
343,316,132301,1,0,3:0:0:0:
398,255,132510,1,10,0:1:0:0:
474,333,132720,6,0,L|491:190,1,140,4|0,3:1|3:0,0:0:0:0:
496,98,133349,2,0,P|466:117|433:126,1,70,10|2,0:1|3:0,0:0:0:0:
362,192,133769,2,0,P|332:172|299:164,1,70,10|2,0:1|3:0,0:0:0:0:
228,105,134189,1,10,0:1:0:0:
149,149,134398,1,8,0:1:0:0:
149,149,134503,1,8,0:1:0:0:
149,149,134608,1,4,3:1:0:0:
68,111,137755,6,0,L|61:66,2,35,8|8|2,0:1|0:1|3:0,0:0:0:0:
2,48,146776,6,0,L|13:108,1,56,2|0,0:3|0:0,0:0:0:0:
87,144,147196,2,0,L|76:204,1,56,2|0,0:3|3:0,0:0:0:0:
12,255,147615,1,8,0:2:0:0:
65,350,147825,5,8,3:0:0:0:
65,350,147930,1,4,3:0:0:0:
65,350,148035,2,0,L|70:393,3,24.4999992523194,6|0|0|2,3:1|0:0|0:0|0:1,0:0:0:0:
123,293,148454,2,0,P|162:300|189:318,1,73.4999977569581,8|2,0:1|0:1,0:0:0:0:
274,284,148874,1,0,0:0:0:0:
348,333,149084,1,0,3:0:0:0:
409,273,149294,1,10,0:1:0:0:
504,348,149503,6,2,B|502:320|491:298|491:298|499:266|499:266|483:239|489:205,1,146.999995513916,6|0,3:1|0:0,0:1:0:0:
440,148,150133,1,8,0:1:0:0:
456,47,150343,2,0,B|458:60|466:76|466:76|458:110|410:130|372:100,1,146.999995513916,2|0,0:1|3:0,0:0:0:0:
297,147,150972,2,0,L|286:74,1,73.4999977569581,8|2,0:1|0:1,0:0:0:0:
205,23,151391,6,0,L|210:-20,3,24.4999992523194,4|0|0|2,3:2|0:0|0:0|0:1,0:0:0:0:
144,81,151811,2,0,P|112:62|77:56,1,73.4999977569581,8|2,0:1|0:1,0:0:0:0:
0,91,152231,1,0,3:0:0:0:
61,152,152440,2,0,P|78:183|85:219,1,73.4999977569581,0|10,3:0|0:1,0:0:0:0:
66,329,152860,6,2,B|112:319|112:319|141:281|141:281|191:272,1,146.999995513916,6|0,3:1|3:0,0:1:0:0:
260,314,153489,1,8,0:1:0:0:
264,202,153699,6,0,B|310:210|310:210|339:248|339:248|389:257,1,146.999995513916,4|0,3:2|3:0,0:0:0:0:
451,313,154329,1,8,0:1:0:0:
512,234,154538,5,8,0:0:0:0:
512,234,154643,1,8,0:0:0:0:
512,234,154748,2,0,P|498:203|494:160,1,73.4999977569581,6|0,3:1|0:0,0:0:0:0:
512,58,155168,2,0,B|477:63|477:63|438:111|378:99,1,146.999995513916,10|2,0:1|3:1,0:0:0:0:
331,173,155797,2,0,B|312:167|312:167|292:142|266:136,1,73.4999977569581,2|8,3:1|0:0,0:0:0:0:
161,66,156217,6,2,B|195:101|185:147|185:147|161:171|167:204,1,146.999995513916,6|0,3:1|3:0,0:1:0:0:
212,275,156846,1,8,0:1:0:0:
161,340,157056,1,2,0:1:0:0:
251,384,157266,2,0,P|284:370|320:365,1,73.4999977569581,2|2,3:1|3:1,0:0:0:0:
321,365,157580,1,0,0:0:0:0:
321,365,157685,2,0,P|337:331|342:295,1,73.4999977569581,8|0,0:1|0:0,0:0:0:0:
441,249,158105,6,0,B|407:182|407:182|425:112,1,146.999995513916,6|10,3:2|0:1,0:0:0:0:
434,0,158734,2,0,P|377:43|306:35,1,146.999995513916,2|0,0:1|3:0,0:0:0:0:
240,89,159363,1,8,0:1:0:0:
143,29,159573,6,0,L|159:176,1,146.999995513916,6|0,3:1|3:0,0:0:0:0:
166,253,160203,1,8,0:1:0:0:
254,179,160412,6,0,B|301:188|301:188|329:227|329:227|379:235,1,146.999995513916,6|0,3:2|3:0,0:0:0:0:
455,198,161042,1,8,0:1:0:0:
512,284,161252,5,8,0:1:0:0:
512,284,161356,1,8,0:1:0:0:
512,284,161461,2,0,B|495:320|495:320|501:363,1,73.4999977569581,6|2,3:1|0:1,0:0:0:0:
407,383,161881,2,0,B|357:352|337:360|332:381|263:356,1,146.999995513916,10|2,0:1|3:1,0:0:0:0:
217,292,162510,2,0,B|184:293|183:303|179:314|151:318,1,73.4999977569581,2|8,3:1|0:1,0:0:0:0:
42,372,162930,6,2,P|62:302|53:229,1,146.999995513916,6|0,3:1|3:0,0:1:0:0:
6,154,163559,1,8,0:1:0:0:
68,93,163769,2,0,P|105:101|148:126,1,73.4999977569581,2|2,0:1|3:1,0:0:0:0:
205,174,164189,2,0,P|242:166|283:143,1,73.4999977569581,0|8,3:0|0:1,0:0:0:0:
386,98,164608,6,2,B|359:163|359:163|382:238,1,146.999995513916,2|0,0:1|0:0,0:1:0:0:
457,305,165238,2,0,P|413:316|383:337,1,73.4999977569581,8|2,0:1|0:1,0:0:0:0:
297,303,165657,2,0,L|290:268,3,24.4999992523194,2|0|0|2,3:1|0:0|0:0|3:1,0:0:0:0:
244,374,166077,1,8,0:1:0:0:
168,296,166287,6,0,B|145:358|81:345|81:345|70:305,1,146.999995513916,6|0,3:1|3:0,0:0:0:0:
0,263,166916,1,8,0:1:0:0:
102,230,167126,6,2,B|110:202|95:178|95:178|85:163|92:138|92:138|98:112|82:89,1,146.999995513916,6|0,3:2|3:0,0:1:0:0:
18,29,167755,1,8,0:1:0:0:
131,0,167965,5,8,0:1:0:0:
131,0,168070,1,8,0:1:0:0:
130,0,168175,2,0,P|155:23|194:33,1,73.4999977569581,6|0,3:1|0:0,0:0:0:0:
247,111,168594,2,0,B|309:78|309:78|385:93,1,146.999995513916,10|2,0:1|3:1,0:0:0:0:
471,73,169224,2,0,L|458:155,1,73.4999977569581,2|8,3:1|0:1,0:0:0:0:
512,254,169643,6,2,B|486:255|457:235|457:235|410:235|380:270,1,146.999995513916,6|0,3:1|3:0,0:1:0:0:
318,331,170273,1,8,0:1:0:0:
239,290,170482,1,2,0:1:0:0:
162,349,170692,2,0,B|150:301|150:301|158:254|158:254|146:201,1,146.999995513916,0|10,3:0|0:1,0:0:0:0:
88,126,171322,5,2,0:1:0:0:
88,126,171426,1,0,0:0:0:0:
88,126,171531,2,0,P|43:126|1:40,2,146.999995513916,6|8|0,3:2|0:1|3:0,0:0:0:0:
136,209,172580,2,0,P|160:183|193:166,1,73.4999977569581,2|8,3:1|0:1,0:0:0:0:
225,68,173000,6,0,B|271:78|271:78|297:118|297:118|348:130,1,146.999995513916,6|0,3:1|3:0,0:0:0:0:
423,88,173629,1,8,0:1:0:0:
499,178,173839,6,0,B|451:188|451:188|425:228|425:228|375:239,1,146.999995513916,6|0,3:2|3:0,0:0:0:0:
297,207,174468,1,8,0:1:0:0:
247,306,174678,5,8,0:1:0:0:
247,306,174783,1,8,0:1:0:0:
247,306,174888,2,0,P|304:306|372:372,2,140,4|8|2,3:1|0:1|3:1,0:0:0:0:
171,249,175937,2,0,P|167:285|152:316,1,70,0|8,3:0|0:1,0:0:0:0:
60,366,176356,6,0,B|76:298|76:298|48:234,1,140,6|0,3:1|3:0,0:0:0:0:
10,158,176986,1,8,0:1:0:0:
65,95,177196,1,0,0:0:0:0:
47,11,177405,2,0,L|127:27,1,70,0|0,3:0|3:0,0:0:0:0:
166,90,177825,2,0,L|246:74,1,70,10|0,0:1|0:0,0:0:0:0:
335,5,178245,6,0,P|319:72|356:133,1,140,6|8,3:2|0:1,0:0:0:0:
431,185,178874,1,0,0:0:0:0:
351,227,179084,1,2,3:1:0:0:
351,227,179294,2,0,P|318:213|284:208,1,70,2|8,3:1|0:1,0:0:0:0:
176,168,179713,6,0,P|197:233|169:296,1,140,6|0,3:1|3:0,0:0:0:0:
224,360,180343,1,8,0:1:0:0:
298,321,180552,1,0,0:0:0:0:
358,380,180762,2,0,L|427:369,1,70,0|0,3:0|3:0,0:0:0:0:
512,357,181182,1,8,0:1:0:0:
446,277,181391,5,0,0:0:0:0:
446,277,181496,1,0,0:0:0:0:
446,277,181601,2,0,P|431:228|484:153,2,140,4|8|2,3:1|0:1|3:1,0:0:0:0:
417,376,182650,2,0,P|394:346|362:327,1,70,0|8,3:0|0:1,0:0:0:0:
335,245,183070,6,0,B|289:252|289:252|260:287|260:287|212:294,1,140,6|0,3:1|3:0,0:1:0:0:
158,365,183699,1,8,0:0:0:0:
89,319,183909,1,0,0:0:0:0:
2,356,184119,2,0,L|13:284,1,70,0|0,3:0|3:0,0:0:0:0:
75,230,184538,2,0,L|64:160,1,70,10|0,0:1|0:0,0:0:0:0:
77,69,184958,6,0,P|115:94|145:100,1,70,6|0,3:2|0:0,0:0:0:0:
167,189,185377,2,0,B|212:178|212:178|237:140|237:140|285:129,1,140,10|2,0:1|3:1,0:0:0:0:
357,86,186007,2,0,L|368:159,1,70,2|8,3:1|0:1,0:0:0:0:
403,277,186426,6,2,B|358:266|358:266|333:228|333:228|285:217,1,140,4|0,3:1|3:0,0:1:0:0:
208,177,187056,2,0,L|197:247,1,70,8|0,0:1|3:0,0:0:0:0:
180,351,187475,1,8,0:1:0:0:
260,326,187684,1,0,3:0:0:0:
321,381,187894,1,8,0:1:0:0:
385,321,188105,5,8,0:1:0:0:
385,321,188210,1,8,0:1:0:0:
385,321,188315,2,0,P|408:286|503:293,2,140,4|8|2,3:1|0:1|3:1,0:0:0:0:
311,378,189363,2,0,P|298:342|280:317,1,70,0|8,3:0|0:1,0:0:0:0:
336,238,189783,6,0,B|310:176|310:176|326:102,1,140,6|0,3:1|3:0,0:0:0:0:
267,40,190412,1,8,0:1:0:0:
188,69,190622,1,0,0:0:0:0:
113,19,190832,2,0,L|103:92,1,70,0|0,3:0|3:0,0:0:0:0:
29,129,191252,2,0,L|39:202,1,70,10|0,0:1|0:0,0:0:0:0:
30,310,191671,6,0,P|62:286|171:293,1,140,2|12,3:1|0:2,0:0:0:0:
237,316,192301,1,0,0:0:0:0:
300,223,192510,2,0,P|268:199|159:206,1,140,2|8,3:1|0:1,0:0:0:0:
80,246,193140,6,0,L|94:90,1,140,6|0,3:1|3:0,0:0:0:0:
117,20,193769,2,0,P|148:43|186:55,1,70,8|0,0:1|0:0,0:0:0:0:
229,130,194189,1,2,3:1:0:0:
290,73,194398,1,0,3:0:0:0:
362,115,194608,1,8,0:1:0:0:
454,64,194818,5,0,0:0:0:0:
454,64,194923,1,0,0:0:0:0:
454,64,195028,2,2,P|499:114|488:181,2,140,6|10|0,3:1|0:1|3:0,0:0:0:0:
368,11,196077,2,0,P|366:52|353:83,1,70,2|8,3:1|0:1,0:0:0:0:
356,188,196496,6,0,B|296:154|296:154|220:167,1,140,6|0,3:1|3:0,0:0:0:0:
146,195,197126,1,8,0:1:0:0:
70,158,197336,1,0,0:0:0:0:
13,219,197545,2,0,P|23:251|25:296,1,70,0|0,3:0|3:0,0:0:0:0:
99,339,197965,2,0,P|101:304|111:270,1,70,10|0,0:1|0:0,0:0:0:0:
156,187,198384,6,0,P|180:219|220:232,1,70,6|0,3:2|0:0,0:0:0:0:
258,322,198804,2,0,B|319:292|319:292|396:315,1,140,10|0,0:1|3:0,0:0:0:0:
451,257,199433,1,0,3:0:0:0:
410,183,199643,1,10,0:1:0:0:
438,73,199853,6,0,P|384:115|316:112,1,140,4|0,3:1|3:0,0:0:0:0:
235,159,200482,2,0,L|224:76,1,70,10|2,0:1|3:0,0:0:0:0:
141,28,200902,2,0,L|130:111,1,70,10|2,0:1|3:0,0:0:0:0:
60,161,201322,1,10,0:1:0:0:
124,248,201531,5,8,0:1:0:0:
124,248,201636,1,8,0:1:0:0:
124,248,201741,2,0,P|157:301|129:381,2,140,6|8|2,3:1|0:1|3:1,0:0:0:0:
67,170,202790,2,0,P|101:166|133:153,1,70,2|8,3:1|0:1,0:0:0:0:
237,92,203210,6,0,P|216:157|250:216,1,140,6|0,3:1|3:0,0:0:0:0:
319,265,203839,1,10,0:1:0:0:
392,224,204049,1,0,3:0:0:0:
471,308,204259,2,0,B|463:275|463:275|493:224|466:173,1,140,2|10,3:1|0:1,0:0:0:0:
405,71,204888,5,0,0:0:0:0:
405,71,204993,1,0,0:0:0:0:
405,71,205098,2,0,P|339:61|311:0,2,140,6|8|2,3:2|0:1|3:1,0:0:0:0:
499,90,206147,2,0,P|474:121|462:156,1,70,2|8,3:1|0:1,0:0:0:0:
448,264,206566,6,0,B|390:229|390:229|319:244,1,140,6|0,3:1|3:0,0:0:0:0:
235,260,207196,1,10,0:1:0:0:
244,157,207405,6,0,B|186:191|186:191|115:176,1,140,6|0,3:2|3:0,0:0:0:0:
34,216,208035,2,0,L|45:295,1,70,10|8,0:1|0:1,0:0:0:0:
43,286,208349,1,8,0:1:0:0:
43,286,208454,1,6,3:1:0:0:
305,379,208874,6,0,P|330:336|311:243,1,140,8|0,0:1|3:0,0:0:0:0:
247,196,209503,2,0,P|279:172|326:161,1,70,0|8,3:0|0:1,0:0:0:0:
427,126,209923,6,0,B|382:115|382:115|357:77|357:77|310:66,1,140,6|0,3:1|3:0,0:0:0:0:
231,95,210552,1,10,0:1:0:0:
172,34,210762,1,0,0:0:0:0:
96,71,210972,2,0,L|105:140,1,70,2|2,3:1|3:1,0:0:0:0:
63,213,211391,1,8,0:1:0:0:
128,281,211601,1,2,0:1:0:0:
128,281,211706,1,0,0:0:0:0:
128,281,211811,1,6,3:2:0:0:
321,384,212231,6,0,P|354:351|449:335,1,140,8|0,0:1|3:0,0:0:0:0:
512,276,212860,2,0,P|498:243|491:209,1,70,0|8,3:0|0:1,0:0:0:0:
503,111,213280,6,0,B|471:119|452:139|452:139|411:145|378:113,1,140,6|0,3:1|3:0,0:0:0:0:
298,86,213909,1,8,0:1:0:0:
322,204,214119,6,0,B|289:173|248:178|248:178|229:198|197:206,1,140,6|2,3:2|3:1,0:0:0:0:
126,255,214748,1,8,0:1:0:0:
59,173,214958,5,8,0:1:0:0:
59,173,215063,1,8,0:1:0:0:
59,173,215168,2,0,P|101:155|106:61,2,140,6|8|2,3:1|0:1|3:1,0:0:0:0:
0,229,216217,2,0,P|22:260|36:301,1,70,2|8,3:1|0:1,0:0:0:0:
61,384,216636,6,0,B|106:373|106:373|131:335|131:335|177:324,1,140,6|0,3:1|3:0,0:0:0:0:
257,352,217266,1,10,0:1:0:0:
324,303,217475,1,0,3:0:0:0:
401,358,217685,2,0,B|422:317|409:273|409:273|420:251|420:251|415:214,1,140,2|10,3:1|0:1,0:0:0:0:
445,110,218315,5,0,0:0:0:0:
445,110,218419,1,0,0:0:0:0:
445,110,218524,2,0,P|396:96|380:4,2,140,6|8|2,3:2|0:1|3:1,0:0:0:0:
496,187,219573,2,0,P|460:196|431:216,1,70,2|8,3:1|0:1,0:0:0:0:
383,309,219993,6,0,B|338:298|338:298|313:260|313:260|265:249,1,140,6|0,3:1|3:0,0:0:0:0:
193,291,220622,1,10,0:1:0:0:
183,173,220832,6,0,B|138:184|138:184|113:222|113:222|65:233,1,140,6|2,3:2|3:1,0:0:0:0:
0,175,221461,1,8,0:1:0:0:
34,102,221671,1,8,0:1:0:0:
34,102,221776,1,8,0:1:0:0:
34,102,221881,1,6,3:1:0:0:
241,0,222301,6,0,P|229:67|265:126,1,140,8|0,0:1|3:0,0:0:0:0:
286,213,222930,2,0,P|314:193|347:182,1,70,0|8,3:0|0:1,0:0:0:0:
458,173,223349,6,0,B|423:230|423:230|438:301,1,140,6|0,3:1|3:0,0:0:0:0:
378,361,223979,1,10,0:1:0:0:
303,322,224189,1,0,0:0:0:0:
236,372,224398,2,0,L|159:359,1,70,2|0,3:1|3:0,0:0:0:0:
80,384,224818,1,10,0:1:0:0:
25,299,225028,1,0,0:0:0:0:
25,299,225133,1,0,0:0:0:0:
25,299,225238,1,6,3:2:0:0:
243,217,225657,6,0,P|278:158|267:90,1,140,8|0,0:1|3:0,0:0:0:0:
245,4,226287,2,0,P|220:28|188:42,1,70,0|8,3:0|0:1,0:0:0:0:
68,87,226706,6,0,B|114:97|114:97|139:135|139:135|184:146,1,140,6|0,3:1|3:0,0:0:0:0:
251,207,227336,1,8,0:1:0:0:
343,138,227545,6,0,L|359:276,1,140,6|0,3:2|3:0,0:0:0:0:
315,349,228175,1,8,0:1:0:0:
440,384,228384,1,8,0:1:0:0:
440,384,228489,1,8,0:1:0:0:
440,384,228594,1,0,0:0:0:0:
