osu file format v14

[General]
AudioFilename: audio.mp3
AudioLeadIn: 0
PreviewTime: 13361
Countdown: 0
SampleSet: Soft
StackLeniency: 0.7
Mode: 0
LetterboxInBreaks: 0
WidescreenStoryboard: 1

[Editor]
Bookmarks: 13769,40622,67475,80902,107755,134608,148035,174888,201741,228594
DistanceSpacing: 1
BeatDivisor: 4
GridSize: 32
TimelineZoom: 1

[Metadata]
Title:flash back,0217
TitleUnicode:flash back,0217
Artist:moff-P
ArtistUnicode:もっふーP
Creator:fllecc
Version:normal
Source:
Tags:kuuti mikgazer vol.1 ハイカラレコード high collar record vocaloid japanese alternative rock noise shoegaze 初音ミク hatsune miku the voc@loid m@ster master 20 flashback,
BeatmapID:4361821
BeatmapSetID:2082778

[Difficulty]
HPDrainRate:3
CircleSize:4
OverallDifficulty:4
ApproachRate:5
SliderMultiplier:1.2
SliderTickRate:0.5

[Events]
//Background and Video events
0,0,"miku.jpg",0,0
//Break Periods
2,138164,145576
//Storyboard Layer 0 (Background)
//Storyboard Layer 1 (Fail)
//Storyboard Layer 2 (Pass)
//Storyboard Layer 3 (Foreground)
//Storyboard Layer 4 (Overlay)
//Storyboard Sound Samples

[TimingPoints]
343,419.58041958042,4,2,1,45,1,0
13349,-100,4,2,1,75,0,0
40622,-100,4,2,1,55,0,0
67475,-100,4,2,1,75,0,0
80902,-100,4,2,1,60,0,0
107755,-100,4,2,1,75,0,0
148035,-90.9090909090909,4,2,1,80,0,0
174888,-100,4,2,1,75,0,0
228594,-100,4,2,1,45,0,0

[Colours]
Combo1 : 236,208,235
Combo2 : 216,219,243
Combo3 : 198,231,234

[HitObjects]
256,192,13349,5,8,0:0:0:0:
316,281,13769,2,0,B|373:289|435:281,1,120,6|8,3:1|0:1,0:0:0:0:
489,186,14608,2,0,L|483:122,1,60,2|2,3:1|3:1,0:0:0:0:
511,79,15028,1,8,0:1:0:0:
478,35,15238,2,0,B|421:27|359:35,1,120,6|0,3:1|3:0,0:0:0:0:
315,2,15867,1,10,0:1:0:0:
231,69,16287,2,0,L|236:128,1,60,2|2,3:1|3:1,0:0:0:0:
280,159,16706,2,0,L|275:218,1,60,8|0,0:1|0:0,0:0:0:0:
267,272,17126,6,0,B|205:280|148:272,1,120,6|8,3:2|0:1,0:0:0:0:
65,201,17965,2,0,L|70:142,2,60,2|2|8,3:1|3:1|0:1,0:0:0:0:
18,228,18594,2,0,B|10:285|18:347,1,120,6|0,3:1|3:0,0:0:0:0:
61,380,19224,1,10,0:1:0:0:
104,347,19433,2,0,B|166:339|223:347,1,120,6|0,3:2|3:0,0:0:0:0:
268,377,20063,1,10,0:1:0:0:
364,328,20482,6,0,B|385:271|385:271|363:217,1,120,6|8,3:1|0:1,0:0:0:0:
272,155,21322,2,0,L|278:91,1,60,0|0,3:0|3:0,0:0:0:0:
248,49,21741,1,8,0:1:0:0:
286,10,21951,2,0,B|348:3|405:10,1,120,6|0,3:1|3:0,0:0:0:0:
451,39,22580,1,10,0:1:0:0:
511,128,23000,1,2,3:1:0:0:
506,182,23210,1,2,3:1:0:0:
501,235,23419,1,10,0:1:0:0:
433,319,23839,6,0,B|371:326|314:319,1,120,6|8,3:2|0:1,0:0:0:0:
241,237,24678,2,0,L|247:173,1,60,0|0,3:0|3:0,0:0:0:0:
210,136,25098,1,8,0:1:0:0:
163,164,25308,2,0,B|106:157|44:164,1,120,6|0,3:1|3:0,0:0:0:0:
8,122,25937,1,8,0:1:0:0:
29,72,26147,1,6,3:2:0:0:
127,18,26566,1,2,3:1:0:0:
127,18,26776,2,0,L|191:24,1,60,8|8,0:1|0:1,0:0:0:0:
238,7,27196,6,0,B|260:61|260:61|239:118,1,120,6|8,3:1|0:1,0:0:0:0:
146,175,28035,2,0,L|151:234,1,60,2|2,3:1|3:1,0:0:0:0:
121,279,28454,1,8,0:1:0:0:
158,318,28664,2,0,B|220:310|277:318,1,120,6|0,3:1|3:0,0:0:0:0:
323,288,29294,1,10,0:1:0:0:
390,371,29713,2,0,L|449:366,1,60,2|2,3:1|3:1,0:0:0:0:
487,327,30133,2,0,L|482:268,1,60,8|2,0:1|0:1,0:0:0:0:
506,219,30552,6,0,B|449:211|387:219,1,120,6|8,3:2|0:1,0:0:0:0:
314,138,31391,2,0,L|319:79,2,60,2|2|8,3:1|3:1|0:1,0:0:0:0:
272,172,32021,2,0,B|210:180|153:172,1,120,6|0,3:1|3:0,0:0:0:0:
111,136,32650,1,10,0:1:0:0:
68,169,32860,2,0,B|76:226|68:288,1,120,6|0,3:2|3:0,0:0:0:0:
22,318,33489,1,10,0:1:0:0:
108,382,33909,6,0,B|162:356|162:356|218:373,1,120,6|8,3:1|0:1,0:0:0:0:
303,306,34748,2,0,L|298:247,1,60,0|0,3:0|3:0,0:0:0:0:
260,207,35168,1,8,0:1:0:0:
292,163,35377,2,0,B|354:171|411:163,1,120,6|0,3:1|3:0,0:0:0:0:
457,191,36007,1,10,0:1:0:0:
507,95,36426,1,2,3:1:0:0:
499,41,36636,1,2,3:1:0:0:
446,28,36846,1,8,0:1:0:0:
347,72,37266,6,0,B|285:64|228:72,1,120,6|8,3:2|0:1,0:0:0:0:
141,137,38105,2,0,L|146:196,1,60,0|0,3:0|3:0,0:0:0:0:
186,232,38524,1,8,0:1:0:0:
156,276,38734,2,0,B|99:284|37:276,1,120,6|0,3:1|3:0,0:0:0:0:
3,233,39363,1,10,0:1:0:0:
39,192,39573,2,0,B|47:135|39:73,1,120,6|0,3:2|3:0,0:0:0:0:
5,29,40203,1,10,0:1:0:0:
108,0,40622,6,0,B|165:-8|227:0,1,120,4|8,3:1|0:0,0:0:0:0:
317,68,41461,1,2,3:2:0:0:
317,68,41671,2,0,L|312:127,1,60,2|8,3:2|0:0,0:0:0:0:
348,167,42091,1,2,3:2:0:0:
449,130,42510,1,2,3:2:0:0:
486,231,42930,2,0,B|478:293|486:350,1,120,2|0,0:0|3:0,0:0:0:0:
439,378,43559,1,8,0:0:0:0:
351,314,43979,6,0,B|289:306|232:314,1,120,0|8,3:0|0:0,0:0:0:0:
144,376,44818,1,2,3:2:0:0:
144,376,45028,2,0,L|85:371,1,60,2|8,3:2|0:0,0:0:0:0:
47,331,45447,1,2,3:2:0:0:
112,244,45867,1,2,3:2:0:0:
30,172,46287,2,0,B|22:115|30:53,1,120,2|0,0:0|3:0,0:0:0:0:
69,15,46916,1,8,0:0:0:0:
131,103,47336,6,0,B|193:111|250:103,1,120,2|8,3:2|0:0,0:0:0:0:
318,18,48175,2,0,B|380:10|437:18,1,120,2|8,3:2|0:0,0:0:0:0:
479,52,48804,1,2,3:2:0:0:
449,156,49224,1,2,3:2:0:0:
345,124,49643,2,0,B|280:107|224:158|236:226,1,180,2|8,0:0|0:0,0:0:0:0:
336,265,50692,6,0,B|344:327|336:384,1,120,2|8,3:2|0:0,0:0:0:0:
237,340,51531,2,0,B|180:332|118:340,1,120,2|8,3:2|0:0,0:0:0:0:
71,368,52161,1,2,3:2:0:0:
18,274,52580,1,2,3:2:0:0:
111,218,53000,2,0,B|119:161|111:99,1,120,2|0,0:2|3:0,0:0:0:0:
75,57,53629,1,10,0:0:0:0:
167,1,54049,6,0,B|229:-7|286:1,1,120,4|8,3:1|0:0,0:0:0:0:
377,68,54888,1,2,3:2:0:0:
377,68,55098,2,0,L|372:127,1,60,2|8,3:2|0:0,0:0:0:0:
412,163,55517,1,2,3:2:0:0:
325,227,55937,1,2,3:2:0:0:
263,139,56356,2,0,B|206:131|144:139,1,120,2|0,0:0|3:0,0:0:0:0:
100,105,56986,1,8,0:0:0:0:
10,165,57405,6,0,B|2:227|10:284,1,120,0|8,3:0|0:0,0:0:0:0:
96,358,58245,1,2,3:2:0:0:
96,358,58455,2,0,L|155:353,1,60,2|8,3:2|0:0,0:0:0:0:
194,314,58874,1,2,0:2:0:0:
282,375,59294,1,0,3:0:0:0:
343,287,59713,2,0,B|405:279|462:287,1,120,2|0,0:0|3:0,0:0:0:0:
504,252,60343,1,8,0:0:0:0:
417,188,60762,6,0,B|409:126|417:69,1,120,2|8,3:2|0:0,0:0:0:0:
327,8,61601,2,0,B|265:16|208:8,1,120,2|8,3:2|0:0,0:0:0:0:
161,37,62231,1,2,3:2:0:0:
58,2,62650,1,2,3:2:0:0:
23,105,63070,2,0,B|10:190|23:283,1,180,2|8,0:2|0:0,0:0:0:0:
128,261,64119,6,0,B|190:253|247:261,1,120,2|8,3:2|0:0,0:0:0:0:
314,345,64958,2,0,B|371:353|433:345,1,120,2|8,3:2|0:0,0:0:0:0:
472,307,65587,1,2,3:2:0:0:
417,213,66007,1,2,3:2:0:0:
510,158,66426,2,0,B|518:96|510:39,1,120,2|2,0:3|3:0,0:0:0:0:
468,3,67056,2,0,L|409:8,1,60,12|8,0:0|0:1,0:0:0:0:
371,47,67475,6,0,B|317:21|317:21|259:38,1,120,6|8,3:1|0:1,0:0:0:0:
174,104,68315,2,0,L|179:163,1,60,2|2,3:1|3:1,0:0:0:0:
145,206,68734,1,8,0:1:0:0:
184,242,68944,2,0,B|241:250|303:242,1,120,6|0,3:1|3:0,0:0:0:0:
338,200,69573,1,10,0:1:0:0:
433,250,69993,2,0,L|428:309,1,60,2|2,3:1|3:1,0:0:0:0:
391,349,70412,2,0,L|332:344,1,60,8|2,0:1|0:1,0:0:0:0:
285,373,70832,6,0,B|228:365|166:373,1,120,6|8,3:2|0:1,0:0:0:0:
82,303,71671,2,0,L|23:308,2,60,2|2|8,3:1|3:1|0:1,0:0:0:0:
126,272,72301,2,0,B|134:210|126:153,1,120,6|0,3:1|3:0,0:0:0:0:
88,113,72930,1,10,0:1:0:0:
126,74,73140,2,0,B|183:82|245:74,1,120,6|2,3:2|3:1,0:0:0:0:
278,30,73769,1,10,0:1:0:0:
370,85,74189,6,0,B|424:59|424:59|482:76,2,120,6|8|0,3:1|0:1|3:0,0:0:0:0:
291,158,75447,1,8,0:1:0:0:
291,158,75657,2,0,B|283:215|291:277,1,120,6|0,3:1|3:0,0:0:0:0:
248,311,76287,1,10,0:1:0:0:
334,374,76706,1,2,3:1:0:0:
388,369,76916,1,2,3:1:0:0:
441,364,77125,1,10,0:1:0:0:
506,278,77545,6,0,B|514:216|506:159,1,120,6|8,3:2|0:1,0:0:0:0:
432,79,78384,2,0,L|373:84,1,60,0|0,3:0|3:0,0:0:0:0:
328,51,78804,1,8,0:1:0:0:
288,87,79014,2,0,B|226:79|169:87,1,120,6|0,3:1|3:0,0:0:0:0:
133,128,79643,1,10,0:1:0:0:
159,175,79853,1,6,3:2:0:0:
114,275,80273,1,0,3:0:0:0:
114,275,80482,2,0,L|55:270,1,60,10|8,0:1|0:1,0:0:0:0:
5,292,80902,6,0,B|-3:230|5:173,1,120,4|8,3:1|0:0,0:0:0:0:
65,84,81741,1,2,3:2:0:0:
65,84,81951,2,0,L|124:89,1,60,2|8,3:2|0:0,0:0:0:0:
169,59,82370,1,2,3:2:0:0:
256,122,82790,1,2,3:2:0:0:
309,30,83210,2,0,B|371:22|428:30,1,120,2|0,0:0|3:0,0:0:0:0:
474,2,83839,1,8,0:0:0:0:
510,104,84259,6,0,B|518:161|510:223,1,120,0|8,3:0|0:0,0:0:0:0:
432,299,85098,1,2,3:2:0:0:
432,299,85308,2,0,L|373:294,1,60,2|8,3:2|0:0,0:0:0:0:
334,254,85727,1,2,3:2:0:0:
281,348,86147,1,2,3:2:0:0:
187,295,86566,2,0,B|179:238|187:176,1,120,2|0,0:0|3:0,0:0:0:0:
225,136,87196,1,8,0:0:0:0:
163,47,87615,6,0,B|101:39|44:47,1,120,2|8,3:2|0:0,0:0:0:0:
2,147,88454,2,0,B|10:209|2:266,1,120,2|8,3:2|0:0,0:0:0:0:
36,308,89084,1,2,3:2:0:0:
134,263,89503,1,2,3:2:0:0:
179,361,89923,2,0,B|244:378|300:327|288:259,1,180,2|8,0:0|0:0,0:0:0:0:
208,185,90972,6,0,B|200:128|208:66,1,120,2|8,3:2|0:0,0:0:0:0:
295,2,91811,2,0,B|357:10|414:2,1,120,2|8,3:2|0:0,0:0:0:0:
455,37,92440,1,2,3:2:0:0:
403,132,92860,1,2,3:2:0:0:
497,184,93280,2,0,B|505:246|497:303,1,120,2|0,0:2|3:0,0:0:0:0:
451,333,93909,1,10,0:0:0:0:
353,380,94329,6,0,B|345:323|353:261,1,120,4|8,3:1|0:0,0:0:0:0:
426,181,95168,1,2,3:2:0:0:
426,181,95378,2,0,L|421:122,1,60,2|8,3:2|0:0,0:0:0:0:
455,79,95797,1,2,3:2:0:0:
371,10,96217,1,2,3:2:0:0:
287,78,96636,2,0,B|230:86|168:78,1,120,2|0,0:2|3:0,0:0:0:0:
132,36,97266,1,8,0:0:0:0:
36,86,97685,6,0,B|28:148|36:205,1,120,0|8,3:0|0:0,0:0:0:0:
104,295,98524,1,2,3:2:0:0:
104,295,98734,2,0,L|163:290,1,60,2|8,3:2|0:0,0:0:0:0:
204,254,99154,1,2,3:2:0:0:
264,343,99573,1,2,3:2:0:0:
347,273,99993,2,0,B|404:265|466:273,1,120,2|0,0:2|3:0,0:0:0:0:
508,307,100622,1,8,0:0:0:0:
418,367,101042,6,0,B|361:375|299:367,1,120,2|8,3:2|0:0,0:0:0:0:
232,280,101881,2,0,B|240:223|232:161,1,120,2|8,3:2|0:0,0:0:0:0:
262,115,102510,1,2,3:2:0:0:
186,37,102930,1,2,3:2:0:0:
108,111,103349,2,0,B|43:94|-13:145|-1:213,1,180,2|8,0:2|0:0,0:0:0:0:
76,289,104398,6,0,B|133:281|195:289,1,120,2|8,3:2|0:0,0:0:0:0:
267,370,105238,2,0,B|329:378|386:370,1,120,2|8,3:2|0:0,0:0:0:0:
427,335,105867,1,2,3:2:0:0:
384,235,106287,1,2,3:2:0:0:
485,197,106706,2,0,B|493:140|485:78,1,120,2|2,0:3|3:0,0:0:0:0:
446,38,107336,1,12,0:0:0:0:
359,102,107755,6,0,B|305:76|305:76|249:93,1,120,4|8,3:1|0:1,0:0:0:0:
162,26,108594,2,0,L|103:31,1,60,2|0,3:1|3:0,0:0:0:0:
55,3,109014,1,8,0:1:0:0:
19,43,109224,2,0,B|11:105|19:162,1,120,6|0,3:1|3:0,0:0:0:0:
63,193,109853,1,8,0:1:0:0:
149,127,110273,2,0,L|208:132,1,60,0|0,3:0|3:0,0:0:0:0:
246,170,110692,2,0,L|305:165,1,60,10|0,0:1|0:0,0:0:0:0:
335,119,111112,6,0,B|392:111|454:119,1,120,6|8,3:2|0:1,0:0:0:0:
511,217,111951,1,2,3:1:0:0:
511,217,112161,2,0,L|506:276,1,60,2|8,3:1|0:1,0:0:0:0:
496,329,112580,2,0,B|439:337|377:329,1,120,6|0,3:1|3:0,0:0:0:0:
334,294,113210,1,8,0:1:0:0:
257,369,113629,1,0,3:0:0:0:
203,364,113839,1,0,3:0:0:0:
149,359,114048,1,8,0:1:0:0:
43,382,114468,6,0,B|22:325|22:325|44:271,1,120,4|8,3:1|0:1,0:0:0:0:
135,212,115308,2,0,L|130:153,1,60,2|0,3:1|3:0,0:0:0:0:
92,112,115727,1,8,0:1:0:0:
126,70,115937,2,0,B|188:78|245:70,1,120,6|0,3:1|3:0,0:0:0:0:
281,29,116566,1,8,0:1:0:0:
365,96,116986,2,0,L|424:91,1,60,0|0,3:0|3:0,0:0:0:0:
468,123,117405,2,0,L|463:182,1,60,10|0,0:1|0:0,0:0:0:0:
456,236,117825,6,0,B|399:228|337:236,1,120,6|10,3:2|0:1,0:0:0:0:
233,270,118664,1,2,3:1:0:0:
233,270,118874,2,0,L|238:329,1,60,2|8,3:1|0:1,0:0:0:0:
208,375,119294,2,2,B|146:383|89:375,1,120,6|0,3:1|3:0,0:1:0:0:
51,335,119923,1,8,0:1:0:0:
112,246,120343,1,8,0:1:0:0:
24,185,120762,2,0,L|29:126,1,60,8|8,0:1|0:1,0:0:0:0:
3,77,121182,6,0,B|57:51|57:51|113:68,1,120,4|8,3:1|0:1,0:0:0:0:
215,29,122021,2,0,L|274:34,1,60,2|0,3:1|3:0,0:0:0:0:
316,0,122440,1,8,0:1:0:0:
349,41,122650,2,0,B|357:103|349:160,1,120,6|0,3:1|3:0,0:0:0:0:
305,193,123280,1,8,0:1:0:0:
219,258,123699,2,0,L|224:317,1,60,0|0,3:0|3:0,0:0:0:0:
263,355,124119,2,0,L|322:350,1,60,10|0,0:1|0:0,0:0:0:0:
372,370,124538,6,0,B|380:313|372:251,1,120,2|12,3:1|0:0,0:0:0:0:
472,210,125377,2,0,B|464:153|472:91,1,120,2|8,3:1|0:1,0:0:0:0:
443,44,126007,1,6,3:1:0:0:
396,72,126217,2,0,B|342:46|342:46|286:63,1,120,2|8,0:1|0:1,0:0:0:0:
185,19,127056,1,2,3:1:0:0:
132,32,127266,1,0,0:0:0:0:
124,86,127476,1,8,0:1:0:0:
215,143,127895,6,0,B|223:205|215:262,1,120,6|10,3:1|0:1,0:0:0:0:
152,351,128734,1,2,3:1:0:0:
152,351,128944,2,0,L|93:346,1,60,2|8,3:1|0:1,0:0:0:0:
45,372,129363,2,0,B|37:315|45:253,1,120,6|0,3:1|3:0,0:0:0:0:
87,218,129993,1,8,0:1:0:0:
5,148,130412,2,0,L|10:89,1,60,0|0,3:0|3:0,0:0:0:0:
46,47,130832,2,0,L|105:52,1,60,10|0,0:1|0:0,0:0:0:0:
145,88,131252,6,0,B|202:96|264:88,1,120,6|10,3:2|0:1,0:0:0:0:
309,59,131881,2,0,L|304:0,1,60,2|0,0:1|3:0,0:0:0:0:
411,32,132510,1,10,0:1:0:0:
411,32,132720,2,0,B|419:94|411:151,1,120,4|0,3:1|3:0,0:0:0:0:
367,184,133349,1,10,0:1:0:0:
454,247,133769,1,10,0:1:0:0:
391,334,134189,2,0,L|332:329,1,60,10|8,0:1|0:1,0:0:0:0:
296,287,134608,1,4,3:1:0:0:
331,328,137755,2,0,L|390:333,1,60,8|2,0:1|3:0,0:0:0:0:
256,192,146776,5,2,0:3:0:0:
330,270,147196,1,2,0:3:0:0:
402,191,147615,2,0,L|461:196,1,60,8|8,0:2|3:0,0:0:0:0:
512,220,148035,6,0,B|535:156|535:156|510:96,1,132.00000402832,6|8,3:1|0:1,0:0:0:0:
476,52,148664,1,2,0:1:0:0:
376,0,149084,1,0,3:0:0:0:
322,5,149294,1,10,0:1:0:0:
268,10,149503,2,2,B|259:73|268:141,1,132.00000402832,6|0,3:1|0:0,0:1:0:0:
293,192,150133,1,8,0:1:0:0:
242,216,150343,2,0,B|174:208|111:216,1,132.00000402832,2|0,0:1|3:0,0:0:0:0:
72,174,150972,1,8,0:1:0:0:
0,260,151391,6,0,B|-24:319|-24:319|-1:383,1,132.00000402832,4|8,3:2|0:1,0:0:0:0:
54,376,152021,1,2,0:1:0:0:
165,382,152440,1,0,3:0:0:0:
197,336,152650,1,10,0:1:0:0:
165,289,152860,2,2,B|156:221|165:158,1,132.00000402832,6|0,3:1|3:0,0:1:0:0:
142,106,153489,1,8,0:1:0:0:
190,78,153699,2,0,B|253:87|321:78,1,132.00000402832,4|0,3:2|3:0,0:0:0:0:
362,38,154329,1,8,0:1:0:0:
459,93,154748,6,0,L|452:160,1,66.0000020141602,6|2,3:1|0:1,0:0:0:0:
404,187,155168,2,0,B|395:250|404:318,1,132.00000402832,10|2,0:1|3:1,0:0:0:0:
452,346,155797,1,2,3:1:0:0:
345,381,156217,2,2,B|284:351|284:351|221:370,1,132.00000402832,6|0,3:1|3:0,0:1:0:0:
177,336,156846,1,8,0:1:0:0:
254,255,157266,1,2,3:1:0:0:
249,202,157475,1,2,3:1:0:0:
244,148,157685,1,8,0:1:0:0:
165,67,158105,6,0,L|98:72,1,66.0000020141602,6|0,3:2|0:0,0:0:0:0:
52,40,158524,1,10,0:1:0:0:
11,79,158734,2,0,B|2:142|11:210,1,132.00000402832,2|0,0:1|3:0,0:0:0:0:
51,249,159363,1,8,0:1:0:0:
96,216,159573,2,0,B|164:207|227:216,1,132.00000402832,6|0,3:1|3:0,0:0:0:0:
262,260,160203,1,8,0:1:0:0:
230,305,160412,1,6,3:2:0:0:
323,377,160832,1,0,3:0:0:0:
323,377,161042,2,0,L|388:372,1,66.0000020141602,8|8,0:1|0:1,0:0:0:0:
443,383,161461,6,0,B|466:319|466:319|441:259,1,132.00000402832,6|10,3:1|0:1,0:0:0:0:
369,173,162301,2,0,L|374:108,1,66.0000020141602,2|2,3:1|3:1,0:0:0:0:
410,64,162720,1,8,0:1:0:0:
380,17,162930,2,2,B|317:8|249:17,1,132.00000402832,6|0,3:1|3:0,0:1:0:0:
206,54,163559,1,8,0:1:0:0:
106,1,163979,1,2,3:1:0:0:
53,14,164189,1,0,3:0:0:0:
45,68,164399,1,8,0:1:0:0:
134,135,164818,6,2,B|143:203|134:265,1,132.00000402832,2|8,3:1|0:1,0:1:0:0:
25,293,165657,2,0,L|30:358,1,66.0000020141602,2|2,3:1|3:1,0:0:0:0:
80,383,166077,1,8,0:1:0:0:
125,349,166287,2,0,B|193:340|255:349,1,132.00000402832,6|0,3:1|3:0,0:0:0:0:
292,306,166916,1,8,0:1:0:0:
256,262,167126,2,2,B|233:198|233:198|258:138,1,132.00000402832,6|0,3:2|3:0,0:1:0:0:
217,99,167755,1,8,0:1:0:0:
303,27,168175,6,0,B|371:36|434:27,1,132.00000402832,6|10,3:1|0:1,0:0:0:0:
511,108,169014,2,0,L|506:173,1,66.0000020141602,2|2,3:1|3:1,0:0:0:0:
464,212,169433,1,8,0:1:0:0:
487,263,169643,2,2,B|426:233|426:233|363:252,1,132.00000402832,6|0,3:1|3:0,0:1:0:0:
315,279,170273,1,8,0:1:0:0:
216,332,170692,1,0,3:0:0:0:
162,327,170902,1,0,3:0:0:0:
108,322,171111,1,10,0:1:0:0:
7,371,171531,6,0,B|-2:307|6:239,1,132.00000402832,6|8,3:2|0:1,0:0:0:0:
103,181,172370,1,0,3:0:0:0:
103,181,172580,2,0,L|98:116,1,66.0000020141602,2|8,3:1|0:1,0:0:0:0:
66,68,173000,2,0,B|127:38|127:38|188:56,1,132.00000402832,6|0,3:1|3:0,0:0:0:0:
234,23,173629,1,8,0:1:0:0:
270,65,173839,2,0,B|278:133|269:197,1,132.00000402832,6|0,3:2|3:0,0:0:0:0:
229,236,174468,1,8,0:1:0:0:
322,289,174888,6,0,B|377:305|377:305|433:278,1,120,4|8,3:1|0:1,0:0:0:0:
510,202,175727,2,0,L|505:143,1,60,2|0,3:1|3:0,0:0:0:0:
467,103,176147,1,8,0:1:0:0:
499,60,176356,2,0,B|437:52|380:60,1,120,6|0,3:1|3:0,0:0:0:0:
341,21,176986,1,8,0:1:0:0:
254,85,177405,2,0,L|259:144,1,60,0|0,3:0|3:0,0:0:0:0:
309,165,177825,2,0,L|304:224,1,60,10|0,0:1|0:0,0:0:0:0:
294,278,178245,6,0,B|237:286|175:278,1,120,6|8,3:2|0:1,0:0:0:0:
109,365,179084,1,2,3:1:0:0:
109,365,179294,2,0,L|50:360,1,60,2|8,3:1|0:1,0:0:0:0:
5,327,179713,2,0,B|-3:270|5:208,1,120,6|0,3:1|3:0,0:0:0:0:
44,170,180343,1,8,0:1:0:0:
0,82,180762,1,0,3:0:0:0:
8,28,180972,1,0,3:0:0:0:
61,15,181182,1,8,0:1:0:0:
158,60,181601,6,0,B|212:34|212:34|268:51,1,120,4|8,3:1|0:1,0:0:0:0:
364,102,182440,2,0,L|423:97,1,60,2|0,3:1|3:0,0:0:0:0:
462,58,182860,1,8,0:1:0:0:
505,90,183070,2,0,B|513:152|505:209,1,120,6|0,3:1|3:0,0:0:0:0:
456,234,183699,1,8,0:0:0:0:
358,279,184119,2,0,L|363:338,1,60,0|0,3:0|3:0,0:0:0:0:
319,370,184538,2,0,L|260:365,1,60,10|0,0:1|0:0,0:0:0:0:
207,381,184958,6,0,B|199:324|207:262,1,120,6|10,3:2|0:1,0:0:0:0:
289,191,185797,1,2,3:1:0:0:
289,191,186007,2,0,L|284:132,1,60,2|8,3:1|0:1,0:0:0:0:
302,80,186426,2,2,B|240:72|183:80,1,120,4|0,3:1|3:0,0:1:0:0:
135,108,187056,1,8,0:1:0:0:
49,42,187475,1,8,0:1:0:0:
7,141,187895,2,0,L|12:200,1,60,8|8,0:1|0:1,0:0:0:0:
50,238,188315,6,0,B|104:212|104:212|160:229,1,120,4|8,3:1|0:1,0:0:0:0:
253,286,189154,2,0,L|248:345,1,60,2|0,3:1|3:0,0:0:0:0:
288,382,189573,1,8,0:1:0:0:
333,352,189783,2,0,B|390:344|452:352,1,120,6|0,3:1|3:0,0:0:0:0:
493,317,190412,1,8,0:1:0:0:
426,231,190832,2,0,L|431:172,1,60,0|0,3:0|3:0,0:0:0:0:
472,136,191252,2,0,L|467:77,1,60,10|0,0:1|0:0,0:0:0:0:
460,22,191671,6,0,B|398:14|341:22,1,120,2|12,3:1|0:2,0:0:0:0:
252,84,192510,2,0,B|244:146|252:203,1,120,2|8,3:1|0:1,0:0:0:0:
288,243,193140,1,6,3:1:0:0:
254,285,193349,2,0,B|197:277|135:285,1,120,2|8,0:1|0:1,0:0:0:0:
39,233,194189,1,2,3:1:0:0:
44,180,194398,1,0,3:0:0:0:
49,126,194608,1,8,0:1:0:0:
10,25,195028,6,2,B|72:17|129:25,1,120,6|10,3:1|0:1,0:0:0:0:
229,78,195867,1,0,3:0:0:0:
229,78,196077,2,0,L|288:73,1,60,2|8,3:1|0:1,0:0:0:0:
339,54,196496,2,0,B|347:116|339:173,1,120,6|0,3:1|3:0,0:0:0:0:
307,217,197126,1,8,0:1:0:0:
408,256,197545,2,0,L|467:251,1,60,0|0,3:0|3:0,0:0:0:0:
512,282,197965,2,0,L|507:341,1,60,10|0,0:1|0:0,0:0:0:0:
468,380,198384,6,0,B|406:372|349:380,1,120,6|10,3:2|0:1,0:0:0:0:
308,343,199014,2,0,L|313:284,1,60,2|0,0:1|3:0,0:0:0:0:
237,212,199643,5,10,0:1:0:0:
237,212,199853,2,0,B|175:204|118:212,1,120,4|0,3:1|3:0,0:0:0:0:
77,175,200482,1,10,0:1:0:0:
8,258,200902,1,10,0:1:0:0:
70,346,201322,2,0,L|129:341,1,60,10|8,0:1|0:1,0:0:0:0:
173,373,201741,6,0,B|227:347|227:347|283:364,1,120,6|8,3:1|0:1,0:0:0:0:
366,293,202580,2,0,L|360:229,1,60,2|2,3:1|3:1,0:0:0:0:
321,194,203000,1,8,0:1:0:0:
351,149,203210,2,0,B|408:141|470:149,1,120,6|0,3:1|3:0,0:0:0:0:
508,110,203839,1,10,0:1:0:0:
454,15,204259,2,0,L|394:20,1,60,2|2,3:1|3:1,0:0:0:0:
350,51,204678,2,0,L|290:45,1,60,10|0,0:1|0:0,0:0:0:0:
236,39,205098,6,0,B|228:96|236:158,1,120,6|8,3:2|0:1,0:0:0:0:
177,249,205937,2,0,L|117:243,1,60,2|2,3:1|3:1,0:0:0:0:
70,270,206356,1,8,0:1:0:0:
30,233,206566,2,0,B|22:171|30:114,1,120,6|0,3:1|3:0,0:0:0:0:
1,67,207196,1,10,0:1:0:0:
38,28,207405,2,0,B|95:36|157:28,1,120,6|0,3:2|3:0,0:0:0:0:
205,1,208035,1,10,0:1:0:0:
285,72,208454,6,0,B|307:126|307:126|286:183,1,120,6|8,3:1|0:1,0:0:0:0:
198,247,209294,2,0,L|203:306,1,60,0|0,3:0|3:0,0:0:0:0:
171,350,209713,1,8,0:1:0:0:
214,382,209923,2,0,B|271:374|333:382,1,120,6|0,3:1|3:0,0:0:0:0:
378,351,210552,1,10,0:1:0:0:
471,296,210972,1,2,3:1:0:0:
466,243,211181,1,2,3:1:0:0:
461,189,211391,1,8,0:1:0:0:
483,83,211811,6,0,B|426:75|364:83,1,120,6|8,3:2|0:1,0:0:0:0:
300,171,212650,2,0,L|241:166,1,60,0|0,3:0|3:0,0:0:0:0:
198,130,213070,1,8,0:1:0:0:
151,156,213280,2,0,B|143:99|151:37,1,120,6|0,3:1|3:0,0:0:0:0:
108,2,213909,1,8,0:1:0:0:
60,26,214119,1,6,3:2:0:0:
13,124,214538,1,2,3:1:0:0:
13,124,214748,2,0,L|18:183,1,60,8|8,0:1|0:1,0:0:0:0:
5,236,215168,6,0,B|62:253|62:253|116:227,1,120,6|8,3:1|0:1,0:0:0:0:
210,172,216007,2,0,L|205:113,1,60,2|2,3:1|3:1,0:0:0:0:
165,75,216426,1,8,0:1:0:0:
195,30,216636,2,0,B|257:22|314:30,1,120,6|0,3:1|3:0,0:0:0:0:
361,2,217266,1,10,0:1:0:0:
450,62,217685,2,0,L|445:122,1,60,2|2,3:1|3:1,0:0:0:0:
398,149,218105,2,0,L|403:209,1,60,10|0,0:1|0:0,0:0:0:0:
409,262,218524,6,0,B|352:270|290:262,1,120,6|8,3:2|0:1,0:0:0:0:
218,180,219363,2,0,L|158:185,1,60,2|2,3:1|3:1,0:0:0:0:
114,152,219783,1,8,0:1:0:0:
73,188,219993,2,0,B|65:250|73:307,1,120,6|0,3:1|3:0,0:0:0:0:
37,347,220622,1,10,0:1:0:0:
77,383,220832,2,0,B|134:375|196:383,1,120,6|2,3:2|3:1,0:0:0:0:
238,348,221461,1,8,0:1:0:0:
341,380,221881,6,0,B|362:323|362:323|340:269,1,120,6|8,3:1|0:1,0:0:0:0:
250,207,222720,2,0,L|255:147,1,60,0|0,3:0|3:0,0:0:0:0:
223,103,223140,1,8,0:1:0:0:
261,65,223349,2,0,B|323:73|380:65,1,120,6|0,3:1|3:0,0:0:0:0:
423,32,223979,1,10,0:1:0:0:
510,95,224398,1,2,3:1:0:0:
505,149,224608,1,0,3:0:0:0:
500,202,224817,1,10,0:1:0:0:
428,283,225238,6,0,B|366:275|309:283,1,120,6|8,3:2|0:1,0:0:0:0:
229,208,226077,2,0,L|169:212,1,60,0|0,3:0|3:0,0:0:0:0:
128,248,226496,1,8,0:1:0:0:
81,220,226706,2,0,B|73:163|81:101,1,120,6|0,3:1|3:0,0:0:0:0:
47,57,227336,1,8,0:1:0:0:
84,18,227545,2,0,B|141:26|203:18,1,120,6|0,3:2|3:0,0:0:0:0:
251,44,228175,2,0,L|246:104,2,60,8|8|0,0:1|0:1|0:0,0:0:0:0:
