osu file format v14

[General]
AudioFilename: audio.mp3
AudioLeadIn: 0
PreviewTime: 13361
Countdown: 0
SampleSet: Soft
StackLeniency: 0.7
Mode: 0
LetterboxInBreaks: 0
WidescreenStoryboard: 1

[Editor]
Bookmarks: 13769,40622,67475,80902,107755,134608,148035,174888,201741,228594
DistanceSpacing: 1
BeatDivisor: 4
GridSize: 32
TimelineZoom: 1

[Metadata]
Title:flash back,0217
TitleUnicode:flash back,0217
Artist:moff-P
ArtistUnicode:もっふーP
Creator:fllecc
Version:insane
Source:
Tags:kuuti mikgazer vol.1 ハイカラレコード high collar record vocaloid japanese alternative rock noise shoegaze 初音ミク hatsune miku the voc@loid m@ster master 20 flashback,
BeatmapID:4361820
BeatmapSetID:2082778

[Difficulty]
HPDrainRate:6
CircleSize:4
OverallDifficulty:8
ApproachRate:8
SliderMultiplier:1.4
SliderTickRate:0.5

[Events]
//Background and Video events
0,0,"miku.jpg",0,0
//Break Periods
2,138165,146026
//Storyboard Layer 0 (Background)
//Storyboard Layer 1 (Fail)
//Storyboard Layer 2 (Pass)
//Storyboard Layer 3 (Foreground)
//Storyboard Layer 4 (Overlay)
//Storyboard Sound Samples

[TimingPoints]
343,419.58041958042,4,2,1,45,1,0
343,-125,4,2,1,45,0,0
13349,-200,4,2,1,75,0,0
13769,-83.3333333333333,4,2,1,75,0,0
40622,-100,4,2,1,55,0,0
67475,-83.3333333333333,4,2,1,75,0,0
80902,-100,4,2,1,60,0,0
107755,-83.3333333333333,4,2,1,75,0,0
148035,-76.9230769230769,4,2,1,80,0,0
149503,-66.6666666666667,4,2,1,80,0,0
150343,-76.9230769230769,4,2,1,80,0,0
152860,-66.6666666666667,4,2,1,80,0,0
154748,-76.9230769230769,4,2,1,80,0,0
155168,-66.6666666666667,4,2,1,80,0,0
155587,-76.9230769230769,4,2,1,80,0,0
155797,-66.6666666666667,4,2,1,80,0,0
158105,-76.9230769230769,4,2,1,80,0,0
161881,-66.6666666666667,4,2,1,80,0,0
165657,-76.9230769230769,4,2,1,80,0,0
167126,-62.5,4,2,1,80,0,0
168175,-66.6666666666667,4,2,1,80,0,0
171531,-76.9230769230769,4,2,1,80,0,0
173000,-62.5,4,2,1,80,0,0
174888,-83.3333333333333,4,2,1,75,0,0
228594,-83.3333333333333,4,2,1,45,0,0

[Colours]
Combo1 : 236,208,235
Combo2 : 216,219,243
Combo3 : 198,231,234

[HitObjects]
21,295,343,6,0,L|10:182,1,112,2|0,0:0|0:0,0:0:0:0:
98,335,1182,2,0,L|103:278,2,56,2|0|0,0:0|0:0|0:0,0:0:0:0:
169,375,1811,2,0,L|281:364,1,112,2|0,0:0|0:0,0:0:0:0:
386,264,2440,2,0,L|498:274,1,112,2|0,0:0|0:0,0:0:0:0:
398,366,3070,1,0,0:0:0:0:
398,366,3280,1,0,0:0:0:0:
398,366,3489,1,0,0:0:0:0:
284,262,3699,6,0,B|272:203|283:150,1,112,2|0,0:0|0:0,0:0:0:0:
446,127,4538,2,0,B|457:75|445:16,1,112,2|0,0:0|0:0,0:0:0:0:
354,71,5168,2,0,L|241:60,1,112,2|0,0:0|0:0,0:0:0:0:
161,36,5797,2,0,L|166:92,1,56,2|0,0:0|0:0,0:0:0:0:
28,162,6217,1,0,0:0:0:0:
28,162,6426,1,0,0:0:0:0:
28,162,6636,1,0,0:0:0:0:
79,223,7056,6,0,B|131:234|190:222,1,112,2|0,0:0|0:0,0:0:0:0:
344,73,7895,2,0,L|338:129,2,56,2|0|0,0:0|0:0|0:0,0:0:0:0:
499,189,8524,2,0,B|446:177|387:189,1,112,2|0,0:0|0:0,0:0:0:0:
427,315,9154,2,0,L|432:258,1,56,2|0,0:0|0:0,0:0:0:0:
312,374,9573,1,0,0:0:0:0:
312,374,9783,1,0,0:0:0:0:
312,374,9993,1,0,0:0:0:0:
261,191,10412,6,0,L|250:303,2,112,2|0|0,0:0|0:0|0:0,0:0:0:0:
339,154,11461,2,0,L|344:210,1,56
186,354,11881,2,0,B|127:366|74:354,1,112,2|0,0:0|0:0,0:0:0:0:
21,300,12510,1,0,0:0:0:0:
27,224,12720,1,0,0:0:0:0:
88,179,12930,1,0,0:0:0:0:
162,194,13140,1,0,0:0:0:0:
322,88,13349,2,0,L|317:35,1,52.5,8|0,0:0|0:0,0:0:0:0:
317,35,13769,6,0,B|227:6|233:74|148:65,1,167.999994873047,6|8,3:1|0:1,0:0:0:0:
157,65,14608,1,2,3:1:0:0:
69,14,14818,1,2,3:1:0:0:
0,88,15028,1,8,0:1:0:0:
114,301,15238,6,0,B|120:215|114:133,1,167.999994873047,6|0,3:1|3:0,0:0:0:0:
36,179,15867,1,10,0:1:0:0:
200,288,16077,1,0,3:0:0:0:
229,197,16287,5,2,3:1:0:0:
137,217,16496,1,2,3:1:0:0:
262,358,16706,1,8,0:1:0:0:
401,218,16916,5,0,0:0:0:0:
401,218,17021,1,0,0:0:0:0:
401,218,17126,2,0,B|506:215|510:324,1,167.999994873047,6|8,3:2|0:1,0:0:0:0:
445,363,17755,1,0,0:0:0:0:
327,267,17965,2,0,B|307:229|319:170,1,83.9999974365235,2|2,3:1|3:1,0:0:0:0:
461,17,18384,1,8,0:1:0:0:
509,95,18594,6,0,B|439:108|381:72,1,125.999996154785,6|0,3:1|0:0,0:0:0:0:
360,42,19014,1,0,3:0:0:0:
248,169,19224,1,10,0:1:0:0:
106,123,19433,2,0,B|144:103|203:115,1,83.9999974365235,6|0,3:2|0:0,0:0:0:0:
237,251,19853,1,0,3:0:0:0:
115,363,20063,1,10,0:1:0:0:
3,265,20273,5,8,0:0:0:0:
3,265,20377,1,8,0:0:0:0:
3,265,20482,2,0,B|95:250|77:297|167:288,2,167.999994873047,6|8|0,3:1|0:1|3:0,0:0:0:0:
136,205,21531,1,0,3:0:0:0:
279,360,21741,1,8,0:1:0:0:
345,301,21951,6,0,B|426:267|525:303,1,167.999994873047,6|0,3:1|3:0,0:0:0:0:
509,297,22580,1,10,0:1:0:0:
430,383,22790,1,0,0:0:0:0:
430,383,22895,1,0,0:0:0:0:
430,383,23000,1,2,3:1:0:0:
497,215,23210,1,2,3:1:0:0:
329,148,23419,1,10,0:1:0:0:
369,229,23629,1,0,0:0:0:0:
474,111,23839,6,0,B|470:9|365:11,2,167.999994873047,6|8|0,3:2|0:1|3:0,0:0:0:0:
411,157,24888,1,0,3:0:0:0:
338,106,25098,1,8,0:1:0:0:
224,28,25308,5,6,3:1:0:0:
101,108,25517,1,0,0:0:0:0:
8,8,25727,1,0,3:0:0:0:
8,8,25832,1,0,3:0:0:0:
8,8,25937,1,8,0:1:0:0:
122,132,26147,6,0,L|109:257,1,125.999996154785,6|0,3:2|0:0,0:0:0:0:
137,288,26566,1,2,3:1:0:0:
0,384,26776,1,8,0:1:0:0:
220,228,26986,5,8,0:1:0:0:
220,228,27091,1,8,0:1:0:0:
220,228,27196,2,0,B|310:199|304:267|389:258,1,167.999994873047,6|8,3:1|0:1,0:0:0:0:
512,199,27825,1,2,0:1:0:0:
426,185,28035,1,2,3:1:0:0:
462,268,28245,1,2,3:1:0:0:
329,378,28454,1,8,0:1:0:0:
220,228,28664,6,0,B|115:213|99:321,1,167.999994873047,6|0,3:1|3:0,0:0:0:0:
149,381,29294,1,10,0:1:0:0:
191,310,29503,1,0,3:0:0:0:
1,185,29713,5,2,3:1:0:0:
24,266,29923,1,2,3:1:0:0:
148,146,30133,2,0,L|141:63,1,83.9999974365235,8|2,0:1|0:1,0:0:0:0:
169,33,30447,5,0,0:0:0:0:
169,33,30552,2,0,B|101:-12|101:-12|21:20,1,167.999994873047,6|8,3:2|0:1,0:0:0:0:
374,123,31391,1,2,3:1:0:0:
437,81,31601,1,2,3:1:0:0:
504,114,31811,1,8,0:1:0:0:
291,222,32021,6,0,B|262:132|287:34,1,167.999994873047,6|0,3:1|3:0,0:0:0:0:
402,240,32650,1,10,0:1:0:0:
508,188,32860,2,0,B|528:263|499:353,1,167.999994873047,6|0,3:2|3:0,0:0:0:0:
402,240,33489,1,10,0:1:0:0:
248,355,33699,5,8,0:1:0:0:
248,355,33804,1,8,0:1:0:0:
248,355,33909,2,0,L|80:337,2,167.999994873047,6|8|0,3:1|0:1|3:0,0:0:0:0:
345,222,34958,1,0,3:0:0:0:
220,277,35168,1,8,0:1:0:0:
454,217,35377,6,0,B|450:114|345:117,1,167.999994873047,6|0,3:1|3:0,0:0:0:0:
509,0,36007,2,0,L|502:83,1,83.9999974365235,10|0,0:1|0:0,0:0:0:0:
347,117,36426,1,2,3:1:0:0:
412,49,36636,1,2,3:1:0:0:
434,150,36846,1,8,0:1:0:0:
262,21,37056,5,0,0:0:0:0:
262,21,37161,1,0,0:0:0:0:
262,21,37266,2,0,B|170:6|188:53|98:44,2,167.999994873047,6|8|0,3:2|0:1|3:0,0:0:0:0:
313,82,38315,1,0,3:0:0:0:
200,205,38524,1,8,0:1:0:0:
274,383,38734,6,0,B|306:306|306:306|274:228,1,167.999994873047,6|0,3:1|3:0,0:0:0:0:
101,269,39363,1,10,0:1:0:0:
28,91,39573,2,0,B|-4:168|-4:168|28:246,1,167.999994873047,6|0,3:2|3:0,0:0:0:0:
175,117,40203,1,10,0:1:0:0:
350,197,40412,5,8,0:1:0:0:
350,197,40517,1,8,0:1:0:0:
350,197,40622,2,0,L|489:182,1,140,4|8,3:1|0:0,0:0:0:0:
489,181,41461,1,2,3:2:0:0:
450,39,41671,2,0,L|442:108,1,70,2|8,3:2|0:0,0:0:0:0:
350,197,42091,6,0,B|305:204|260:173|257:113,1,140,2|0,3:2|3:0,0:0:0:0:
272,37,42720,1,8,0:0:0:0:
332,84,42930,1,2,0:0:0:0:
196,62,43140,2,0,L|126:54,1,70,0|0,3:0|3:0,0:0:0:0:
14,15,43559,2,0,B|10:50|13:84,1,70,8|0,0:0|0:0,0:0:0:0:
86,265,43979,6,0,B|104:191|81:109,1,140,0|8,3:0|0:0,0:0:0:0:
6,278,44818,1,2,3:2:0:0:
67,357,45028,2,0,L|136:349,1,70,2|8,3:2|0:0,0:0:0:0:
267,374,45447,2,0,L|225:317,1,70,2|0,3:2|0:0,0:0:0:0:
182,193,45867,2,0,L|153:257,1,70,2|8,3:2|0:0,0:0:0:0:
153,256,46287,1,2,0:0:0:0:
292,224,46496,5,0,3:0:0:0:
362,256,46706,1,0,3:0:0:0:
424,211,46916,1,8,0:0:0:0:
494,243,47126,1,0,0:0:0:0:
479,383,47336,6,0,L|494:244,1,140,2|8,3:2|0:0,0:0:0:0:
463,134,47965,1,0,0:0:0:0:
355,180,48175,2,0,L|347:110,2,70,2|0|8,3:2|3:0|0:0,0:0:0:0:
485,20,48804,2,0,L|415:27,1,70,2|0,3:2|0:0,0:0:0:0:
253,86,49224,1,2,3:2:0:0:
321,17,49433,1,8,0:0:0:0:
347,110,49643,1,2,0:0:0:0:
185,155,49853,5,0,3:0:0:0:
111,137,50063,1,0,3:0:0:0:
67,76,50273,1,8,0:0:0:0:
73,1,50482,1,0,0:0:0:0:
163,81,50692,6,0,B|180:150|159:232,1,140,2|8,3:2|0:0,0:0:0:0:
85,176,51322,1,0,0:0:0:0:
22,373,51531,2,0,B|3:303|20:234,1,140,2|8,3:2|0:0,0:0:0:0:
190,301,52161,6,0,B|152:308|121:292,1,70,2|0,3:2|0:0,0:0:0:0:
0,150,52580,2,0,B|39:142|68:157,1,70,2|8,3:2|0:0,0:0:0:0:
198,313,53000,2,0,B|271:335|335:297,1,140,2|0,0:2|3:0,0:0:0:0:
397,211,53629,1,10,0:0:0:0:
276,184,53839,1,0,0:0:0:0:
512,384,54049,6,0,L|497:245,1,140,4|8,3:1|0:0,0:0:0:0:
496,244,54888,1,2,3:2:0:0:
408,322,55098,2,0,L|338:315,1,70,2|8,3:2|0:0,0:0:0:0:
277,213,55517,2,0,L|347:206,1,70,2|0,3:2|0:0,0:0:0:0:
237,382,55937,2,0,L|230:312,1,70,2|8,3:2|0:0,0:0:0:0:
141,250,56356,5,2,0:0:0:0:
18,292,56566,1,0,3:0:0:0:
94,315,56776,1,0,3:0:0:0:
64,226,56986,1,8,0:0:0:0:
18,292,57196,1,0,0:0:0:0:
141,250,57405,6,0,B|158:176|135:86,1,140,0|8,3:0|0:0,0:0:0:0:
140,111,58245,1,2,3:2:0:0:
37,63,58454,2,0,L|30:133,1,70,2|8,3:2|0:0,0:0:0:0:
191,47,58874,2,0,B|241:37|285:76|281:128,1,140,2|0,0:2|3:0,0:0:0:0:
281,127,59503,1,8,0:0:0:0:
389,206,59713,5,2,0:0:0:0:
465,229,59923,1,0,3:0:0:0:
435,140,60133,1,0,3:0:0:0:
389,206,60343,1,8,0:0:0:0:
512,164,60552,1,0,0:0:0:0:
363,192,60762,6,0,B|313:182|269:221|273:273,1,140,2|8,3:2|0:0,0:0:0:0:
321,328,61391,1,0,0:0:0:0:
197,376,61601,2,0,B|177:309|199:227,1,140,2|8,3:2|0:0,0:0:0:0:
274,120,62231,2,0,L|281:190,1,70,2|0,3:2|0:0,0:0:0:0:
193,73,62650,2,0,L|250:31,1,70,2|8,3:2|0:0,0:0:0:0:
192,166,63070,2,0,L|127:137,1,70,2|0,0:2|3:0,0:0:0:0:
0,79,63489,1,0,3:0:0:0:
93,44,63699,1,8,0:0:0:0:
55,175,63909,5,0,0:0:0:0:
55,175,64014,1,0,0:0:0:0:
55,175,64119,2,0,L|70:314,1,140,2|8,3:2|0:0,0:0:0:0:
70,314,64958,1,2,3:2:0:0:
5,358,65168,1,0,3:0:0:0:
21,251,65377,1,10,0:0:0:0:
158,373,65587,6,0,B|194:384|254:352|242:290,1,140,2|0,3:2|3:0,0:0:0:0:
212,199,66217,1,8,0:0:0:0:
148,270,66426,1,2,0:3:0:0:
363,134,66636,5,2,3:0:0:0:
217,37,66846,1,2,3:0:0:0:
212,199,67056,1,12,0:0:0:0:
384,30,67266,5,8,0:1:0:0:
424,9,67370,1,8,0:1:0:0:
464,30,67475,2,0,B|496:108|496:108|464:185,1,167.999994873047,6|8,3:1|0:1,0:0:0:0:
363,134,68105,1,0,0:0:0:0:
230,228,68315,2,0,L|313:236,1,83.9999974365235,2|2,3:1|3:1,0:0:0:0:
215,211,68734,1,8,0:1:0:0:
512,384,68944,6,0,B|502:281|398:289,1,167.999994873047,6|0,3:1|3:0,0:0:0:0:
313,236,69573,1,10,0:1:0:0:
309,339,69783,1,0,3:0:0:0:
403,186,69993,5,2,3:1:0:0:
275,137,70203,1,2,3:1:0:0:
232,145,70308,1,0,0:0:0:0:
190,154,70412,1,8,0:1:0:0:
9,67,70622,1,2,0:1:0:0:
44,0,70832,6,0,L|62:167,1,167.999994873047,6|8,3:2|0:1,0:0:0:0:
326,379,71671,1,2,3:1:0:0:
360,311,71881,1,2,3:1:0:0:
326,243,72091,1,8,0:1:0:0:
186,310,72301,6,0,B|106:324|21:289,1,167.999994873047,6|0,3:1|3:0,0:0:0:0:
12,367,72930,1,10,0:1:0:0:
176,234,73140,2,0,L|168:151,1,83.9999974365235,6|0,3:2|0:0,0:0:0:0:
112,18,73559,1,2,3:1:0:0:
3,114,73769,1,10,0:1:0:0:
226,88,73979,5,8,0:1:0:0:
226,88,74084,1,8,0:1:0:0:
226,88,74189,2,0,B|316:59|310:127|395:118,2,167.999994873047,6|8|0,3:1|0:1|3:0,0:0:0:0:
158,49,75238,1,0,3:0:0:0:
400,198,75447,5,8,0:1:0:0:
400,198,75552,1,0,0:0:0:0:
400,198,75657,2,0,B|502:179|484:77,1,167.999994873047,6|0,3:1|3:0,0:0:0:0:
408,23,76287,1,10,0:1:0:0:
342,87,76496,1,0,0:0:0:0:
419,287,76706,1,2,3:1:0:0:
485,223,76916,1,2,3:1:0:0:
329,255,77126,2,0,L|246:247,1,83.9999974365235,10|0,0:1|0:0,0:0:0:0:
49,373,77545,6,0,B|70:272|173:293,2,167.999994873047,6|8|0,3:2|0:1|3:0,0:0:0:0:
203,369,78594,1,0,3:0:0:0:
7,269,78804,1,8,0:1:0:0:
191,196,79014,6,0,B|223:115|185:11,1,167.999994873047,6|0,3:1|3:0,0:0:0:0:
120,0,79643,1,10,0:1:0:0:
9,105,79853,2,0,B|-22:191|9:272,1,167.999994873047,6|0,3:2|3:0,0:0:0:0:
65,52,80482,1,10,0:1:0:0:
127,282,80692,5,8,0:1:0:0:
127,282,80797,1,8,0:1:0:0:
127,282,80902,2,0,L|196:274,1,70,4|0,3:1|0:0,0:0:0:0:
250,220,81322,2,0,L|234:360,1,140,8|0,0:0|3:0,0:0:0:0:
310,353,81951,2,0,L|379:361,1,70,2|8,3:2|0:0,0:0:0:0:
512,377,82370,6,0,B|517:329|479:285|419:293,1,140,2|0,3:2|3:0,0:0:0:0:
355,237,83000,1,8,0:0:0:0:
438,202,83210,1,2,0:0:0:0:
375,79,83419,2,0,L|367:148,1,70,0|0,3:0|3:0,0:0:0:0:
512,73,83839,1,8,0:0:0:0:
442,21,84049,1,0,0:0:0:0:
366,148,84259,6,0,B|295:166|202:142,1,140,0|8,3:0|0:0,0:0:0:0:
11,16,85098,1,2,3:2:0:0:
11,16,85308,2,0,B|82:-2|149:16,1,140,2|0,3:2|3:0,0:0:0:0:
150,148,85937,1,0,0:0:0:0:
189,82,86147,1,2,3:2:0:0:
34,154,86356,2,0,L|42:223,1,70,8|2,0:0|0:0,0:0:0:0:
163,370,86776,5,0,3:0:0:0:
179,292,86986,1,0,3:0:0:0:
103,273,87196,1,8,0:0:0:0:
85,351,87405,1,0,0:0:0:0:
200,274,87615,6,0,B|250:269|293:310|290:363,1,140,2|8,3:2|0:0,0:0:0:0:
506,296,88454,1,2,3:2:0:0:
413,258,88664,1,0,3:0:0:0:
432,344,88874,1,8,0:0:0:0:
487,208,89084,6,0,L|471:68,1,140,2|0,3:2|3:0,0:0:0:0:
318,6,89713,1,8,0:0:0:0:
471,68,89923,1,2,0:0:0:0:
420,17,90133,5,0,3:0:0:0:
362,68,90343,1,0,3:0:0:0:
274,141,90552,5,8,0:0:0:0:
133,80,90762,1,0,0:0:0:0:
101,14,90972,6,0,L|85:154,1,140,2|8,3:2|0:0,0:0:0:0:
18,195,91601,1,0,0:0:0:0:
174,315,91811,2,0,B|179:260|139:223|90:229,1,140,2|8,3:2|0:0,0:0:0:0:
257,384,92440,6,0,B|248:350|251:314,1,70,2|0,3:2|0:0,0:0:0:0:
80,241,92860,2,0,B|83:276|74:310,1,70,2|8,3:2|0:0,0:0:0:0:
223,215,93280,2,0,B|300:202|285:241|360:234,1,140,2|0,0:2|3:0,0:0:0:0:
512,304,93909,2,0,B|501:335|506:373,1,70,10|0,0:0|0:0,0:0:0:0:
390,207,94329,6,0,B|366:146|376:67,1,140,4|8,3:1|0:0,0:0:0:0:
375,69,95168,1,2,3:2:0:0:
507,20,95377,2,0,L|438:12,1,70,2|8,3:2|0:0,0:0:0:0:
296,89,95797,6,0,L|191:76,1,105,2|0,3:2|0:0,0:0:0:0:
165,100,96217,2,0,L|173:169,1,70,2|8,3:2|0:0,0:0:0:0:
12,74,96636,2,0,L|20:5,1,70,2|0,0:2|3:0,0:0:0:0:
92,59,97056,1,0,3:0:0:0:
8,164,97266,1,8,0:0:0:0:
65,249,97475,1,0,0:0:0:0:
11,320,97685,6,0,L|151:336,1,140,0|8,3:0|0:0,0:0:0:0:
150,335,98524,1,2,3:2:0:0:
254,384,98734,2,0,L|238:244,1,140,2|0,3:2|3:0,0:0:0:0:
175,176,99363,1,0,0:0:0:0:
175,176,99573,2,0,L|146:240,1,70,2|8,3:2|0:0,0:0:0:0:
327,222,99993,2,0,L|286:166,1,70,2|0,0:2|3:0,0:0:0:0:
227,102,100412,5,0,3:0:0:0:
219,25,100622,1,8,0:0:0:0:
227,102,100832,1,0,0:0:0:0:
375,2,101042,6,0,B|426:-9|471:24|466:78,1,140,2|8,3:2|0:0,0:0:0:0:
466,77,101881,1,2,3:2:0:0:
398,160,102091,1,0,3:0:0:0:
388,81,102301,1,8,0:0:0:0:
512,228,102510,6,0,L|442:236,1,70,2|0,3:2|0:0,0:0:0:0:
329,212,102930,2,0,L|371:269,1,70,2|8,3:2|0:0,0:0:0:0:
406,378,103349,2,0,L|435:313,1,70,2|0,0:2|3:0,0:0:0:0:
329,212,103769,1,0,3:0:0:0:
434,314,103979,1,8,0:0:0:0:
442,236,104189,1,0,0:0:0:0:
283,345,104398,6,0,B|214:327|144:344,1,140,2|8,3:2|0:0,0:0:0:0:
144,343,105238,1,2,3:2:0:0:
74,375,105447,1,0,3:0:0:0:
4,343,105657,1,8,0:0:0:0:
69,216,105867,6,0,B|77:250|77:285,1,70,2|0,3:2|0:0,0:0:0:0:
121,120,106287,2,0,B|144:145|163:175,1,70,2|8,3:2|0:0,0:0:0:0:
118,10,106706,2,0,B|151:20|182:37,1,70,2|2,0:3|3:0,0:0:0:0:
7,67,107126,5,2,3:0:0:0:
163,175,107336,1,12,0:0:0:0:
274,25,107545,1,2,0:3:0:0:
59,190,107755,6,0,B|27:268|27:268|59:345,2,167.999994873047,4|8|2,3:1|0:1|3:1,0:0:0:0:
211,219,108804,1,0,3:0:0:0:
126,269,109014,1,8,0:1:0:0:
282,53,109224,6,0,B|372:24|366:92|451:83,1,167.999994873047,6|0,3:1|3:0,0:0:0:0:
511,122,109853,2,0,B|527:84|527:84|510:44,1,83.9999974365235,8|0,0:1|0:0,0:0:0:0:
362,152,110273,5,0,3:0:0:0:
331,251,110482,1,0,3:0:0:0:
444,364,110692,1,10,0:1:0:0:
475,265,110902,1,0,0:0:0:0:
261,365,111112,6,0,B|204:369|154:320|171:253,1,167.999994873047,6|8,3:2|0:1,0:0:0:0:
170,254,111741,1,0,0:0:0:0:
218,124,111951,5,2,3:1:0:0:
87,77,112161,1,2,3:1:0:0:
40,208,112370,1,8,0:1:0:0:
271,177,112580,6,0,L|251:6,1,167.999994873047,6|0,3:1|3:0,0:0:0:0:
424,135,113210,2,0,L|509:125,1,83.9999974365235,8|0,0:1|0:0,0:0:0:0:
355,61,113629,1,0,3:0:0:0:
324,232,113839,1,0,3:0:0:0:
424,135,114049,1,8,0:1:0:0:
164,201,114259,5,0,0:0:0:0:
164,201,114363,1,0,0:0:0:0:
164,201,114468,2,0,B|84:157|1:174,2,167.999994873047,4|8|2,3:1|0:1|3:1,0:0:0:0:
226,132,115517,1,0,3:0:0:0:
185,48,115727,1,8,0:1:0:0:
72,254,115937,6,0,B|57:316|106:367|166:361,1,167.999994873047,6|0,3:1|3:0,0:0:0:0:
349,249,116566,2,0,B|441:234|423:281|513:272,1,167.999994873047,8|0,0:1|3:0,0:0:0:0:
306,384,117196,1,0,3:0:0:0:
209,223,117405,2,0,L|218:139,1,83.9999974365235,10|0,0:1|0:0,0:0:0:0:
197,108,117720,5,0,0:0:0:0:
197,108,117825,2,0,L|113:117,1,83.9999974365235,6|0,3:2|0:0,0:0:0:0:
341,7,118245,2,0,L|508:24,1,167.999994873047,10|2,0:1|3:1,0:0:0:0:
352,130,118874,2,0,B|308:112|278:63,1,83.9999974365235,2|8,3:1|0:1,0:0:0:0:
490,229,119294,6,2,B|522:307|522:307|490:384,1,167.999994873047,4|0,3:1|3:0,0:1:0:0:
359,247,119923,5,8,0:1:0:0:
500,92,120133,1,0,3:0:0:0:
361,26,120343,5,8,0:1:0:0:
410,153,120552,1,0,3:0:0:0:
379,0,120762,1,8,0:1:0:0:
170,160,120972,5,8,0:1:0:0:
170,160,121077,1,8,0:1:0:0:
170,160,121182,2,0,B|80:131|86:199|1:190,2,167.999994873047,4|8|2,3:1|0:1|3:1,0:0:0:0:
132,240,122231,1,0,3:0:0:0:
19,105,122440,1,8,0:1:0:0:
326,241,122650,6,0,B|416:259|505:219,1,167.999994873047,6|0,3:1|3:0,0:0:0:0:
490,224,123280,1,8,0:1:0:0:
419,142,123489,1,0,3:0:0:0:
350,348,123699,1,0,3:0:0:0:
456,327,123909,1,0,3:0:0:0:
312,164,124119,2,0,L|228:173,1,83.9999974365235,10|0,0:1|0:0,0:0:0:0:
179,232,124538,6,0,L|198:65,1,167.999994873047,2|12,3:1|0:0,0:0:0:0:
197,65,125377,1,2,3:1:0:0:
104,24,125587,1,0,3:0:0:0:
33,96,125797,1,8,0:1:0:0:
258,254,126007,5,6,3:1:0:0:
258,254,126112,1,0,0:0:0:0:
258,254,126217,2,0,B|350:239|332:286|422:277,1,167.999994873047,2|8,0:1|0:1,0:0:0:0:
484,233,126846,1,0,0:0:0:0:
212,371,127056,2,0,B|149:377|104:317|132:255,1,167.999994873047,2|8,3:1|0:1,0:0:0:0:
183,59,127685,5,0,0:0:0:0:
183,59,127790,1,0,0:0:0:0:
183,59,127895,2,0,B|199:122|184:184,1,125.999996154785,6|0,3:1|0:0,0:0:0:0:
184,183,128315,2,0,L|100:174,1,83.9999974365235,10|0,0:1|0:0,0:0:0:0:
24,135,128734,1,2,3:1:0:0:
93,88,128944,1,2,3:1:0:0:
130,259,129154,1,8,0:1:0:0:
337,183,129363,6,0,B|398:180|445:223|437:290,1,167.999994873047,6|0,3:1|3:0,0:0:0:0:
361,382,129993,2,0,B|345:343|345:343|361:305,1,83.9999974365235,8|0,0:1|0:0,0:0:0:0:
502,210,130412,2,0,B|517:172|517:172|501:132,1,83.9999974365235,0|0,3:0|3:0,0:0:0:0:
405,64,130832,1,10,0:1:0:0:
512,16,131042,1,0,0:0:0:0:
322,165,131252,6,0,B|256:174|175:143,1,125.999996154785,6|0,3:2|0:0,0:0:0:0:
176,121,131671,2,0,L|185:37,1,83.9999974365235,10|2,0:1|0:1,0:0:0:0:
19,125,132091,2,0,L|28:209,1,83.9999974365235,0|0,3:0|3:0,0:0:0:0:
0,112,132510,5,10,0:1:0:0:
107,325,132720,2,0,B|199:310|181:357|271:348,1,167.999994873047,4|0,3:1|3:0,0:0:0:0:
387,146,133349,5,10,0:1:0:0:
244,269,133559,1,2,3:0:0:0:
512,384,133769,5,10,0:1:0:0:
325,285,133979,1,2,3:0:0:0:
453,100,134189,5,10,0:1:0:0:
512,51,134398,1,8,0:1:0:0:
508,29,134503,1,8,0:1:0:0:
503,8,134608,1,4,3:1:0:0:
512,51,137755,5,8,0:1:0:0:
508,29,137860,1,8,0:1:0:0:
503,8,137965,1,2,3:0:0:0:
256,192,146776,5,2,0:3:0:0:
256,192,147196,5,2,0:3:0:0:
467,286,147405,1,0,3:0:0:0:
339,150,147615,1,8,0:2:0:0:
197,293,147825,5,8,3:0:0:0:
155,284,147930,1,4,3:0:0:0:
112,276,148035,2,0,L|81:279,2,30.3333319447836,6|0|0,3:1|0:0|0:0,0:0:0:0:
150,209,148245,2,0,L|146:178,2,30.3333319447836,2|0|0,0:1|0:0|0:0,0:0:0:0:
64,197,148454,5,8,0:1:0:0:
257,373,148664,2,0,B|353:389|441:351,1,181.999991668702,2|0,0:1|3:0,0:0:0:0:
490,299,149294,1,10,0:1:0:0:
377,169,149503,6,2,B|338:68|474:-33|579:145|440:80,1,262.500010013581,6|0,3:1|0:0,0:1:0:0:
464,89,150133,1,8,0:1:0:0:
268,0,150343,2,0,L|258:90,1,90.9999958343508,2|0,0:1|3:0,0:0:0:0:
122,159,150762,1,0,3:0:0:0:
20,46,150972,1,8,0:1:0:0:
117,61,151182,1,2,0:1:0:0:
26,194,151391,6,0,L|29:224,2,30.3333319447836,4|0|0,3:2|0:0|0:0,0:0:0:0:
125,260,151601,2,0,L|94:263,2,30.3333319447836,2|0|0,0:1|0:0|0:0,0:0:0:0:
27,303,151811,5,8,0:1:0:0:
203,384,152021,2,0,L|194:294,1,90.9999958343508,2|0,0:1|3:0,0:0:0:0:
101,154,152440,1,0,3:0:0:0:
27,303,152650,1,10,0:1:0:0:
310,184,152860,6,2,B|419:147|411:230|509:220,1,210.000008010865,6|0,3:1|3:0,0:1:0:0:
487,132,153489,1,8,0:1:0:0:
311,271,153699,2,0,B|243:244|161:306|185:385,1,210.000008010865,4|0,3:2|3:0,0:0:0:0:
379,218,154329,1,8,0:1:0:0:
512,346,154538,5,8,0:0:0:0:
512,346,154643,1,8,0:0:0:0:
512,346,154748,2,0,L|466:340,1,45.4999979171754,6|0,3:1|0:0,0:0:0:0:
430,368,154958,2,0,L|384:362,1,45.4999979171754,2|0,0:1|0:0,0:0:0:0:
220,206,155168,6,0,B|131:191|148:236|65:228,1,157.500006008148,10|0,0:1|0:0,0:0:0:0:
32,199,155587,2,0,L|38:153,1,45.4999979171754,2|0,3:1|0:0,0:0:0:0:
27,20,155797,2,0,B|121:-2|148:91,1,157.500006008148,2|0,3:1|0:0,0:0:0:0:
236,220,156217,6,2,B|361:261|395:125,1,210.000008010865,6|0,3:1|3:0,0:1:0:0:
494,27,156846,1,8,0:1:0:0:
331,85,157056,1,2,0:1:0:0:
503,208,157266,1,2,3:1:0:0:
494,250,157370,1,0,0:0:0:0:
486,293,157475,1,2,3:1:0:0:
477,335,157580,1,0,0:0:0:0:
444,361,157685,5,8,0:1:0:0:
423,356,157790,1,0,0:0:0:0:
401,352,157895,1,2,0:1:0:0:
379,348,158000,1,0,0:0:0:0:
345,317,158105,6,0,L|255:327,1,90.9999958343508,6|0,3:2|0:0,0:0:0:0:
103,249,158524,1,10,0:1:0:0:
43,367,158734,2,0,L|62:187,1,181.999991668702,2|0,0:1|3:0,0:0:0:0:
179,337,159363,1,8,0:1:0:0:
11,129,159573,6,0,B|3:59|64:6|147:40,1,181.999991668702,6|0,3:1|3:0,0:0:0:0:
162,61,160098,1,0,3:0:0:0:
153,103,160203,1,8,0:1:0:0:
373,280,160412,6,0,B|381:210|320:157|237:191,1,181.999991668702,6|0,3:2|3:0,0:0:0:0:
222,212,160937,1,0,3:0:0:0:
231,254,161042,1,8,0:1:0:0:
3,337,161252,5,8,0:1:0:0:
3,337,161356,1,8,0:1:0:0:
3,337,161461,2,0,L|50:340,1,45.4999979171754,6|0,3:1|0:0,0:0:0:0:
79,375,161671,2,0,L|126:378,1,45.4999979171754,2|0,0:1|0:0,0:0:0:0:
256,229,161881,6,0,B|290:154|273:66,1,157.500006008148,10|0,0:1|0:0,0:0:0:0:
274,74,162301,2,0,L|222:70,1,52.5000020027161,2|0,3:1|0:0,0:0:0:0:
125,0,162510,2,0,L|147:46,1,52.5000020027161,2|0,3:1|0:0,0:0:0:0:
136,167,162720,2,0,L|164:124,1,52.5000020027161,8|0,0:1|0:0,0:0:0:0:
373,7,162930,6,2,B|506:-2|513:137,1,210.000008010865,6|0,3:1|3:0,0:1:0:0:
358,247,163559,1,8,0:1:0:0:
408,139,163769,1,2,0:1:0:0:
477,236,163979,1,2,3:1:0:0:
281,382,164189,5,0,3:0:0:0:
340,221,164398,1,8,0:1:0:0:
192,6,164608,5,2,0:1:0:0:
192,6,164713,2,2,L|208:162,1,157.500006008148,2|0,0:1|0:0,0:1:0:0:
244,193,165133,1,0,0:0:0:0:
244,193,165238,1,8,0:1:0:0:
89,129,165447,1,2,0:1:0:0:
13,270,165657,6,0,L|17:301,2,30.3333319447836,2|0|0,3:1|0:0|0:0,0:0:0:0:
93,366,165867,2,0,L|89:335,2,30.3333319447836,2|0|0,3:1|0:0|0:0,0:0:0:0:
16,377,166077,5,8,0:1:0:0:
143,227,166287,2,0,B|211:208|271:254|270:321,1,181.999991668702,6|0,3:1|3:0,0:0:0:0:
511,93,166916,5,8,0:1:0:0:
511,93,167021,1,0,0:0:0:0:
511,93,167126,2,2,B|369:63|359:214,1,224,6|0,3:2|3:0,0:1:0:0:
491,301,167755,1,8,0:1:0:0:
283,83,167965,5,8,0:1:0:0:
240,91,168070,1,8,0:1:0:0:
198,100,168175,2,0,B|89:63|97:146|-1:136,2,210.000008010865,6|10|2,3:1|0:1|3:1,0:0:0:0:
382,161,169224,1,2,3:1:0:0:
494,3,169433,1,8,0:1:0:0:
275,172,169643,6,2,B|252:245|252:245|275:285|275:285|269:385,1,210.000008010865,6|0,3:1|3:0,0:1:0:0:
340,235,170273,1,8,0:1:0:0:
146,382,170482,1,2,0:1:0:0:
9,243,170692,5,0,3:0:0:0:
106,284,170902,1,0,3:0:0:0:
251,353,171112,5,10,0:1:0:0:
423,260,171322,1,2,0:1:0:0:
481,376,171531,6,0,L|462:196,2,181.999991668702,6|8|0,3:2|0:1|3:0,0:0:0:0:
365,167,172580,2,0,B|371:113|431:99,1,90.9999958343508,2|8,3:1|0:1,0:0:0:0:
191,375,173000,6,0,B|177:238|38:256,1,224,6|0,3:1|3:0,0:0:0:0:
4,285,173524,1,0,3:0:0:0:
12,328,173629,1,8,0:1:0:0:
216,173,173839,6,0,B|294:110|238:24,1,168,6|0,3:2|0:0,0:0:0:0:
196,11,174259,1,0,3:0:0:0:
97,94,174468,1,8,0:1:0:0:
315,277,174678,5,8,0:1:0:0:
315,277,174783,1,8,0:1:0:0:
315,277,174888,2,0,L|483:259,2,167.999994873047,4|8|2,3:1|0:1|3:1,0:0:0:0:
225,320,175937,1,0,3:0:0:0:
338,376,176147,1,8,0:1:0:0:
217,117,176356,6,0,B|127:88|133:156|48:147,1,167.999994873047,6|0,3:1|3:0,0:0:0:0:
11,86,176986,1,8,0:1:0:0:
57,26,177196,1,0,0:0:0:0:
140,167,177405,5,0,3:0:0:0:
31,296,177615,1,0,3:0:0:0:
5,212,177825,5,10,0:1:0:0:
166,250,178035,1,0,0:0:0:0:
327,288,178245,6,0,B|419:273|401:320|491:311,1,167.999994873047,6|8,3:2|0:1,0:0:0:0:
490,311,178874,1,0,0:0:0:0:
339,365,179084,1,2,3:1:0:0:
384,212,179294,1,2,3:1:0:0:
486,213,179503,1,8,0:1:0:0:
258,336,179713,6,0,B|198:335|145:283|176:196,1,167.999994873047,6|0,3:1|3:0,0:0:0:0:
239,99,180343,2,0,B|247:141|237:192,1,83.9999974365235,8|0,0:1|0:0,0:0:0:0:
157,25,180762,1,0,3:0:0:0:
81,25,180972,1,0,3:0:0:0:
29,78,181182,1,8,0:1:0:0:
30,152,181391,1,0,0:0:0:0:
293,41,181601,6,0,B|362:28|407:68|403:133,2,167.999994873047,4|8|2,3:1|0:1|3:1,0:0:0:0:
395,211,182650,1,0,3:0:0:0:
485,143,182860,1,8,0:1:0:0:
197,209,183070,6,0,B|174:294|199:383,1,167.999994873047,6|0,3:1|3:0,0:0:0:0:
315,175,183699,2,0,B|337:93|314:8,1,167.999994873047,12|0,0:0|3:0,0:0:0:0:
184,193,184329,1,0,3:0:0:0:
369,276,184538,2,0,L|453:267,1,83.9999974365235,10|0,0:1|0:0,0:0:0:0:
490,295,184853,5,0,0:0:0:0:
490,295,184958,2,0,L|481:379,1,83.9999974365235,6|0,3:2|0:0,0:0:0:0:
305,231,185377,2,0,L|137:249,1,167.999994873047,10|2,0:1|3:1,0:0:0:0:
16,215,186007,2,0,B|-1:255|-1:255|15:293,1,83.9999974365235,2|8,3:1|0:1,0:0:0:0:
111,90,186426,6,2,B|114:27|59:-15|-1:0,1,167.999994873047,4|0,3:1|3:0,0:1:0:0:
59,153,187056,5,8,0:1:0:0:
261,64,187266,1,0,3:0:0:0:
442,203,187475,5,8,0:1:0:0:
320,141,187685,1,0,3:0:0:0:
470,184,187895,1,8,0:1:0:0:
241,379,188105,5,8,0:1:0:0:
241,379,188210,1,8,0:1:0:0:
241,379,188315,2,0,B|249:295|241:211,2,167.999994873047,4|8|2,3:1|0:1|3:1,0:0:0:0:
337,328,189363,1,0,3:0:0:0:
418,380,189573,1,8,0:1:0:0:
505,112,189783,6,0,B|441:94|385:138|400:210,1,167.999994873047,6|0,3:1|3:0,0:0:0:0:
479,297,190412,2,0,B|495:258|495:258|479:220,1,83.9999974365235,8|0,0:1|0:0,0:0:0:0:
316,180,190832,1,0,3:0:0:0:
352,273,191042,1,0,3:0:0:0:
497,130,191252,1,10,0:1:0:0:
461,37,191461,1,0,0:0:0:0:
399,115,191671,6,0,B|333:65|333:65|252:92,1,167.999994873047,2|12,3:1|0:2,0:0:0:0:
252,91,192510,1,2,3:1:0:0:
132,120,192720,1,0,3:0:0:0:
103,0,192930,1,8,0:1:0:0:
281,211,193140,5,6,3:1:0:0:
281,211,193245,1,0,0:0:0:0:
281,211,193349,2,0,P|291:294|281:377,1,167.999994873047,2|8,0:1|0:1,0:0:0:0:
165,382,193979,1,0,0:0:0:0:
67,258,194189,1,2,3:1:0:0:
178,271,194398,1,0,3:0:0:0:
0,347,194608,5,8,0:1:0:0:
134,169,194818,1,0,0:0:0:0:
322,291,195028,6,2,B|414:276|396:323|486:314,1,167.999994873047,6|10,3:1|0:1,0:0:0:0:
485,314,195657,1,2,0:1:0:0:
353,373,195867,1,0,3:0:0:0:
459,228,196077,2,0,B|475:189|475:189|459:151,1,83.9999974365235,2|8,3:1|0:1,0:0:0:0:
276,27,196496,6,0,B|255:91|308:150|384:128,1,167.999994873047,6|0,3:1|3:0,0:0:0:0:
512,58,197126,2,0,L|428:67,1,83.9999974365235,8|0,0:1|0:0,0:0:0:0:
256,191,197545,5,0,3:0:0:0:
136,112,197755,1,0,3:0:0:0:
8,176,197965,2,0,B|-6:236|9:313,1,125.999996154785,10|0,0:1|0:0,0:0:0:0:
39,328,198384,6,0,L|122:318,1,83.9999974365235,6|0,3:2|0:0,0:0:0:0:
261,374,198804,1,10,0:1:0:0:
403,247,199014,2,0,L|320:237,2,83.9999974365235,2|0|0,0:1|3:0|3:0,0:0:0:0:
256,0,199643,5,10,0:1:0:0:
181,178,199853,2,0,B|149:101|149:101|181:23,1,167.999994873047,4|0,3:1|3:0,0:0:0:0:
33,104,200482,5,10,0:1:0:0:
243,229,200692,1,2,3:0:0:0:
3,318,200902,5,10,0:1:0:0:
140,249,201112,1,2,3:0:0:0:
323,130,201322,5,10,0:1:0:0:
498,231,201531,1,8,0:1:0:0:
498,231,201636,1,8,0:1:0:0:
498,231,201741,2,0,B|408:202|414:270|329:261,1,167.999994873047,6|8,3:1|0:1,0:0:0:0:
338,261,202580,1,2,3:1:0:0:
202,233,202790,1,2,3:1:0:0:
246,366,203000,1,8,0:1:0:0:
415,209,203210,6,0,B|435:122|412:27,1,167.999994873047,6|0,3:1|3:0,0:0:0:0:
242,62,203839,1,10,0:1:0:0:
322,0,204049,1,0,3:0:0:0:
265,163,204259,1,2,3:1:0:0:
219,168,204363,1,0,0:0:0:0:
174,159,204468,1,2,3:1:0:0:
133,137,204573,1,0,0:0:0:0:
102,103,204678,2,0,L|112:20,1,83.9999974365235,10|0,0:1|0:0,0:0:0:0:
0,197,205098,6,0,B|3:299|108:296,1,167.999994873047,6|8,3:2|0:1,0:0:0:0:
161,241,205727,1,0,0:0:0:0:
295,296,205937,1,2,3:1:0:0:
179,384,206147,1,2,3:1:0:0:
212,306,206356,1,8,0:1:0:0:
404,384,206566,6,0,B|436:307|436:307|404:229,1,167.999994873047,6|0,3:1|3:0,0:0:0:0:
501,183,207196,1,10,0:1:0:0:
325,58,207405,2,0,L|335:141,1,83.9999974365235,6|0,3:2|0:0,0:0:0:0:
512,76,207825,1,0,3:0:0:0:
424,13,208035,1,10,0:1:0:0:
238,207,208245,5,8,0:1:0:0:
238,207,208349,1,8,0:1:0:0:
238,207,208454,2,0,B|146:192|164:239|74:230,2,167.999994873047,6|8|0,3:1|0:1|3:0,0:0:0:0:
309,238,209503,1,0,3:0:0:0:
162,132,209713,1,8,0:1:0:0:
0,283,209923,6,0,B|3:385|108:382,1,167.999994873047,6|0,3:1|3:0,0:0:0:0:
242,318,210552,2,0,B|196:312|158:318,1,83.9999974365235,10|0,0:1|0:0,0:0:0:0:
295,382,210972,1,2,3:1:0:0:
361,219,211182,1,2,3:1:0:0:
198,153,211391,1,8,0:1:0:0:
232,233,211601,1,2,0:1:0:0:
319,94,211811,6,0,B|399:70|485:94,2,167.999994873047,6|8|0,3:2|0:1|3:0,0:0:0:0:
237,52,212860,1,0,3:0:0:0:
315,2,213070,1,8,0:1:0:0:
452,176,213280,6,0,L|434:343,1,167.999994873047,6|0,3:1|3:0,0:0:0:0:
466,377,213804,1,0,3:0:0:0:
466,377,213909,1,8,0:1:0:0:
287,246,214119,2,0,L|161:258,1,125.999996154785,6|0,3:2|0:0,0:0:0:0:
128,232,214538,1,2,3:1:0:0:
24,360,214748,1,8,0:1:0:0:
198,173,214958,5,8,0:1:0:0:
198,173,215063,1,8,0:1:0:0:
198,173,215168,2,0,B|194:70|89:73,1,167.999994873047,6|8,3:1|0:1,0:0:0:0:
20,38,215797,1,2,0:1:0:0:
25,116,216007,5,2,3:1:0:0:
183,12,216217,1,2,3:1:0:0:
337,82,216426,5,8,0:1:0:0:
458,158,216636,2,0,B|490:81|490:81|458:3,1,167.999994873047,6|0,3:1|3:0,0:0:0:0:
320,75,217266,2,0,L|330:158,1,83.9999974365235,10|0,0:1|3:0,0:0:0:0:
500,274,217685,5,2,3:1:0:0:
498,326,217790,1,0,0:0:0:0:
464,369,217895,1,2,3:1:0:0:
413,383,218000,1,0,0:0:0:0:
364,363,218105,2,0,L|374:280,1,83.9999974365235,10|0,0:1|0:0,0:0:0:0:
195,189,218524,6,0,B|91:178|80:281,1,167.999994873047,6|8,3:2|0:1,0:0:0:0:
80,280,219363,1,2,3:1:0:0:
173,346,219573,1,2,3:1:0:0:
21,373,219783,1,8,0:1:0:0:
175,160,219993,6,0,B|265:131|259:199|344:190,1,167.999994873047,6|0,3:1|3:0,0:0:0:0:
393,22,220622,1,10,0:1:0:0:
502,158,220832,2,0,B|518:119|518:119|502:81,1,83.9999974365235,6|0,3:2|0:0,0:0:0:0:
313,179,221252,2,0,B|297:217|297:217|313:256,1,83.9999974365235,2|8,3:1|0:1,0:0:0:0:
511,384,221671,5,8,0:1:0:0:
511,384,221776,1,8,0:1:0:0:
511,384,221881,2,0,B|503:281|398:287,2,167.999994873047,6|8|0,3:1|0:1|3:0,0:0:0:0:
331,336,222930,1,0,3:0:0:0:
418,203,223140,1,8,0:1:0:0:
283,57,223349,6,0,L|301:224,1,167.999994873047,6|0,3:1|3:0,0:0:0:0:
182,84,223979,2,0,L|191:0,1,83.9999974365235,10|0,0:1|0:0,0:0:0:0:
255,147,224398,1,2,3:1:0:0:
95,128,224608,1,0,3:0:0:0:
191,0,224818,2,0,L|182:84,1,83.9999974365235,10|0,0:1|0:0,0:0:0:0:
116,255,225238,6,0,B|12:265|1:162,2,167.999994873047,6|8|0,3:2|0:1|3:0,0:0:0:0:
190,216,226287,1,0,3:0:0:0:
119,171,226496,1,8,0:1:0:0:
322,363,226706,6,0,B|406:379|487:346,1,167.999994873047,6|0,3:1|3:0,0:0:0:0:
512,314,227231,1,0,3:0:0:0:
512,314,227336,1,8,0:1:0:0:
354,199,227545,2,0,B|266:184|189:216,1,167.999994873047,6|0,3:2|3:0,0:0:0:0:
102,277,228175,1,8,0:1:0:0:
1,163,228384,1,8,0:1:0:0:
9,120,228489,1,8,0:1:0:0:
18,78,228594,1,0,0:0:0:0:
