osu file format v14

[General]
AudioFilename: audio.mp3
AudioLeadIn: 0
PreviewTime: -1
Countdown: 3
SampleSet: None
StackLeniency: 1
Mode: 0
LetterboxInBreaks: 0
WidescreenStoryboard: 1

[Editor]
DistanceSpacing: 1.2
BeatDivisor: 16
GridSize: 16
TimelineZoom: 2.6

[Metadata]
Title:HYPE
TitleUnicode:HYPE
Artist:moemoemoe
ArtistUnicode:moemoemoe
Creator:TyTy
Version:Big Circle HYPE
Source:
Tags:
BeatmapID:1607824
BeatmapSetID:764625

[Difficulty]
HPDrainRate:2.6
CircleSize:2
OverallDifficulty:7
ApproachRate:10
SliderMultiplier:3.59999990463257
SliderTickRate:1

[Events]
//Background and Video events
0,0,"rave.png",0,0
//Break Periods
//Storyboard Layer 0 (Background)
//Storyboard Layer 1 (Fail)
//Storyboard Layer 2 (Pass)
//Storyboard Layer 3 (Foreground)
//Storyboard Sound Samples

[TimingPoints]
7,461.545562239419,4,1,0,0,1,0
1737,-66.6666666666667,4,1,0,0,0,0
12901,-66.6666666666667,4,1,0,100,0,0
16420,-66.6666666666667,4,1,0,5,0,0
27584,-66.6666666666667,4,1,0,95,0,0

[Colours]
Combo1 : 0,255,255
Combo2 : 0,255,64
Combo3 : 255,0,128

[HitObjects]
169,61,7,6,0,B|209:358|209:358|313:113|313:113|76:120|76:120|377:269|377:269|161:49,1,1439.99996185303
169,61,1853,2,0,P|16:128|192:352,1,540.000006294251
176,368,2314,2,0,P|47:243|272:256,1,540.000006294251
271,250,2776,2,0,P|203:56|43:248,1,540.000006294251
34,230,3237,2,0,P|386:182|384:1,1,540.000006294251
401,61,3699,2,0,L|320:64,7,67.5000007867813
403,67,4160,2,0,B|250:247|250:247|103:168|103:168|210:38,1,540.000006294251
189,62,4622,2,0,B|32:70|32:70|32:230|32:230|128:342|128:342|208:278|208:278,1,540.000006294251
186,294,5084,2,0,B|143:198|143:198|294:266|294:266|302:121|302:121|415:198|415:198,1,540.000006294251
404,190,5545,2,0,B|417:358|417:358|513:182|513:182|465:86|465:86|369:54,1,540.000006294251
400,64,6007,2,0,B|174:1|174:1|253:213|-3:149,1,540.000006294251
27,158,6468,2,0,B|104:299|104:299|296:235|477:322,1,540.000006294251
473,320,6930,2,0,B|384:160|176:128|176:128|400:16,1,540.000006294251
336,48,7391,2,0,B|512:0|512:0|464:368,1,540.000006294251
465,354,7853,2,0,B|384:352|384:352|392:232|392:232|6:265|6:265,1,540.000006294251
72,264,8314,2,0,B|-2:179|-2:179|96:80|96:80|213:180|213:180|94:287|153:233,1,540.000006294251
139,248,8776,2,0,B|64:162|64:162|162:63|162:63|279:163|279:163|160:270|219:217,1,540.000006294251
208,224,9237,2,0,B|133:138|133:138|231:39|231:39|348:139|348:139|229:246|288:193,1,540.000006294251
272,192,9699,2,0,B|162:175|118:306|118:306|466:351,1,540.000006294251
443,348,10161,2,0,B|-5:28,1,540.000006294251
8,38,10622,2,0,L|511:271,1,540.000006294251
497,264,11084,2,0,L|399:238,8,67.5000007867814
497,264,11545,2,0,B|271:255|271:255|255:111|111:127|111:127|175:255,1,540.000006294251
147,198,12007,2,0,B|168:265|168:265|229:205|229:205|337:314|313:157|313:157|241:157|241:96,2,405.000004720688
224,160,12930,1,0,0:0:0:0:
288,240,13391,1,0,0:0:0:0:
208,240,13853,1,0,0:0:0:0:
304,160,14314,1,0,0:0:0:0:
176,128,14776,1,0,0:0:0:0:
336,272,15238,1,0,0:0:0:0:
160,144,15468,1,0,0:0:0:0:
352,128,15699,1,0,0:0:0:0:
288,384,15930,1,14,0:0:0:0:
208,0,16161,1,14,0:0:0:0:
343,61,16622,2,0,P|496:128|320:352,1,540.000006294251
336,368,17083,2,0,P|464:243|240:256,1,540.000006294251
240,250,17545,2,0,P|308:56|468:248,1,540.000006294251
478,230,18006,2,0,P|126:182|128:1,1,540.000006294251
110,61,18468,2,0,L|192:64,7,67.5000007867813
109,67,18929,2,0,B|262:247|262:247|408:168|408:168|302:38,1,540.000006294251
322,61,19391,2,0,B|478:69|478:69|478:229|478:229|382:341|382:341|302:277|302:277,1,540.000006294251
325,288,19853,2,0,B|369:192|369:192|218:260|218:260|210:115|210:115|97:192|97:192,1,540.000006294251
108,184,20314,2,0,B|96:352|96:352|0:176|0:176|48:80|48:80|144:48,1,540.000006294251
108,59,20776,2,0,B|335:-4|335:-4|256:208|512:144,1,540.000006294251
487,149,21237,2,0,B|416:288|416:288|224:224|32:336,1,540.000006294251
48,320,21699,2,0,B|128:160|336:128|336:128|112:16,1,540.000006294251
176,48,22160,2,0,B|0:0|0:0|48:368,1,540.000006294251
46,354,22622,2,0,B|127:352|127:352|139:269|139:269|516:256|516:256,1,540.000006294251
512,256,23083,2,0,B|560:182|560:182|431:77|431:77|315:173|315:173|443:274,1,540.000006294251
416,256,23545,2,0,B|490:170|490:170|392:71|392:71|275:171|275:171|394:278|335:225,1,540.000006294251
353,240,24006,2,0,B|348:71|348:71|230:39|230:39|161:144|161:144|246:193,1,506.25000590086
240,192,24468,2,0,B|350:175|394:306|394:306|46:351,1,540.000006294251
64,352,24930,2,0,B|512:32,1,540.000006294251
503,38,25391,2,0,L|0:271,1,540.000006294251
13,265,25853,2,0,L|32:176,8,67.5000007867813
13,264,26314,2,0,B|240:255|240:255|256:111|400:127|400:127|336:255,1,540.000006294251
368,192,26776,2,0,B|203:264|177:137|267:86|331:85|370:110|371:249|226:252,2,405.000004720688
416,160,27699,1,0,0:0:0:0:
304,144,28161,1,0,0:0:0:0:
352,224,28622,1,0,0:0:0:0:
256,240,29084,1,0,0:0:0:0:
176,256,29545,1,0,0:0:0:0:
128,144,30007,1,0,0:0:0:0:
272,352,30238,1,0,0:0:0:0:
320,48,30469,1,0,0:0:0:0:
0,144,30699,1,0,0:0:0:0:
512,256,30930,1,0,0:0:0:0:
