osu file format v14

[General]
AudioFilename: audio.mp3
AudioLeadIn: 0
PreviewTime: 82869
Countdown: 0
SampleSet: Soft
StackLeniency: 0.3
Mode: 0
LetterboxInBreaks: 0
WidescreenStoryboard: 0

[Editor]
Bookmarks: 62284,103135,113348,123561,143986,149093,164412,184837,205263,225688,246114,261433,266539,288242
DistanceSpacing: 1
BeatDivisor: 4
GridSize: 4
TimelineZoom: 1.9

[Metadata]
Title:Afureru yokubo no hate ni
TitleUnicode:溢れる欲望の果てに
Artist:mocchie
ArtistUnicode:mocchie
Creator:xDololow
Version:EXTREME CUTE
Source:東方神霊廟 ~ Ten Desires
Tags:Nyan Nyan Drive touhou 幻想狂走譜Vol.7 Gensou Kyousoufu Vol.7 MCCD-0008 Getsumen Chakuriku Phage ZUN Desire Drive Reitaisai 9
BeatmapID:2152983
BeatmapSetID:1029605

[Difficulty]
HPDrainRate:4
CircleSize:4.3
OverallDifficulty:9.5
ApproachRate:9.5
SliderMultiplier:2.2
SliderTickRate:1

[Events]
//Background and Video events
0,0,"bgw.png",0,0
//Break Periods
2,103454,107603
2,108880,111433
2,286008,287603
//Storyboard Layer 0 (Background)
//Storyboard Layer 1 (Fail)
//Storyboard Layer 2 (Pass)
//Storyboard Layer 3 (Foreground)
//Storyboard Layer 4 (Overlay)
//Storyboard Sound Samples

[TimingPoints]
1008,319.148936170213,4,2,1,45,1,0
10582,-100,4,3,1,45,0,0
11220,-100,4,2,1,45,0,0
18880,-100,4,1,1,25,0,0
19518,-100,4,1,1,30,0,0
20156,-100,4,1,1,35,0,0
20795,-100,4,1,1,40,0,0
21433,-80,4,2,1,45,0,0
31008,-80,4,3,1,45,0,0
31646,-80,4,2,1,45,0,0
36114,-80,4,3,1,45,0,0
36752,-80,4,1,1,45,0,0
41859,-66.6666666666667,4,2,1,45,0,1
50795,-66.6666666666667,4,3,1,45,0,1
50954,-66.6666666666667,4,2,1,45,0,1
51114,-66.6666666666667,4,3,1,45,0,1
52071,-66.6666666666667,4,2,1,45,0,1
61008,-66.6666666666667,4,3,1,45,0,1
61167,-66.6666666666667,4,2,1,45,0,1
61327,-66.6666666666667,4,3,1,45,0,1
62284,-100,4,2,1,45,0,0
71859,-100,4,3,1,45,0,0
72497,-80,4,2,1,45,0,0
76965,-100,4,3,1,45,0,0
77603,-100,4,1,1,45,0,0
82710,-66.6666666666667,4,2,1,45,0,1
91646,-66.6666666666667,4,3,1,45,0,1
91805,-66.6666666666667,4,2,1,45,0,1
91965,-66.6666666666667,4,3,1,45,0,1
92922,-66.6666666666667,4,2,1,45,0,1
101859,-66.6666666666667,4,3,1,45,0,1
102018,-66.6666666666667,4,2,1,45,0,1
102178,-66.6666666666667,4,3,1,45,0,1
103135,-100,4,2,1,45,0,0
112071,-66.6666666666667,4,3,1,45,0,0
113428,-66.6666666666667,4,2,1,45,0,1
117976,-66.6666666666667,4,3,1,45,0,1
118454,-100,4,1,1,45,0,0
123561,-100,4,2,1,45,0,0
133135,-100,4,3,1,45,0,0
133773,-100,4,2,1,45,0,0
138242,-100,4,3,1,45,0,0
138880,-100,4,1,1,45,0,0
143986,-100,4,3,1,45,0,0
149093,-66.6666666666667,4,2,1,45,0,1
152922,-66.6666666666667,4,3,1,45,0,1
153081,-66.6666666666667,4,2,1,45,0,1
153241,-66.6666666666667,4,3,1,45,0,1
154198,-66.6666666666667,4,2,1,45,0,1
163135,-66.6666666666667,4,3,1,45,0,1
163295,-66.6666666666667,4,2,1,45,0,1
163455,-66.6666666666667,4,3,1,45,0,1
164412,-66.6666666666667,4,2,1,45,0,1
168880,-66.6666666666667,4,3,1,45,0,1
169518,-66.6666666666667,4,2,1,45,0,1
173667,-66.6666666666667,4,3,1,45,0,1
174625,-66.6666666666667,4,2,1,45,0,1
178135,-66.6666666666667,4,3,1,45,0,1
179731,-100,4,1,1,45,0,0
184837,-100,4,2,1,45,0,0
202710,-100,4,1,1,25,0,0
203348,-100,4,1,1,30,0,0
203986,-100,4,1,1,35,0,0
204625,-100,4,1,1,40,0,0
205263,-80,4,2,1,45,0,0
214837,-80,4,3,1,45,0,0
215476,-80,4,2,1,45,0,0
219944,-80,4,3,1,45,0,0
220582,-100,4,1,1,45,0,0
225688,-100,4,3,1,45,0,0
226965,-57.1428571428571,4,2,1,45,0,1
234625,-57.1428571428571,4,3,1,45,0,1
234784,-57.1428571428571,4,2,1,45,0,1
234944,-57.1428571428571,4,3,1,45,0,1
235901,-57.1428571428571,4,2,1,45,0,1
244837,-57.1428571428571,4,3,1,45,0,1
244997,-57.1428571428571,4,2,1,45,0,1
245156,-57.1428571428571,4,3,1,45,0,1
245316,-57.1428571428571,4,2,1,45,0,1
245476,-57.1428571428571,4,3,1,45,0,1
246114,-100,4,2,1,45,0,0
255688,-100,4,3,1,45,0,0
256327,-100,4,2,1,45,0,0
260795,-100,4,3,1,45,0,0
261433,-100,4,1,1,45,0,0
266539,-133.333333333333,4,2,1,45,0,0
288242,-100,4,3,1,45,0,0
289518,-50,4,2,1,45,0,1
297178,-50,4,3,1,45,0,1
297337,-50,4,2,1,45,0,1
297497,-50,4,3,1,45,0,1
298454,-50,4,2,1,45,0,1
307390,-50,4,3,1,45,0,1
307550,-50,4,2,1,45,0,1
307710,-50,4,3,1,45,0,1
308667,-50,4,2,1,45,0,1
317603,-50,4,3,1,45,0,1
317763,-50,4,2,1,45,0,1
317923,-50,4,3,1,45,0,1
318880,-50,4,2,1,45,0,1
322390,-50,4,3,1,45,0,1
323986,-100,4,1,1,45,0,1
329093,-100,4,2,1,45,0,0

[HitObjects]
48,204,1008,6,2,P|84:248|83:327,1,110
136,156,1327,2,2,P|100:112|101:33,1,110
20,279,1646,5,2,0:0:0:0:
183,220,1805,1,2,0:0:0:0:
16,137,1965,5,2,0:0:0:0:
180,84,2125,1,2,0:0:0:0:
126,277,2284,5,2,0:0:0:0:
227,141,2444,1,2,0:0:0:0:
32,68,2603,1,2,0:0:0:0:
116,206,2763,1,2,0:0:0:0:
324,191,2922,1,2,0:0:0:0:
240,329,3082,1,2,0:0:0:0:
403,246,3242,1,2,0:0:0:0:
487,384,3402,1,2,0:0:0:0:
264,251,3561,6,2,P|205:253|165:291,1,110
404,215,3880,2,2,P|402:155|364:115,1,110
191,197,4199,5,2,0:0:0:0:
256,334,4359,1,2,0:0:0:0:
371,237,4518,1,2,0:0:0:0:
261,275,4678,5,2,0:0:0:0:
403,325,4838,1,2,0:0:0:0:
416,176,4997,1,2,0:0:0:0:
403,325,5156,1,2,0:0:0:0:
305,183,5316,1,2,0:0:0:0:
424,78,5476,6,2,B|460:15|460:15|462:57,1,110
296,163,5795,2,2,B|260:100|260:100|258:142,1,110
208,345,6114,5,2,0:0:0:0:
174,178,6274,1,2,0:0:0:0:
104,22,6433,1,2,0:0:0:0:
70,189,6593,1,2,0:0:0:0:
190,316,6752,1,2,0:0:0:0:
163,183,6912,1,2,0:0:0:0:
107,58,7071,1,2,0:0:0:0:
79,191,7231,1,2,0:0:0:0:
242,263,7390,5,2,0:0:0:0:
390,321,7550,1,2,0:0:0:0:
433,140,7710,5,2,0:0:0:0:
385,333,7869,1,2,0:0:0:0:
166,313,8029,5,2,0:0:0:0:
334,264,8188,1,2,0:0:0:0:
425,158,8348,5,2,0:0:0:0:
257,207,8507,1,2,0:0:0:0:
203,375,8667,5,2,0:0:0:0:
87,292,8827,1,2,0:0:0:0:
69,115,8986,1,2,0:0:0:0:
22,327,9146,1,2,0:0:0:0:
215,294,9305,6,2,B|309:279|309:279|332:255,2,110
295,156,9784,2,2,B|389:141|389:141|412:117,2,110
142,186,10263,1,2,0:0:0:0:
130,348,10422,1,2,0:0:0:0:
304,207,10582,5,0,3:0:0:0:
91,255,10742,1,0,3:0:0:0:
91,255,10821,1,0,3:0:0:0:
371,290,10981,1,0,3:0:0:0:
371,290,11061,1,0,3:0:0:0:
307,72,11220,6,0,P|278:71|244:86,1,55,4|0,0:0|0:0,0:0:0:0:
283,245,11380,2,0,P|312:246|346:231,1,55,4|0,0:0|0:0,0:0:0:0:
186,31,11539,2,0,P|171:78|194:136,1,110,4|0,0:0|0:0,0:0:0:0:
380,75,11859,6,0,P|376:45|354:15,1,55,4|0,0:0|0:0,0:0:0:0:
208,241,12018,2,0,P|212:271|234:301,1,55,4|0,0:0|0:0,0:0:0:0:
409,215,12178,2,0,P|352:162|299:171,1,110,4|0,0:0|0:0,0:0:0:0:
136,244,12497,6,0,L|86:267,1,55,4|0,0:0|0:0,0:0:0:0:
11,145,12656,2,0,L|60:168,1,55,4|0,0:0|0:0,0:0:0:0:
158,326,12816,2,0,B|219:293|219:293|222:215,1,110,4|0,0:0|0:0,0:0:0:0:
159,60,13135,6,0,L|160:131,1,55,4|0,0:0|0:0,0:0:0:0:
275,236,13295,2,0,L|274:165,1,55,4|0,0:0|0:0,0:0:0:0:
60,168,13454,2,0,L|61:314,1,110,4|0,0:0|0:0,0:0:0:0:
195,382,13773,5,2,0:0:0:0:
190,153,13933,1,2,0:0:0:0:
260,313,14093,1,2,0:0:0:0:
89,161,14252,1,2,0:0:0:0:
240,32,14412,5,2,0:0:0:0:
310,177,14571,1,2,0:0:0:0:
157,230,14731,1,2,0:0:0:0:
211,78,14890,5,2,0:0:0:0:
157,230,15049,1,2,0:0:0:0:
12,159,15209,1,2,0:0:0:0:
66,7,15369,1,2,0:0:0:0:
157,230,15529,5,2,0:0:0:0:
211,78,15688,1,2,0:0:0:0:
356,149,15848,1,2,0:0:0:0:
184,143,16008,5,2,0:0:0:0:
39,72,16168,1,2,0:0:0:0:
193,221,16327,6,0,P|222:213|245:191,1,55,4|0,0:0|0:0,0:0:0:0:
344,73,16486,2,0,P|315:81|292:103,1,55,4|0,0:0|0:0,0:0:0:0:
401,261,16646,2,0,P|358:200|316:181,1,110,4|0,0:0|0:0,0:0:0:0:
129,91,16965,6,0,P|112:121|112:153,1,55,4|0,0:0|0:0,0:0:0:0:
315,205,17125,2,0,P|310:171|290:142,1,55,4|0,0:0|0:0,0:0:0:0:
115,260,17284,2,0,P|149:299|226:300,1,110,4|0,0:0|0:0,0:0:0:0:
379,257,17603,6,0,P|413:246|452:253,1,55,4|0,0:0|0:0,0:0:0:0:
331,127,17763,2,0,P|362:143|385:175,1,55,4|0,0:0|0:0,0:0:0:0:
340,325,17922,2,0,P|299:263|310:222,1,110,4|0,0:0|0:0,0:0:0:0:
319,47,18242,6,0,P|293:57|271:73,1,55
375,157,18401,2,0,P|400:166|422:182,1,55
187,209,18561,2,0,P|255:176|273:134,1,110
199,24,18880,5,0,0:0:0:0:
180,25,18959,1,0,0:0:0:0:
162,28,19039,1,0,0:0:0:0:
145,35,19119,1,0,0:0:0:0:
129,43,19199,1,0,0:0:0:0:
114,54,19278,1,0,0:0:0:0:
101,66,19358,1,0,0:0:0:0:
89,81,19438,1,0,0:0:0:0:
80,97,19518,1,0,0:0:0:0:
74,114,19598,1,0,0:0:0:0:
69,132,19677,1,0,0:0:0:0:
67,150,19757,1,0,0:0:0:0:
68,168,19837,1,0,0:0:0:0:
72,186,19917,1,0,0:0:0:0:
77,204,19997,1,0,0:0:0:0:
86,220,20076,1,0,0:0:0:0:
94,232,20156,5,0,0:0:0:0:
115,209,20235,1,0,0:0:0:0:
142,193,20315,1,0,0:0:0:0:
173,186,20395,1,0,0:0:0:0:
204,189,20475,1,0,0:0:0:0:
233,201,20554,1,0,0:0:0:0:
257,220,20634,1,0,0:0:0:0:
274,247,20714,1,0,0:0:0:0:
288,276,20795,1,0,0:0:0:0:
305,302,20875,1,0,0:0:0:0:
329,322,20955,1,0,0:0:0:0:
358,333,21034,1,0,0:0:0:0:
389,336,21114,1,0,0:0:0:0:
420,329,21194,1,0,0:0:0:0:
447,314,21274,1,0,0:0:0:0:
468,291,21353,1,0,0:0:0:0:
487,262,21433,6,2,P|505:182|473:105,1,137.5
303,0,21752,2,2,P|346:69|423:101,1,137.5
246,69,22071,2,2,P|188:104|154:164,1,137.5
158,291,22390,1,2,0:0:0:0:
261,149,22550,1,2,0:0:0:0:
71,121,22710,5,2,0:0:0:0:
86,272,22869,1,2,0:0:0:0:
223,207,23029,5,2,0:0:0:0:
208,358,23188,1,2,0:0:0:0:
418,288,23348,5,2,0:0:0:0:
429,273,23508,1,2,0:0:0:0:
278,366,23667,5,2,0:0:0:0:
269,378,23827,1,2,0:0:0:0:
457,365,23986,5,2,0:0:0:0:
481,187,24146,1,2,0:0:0:0:
313,67,24305,1,2,0:0:0:0:
429,273,24465,1,2,0:0:0:0:
255,127,24625,6,2,P|232:42|264:-2,1,137.5
403,176,24944,1,2,0:0:0:0:
461,234,25103,6,2,P|484:149|452:105,1,137.5
313,283,25422,1,2,0:0:0:0:
403,176,25582,1,2,0:0:0:0:
203,119,25742,5,2,0:0:0:0:
51,230,25901,2,2,L|90:368,1,137.5
257,174,26220,2,2,L|218:312,1,137.5
100,160,26539,5,2,0:0:0:0:
0,17,26699,1,2,0:0:0:0:
75,230,26859,1,2,0:0:0:0:
62,56,27019,1,2,0:0:0:0:
124,288,27178,1,2,0:0:0:0:
202,132,27338,1,2,0:0:0:0:
301,283,27497,2,2,B|405:250|405:250|468:211,1,137.5
406,5,27816,6,2,P|366:61|359:135,1,137.5,2|2,0:0|0:0,0:0:0:0:
383,300,28135,1,2,0:0:0:0:
443,133,28295,1,2,0:0:0:0:
294,280,28454,6,2,P|274:180|291:125,1,137.5
167,368,28773,2,2,P|187:268|170:213,1,137.5
73,55,29093,5,2,0:0:0:0:
151,199,29252,1,2,0:0:0:0:
13,334,29412,1,2,0:0:0:0:
83,126,29571,1,2,0:0:0:0:
241,210,29731,6,2,B|329:245|329:245|373:196,2,137.5
512,150,30210,2,2,B|424:115|424:115|380:164,2,137.5
371,298,30688,1,2,0:0:0:0:
313,103,30848,1,2,0:0:0:0:
142,242,31008,5,0,0:0:0:0:
438,160,31167,1,0,0:0:0:0:
240,31,31327,1,0,0:0:0:0:
293,312,31486,1,0,0:0:0:0:
141,159,31646,6,2,P|68:202|74:295,1,137.5
329,236,31965,2,2,P|372:287|364:353,1,137.5
286,96,32284,2,2,P|220:108|166:69,1,137.5
198,301,32603,1,2,0:0:0:0:
337,153,32763,1,2,0:0:0:0:
133,217,32922,6,2,B|104:246|104:246|123:341,1,137.5
320,327,33242,1,2,0:0:0:0:
477,262,33401,1,2,0:0:0:0:
281,157,33561,1,2,0:0:0:0:
245,318,33720,1,2,0:0:0:0:
441,213,33880,1,2,0:0:0:0:
405,52,34039,1,2,0:0:0:0:
333,233,34199,6,2,L|187:255,1,137.5
176,80,34518,2,2,L|30:102,1,137.5
82,277,34837,1,2,0:0:0:0:
197,160,34997,1,2,0:0:0:0:
153,335,35156,1,2,0:0:0:0:
312,277,35316,5,2,0:0:0:0:
197,160,35476,1,2,0:0:0:0:
241,335,35635,1,2,0:0:0:0:
378,208,35795,1,2,0:0:0:0:
197,160,35954,1,2,0:0:0:0:
359,313,36114,5,0,0:0:0:0:
432,77,36273,1,0,0:0:0:0:
432,77,36353,1,0,0:0:0:0:
432,77,36433,1,0,0:0:0:0:
489,236,36593,1,0,0:0:0:0:
386,315,36752,5,0,0:0:0:0:
374,307,36831,1,0,0:0:0:0:
363,301,36911,1,0,0:0:0:0:
351,295,36991,1,0,0:0:0:0:
339,289,37071,1,0,0:0:0:0:
326,284,37150,1,0,0:0:0:0:
314,280,37230,1,0,0:0:0:0:
301,276,37310,1,0,0:0:0:0:
288,272,37390,1,0,0:0:0:0:
275,270,37470,1,0,0:0:0:0:
262,267,37549,1,0,0:0:0:0:
249,266,37629,1,0,0:0:0:0:
236,265,37709,1,0,0:0:0:0:
222,264,37789,1,0,0:0:0:0:
209,264,37869,1,0,0:0:0:0:
196,265,37948,1,0,0:0:0:0:
183,266,38028,1,0,0:0:0:0:
169,268,38108,1,0,0:0:0:0:
156,271,38188,1,0,0:0:0:0:
143,274,38267,1,0,0:0:0:0:
131,277,38347,1,0,0:0:0:0:
118,281,38427,1,0,0:0:0:0:
105,286,38507,1,0,0:0:0:0:
93,291,38587,1,0,0:0:0:0:
81,297,38666,1,0,0:0:0:0:
70,303,38746,1,0,0:0:0:0:
58,310,38826,1,0,0:0:0:0:
47,317,38906,1,0,0:0:0:0:
36,325,38986,1,0,0:0:0:0:
26,333,39065,1,0,0:0:0:0:
16,342,39145,1,0,0:0:0:0:
6,351,39225,1,0,0:0:0:0:
0,358,39305,5,4,0:0:0:0:
21,349,39384,1,0,0:0:0:0:
41,339,39464,1,0,0:0:0:0:
61,327,39544,1,0,0:0:0:0:
78,312,39624,1,0,0:0:0:0:
94,296,39703,1,0,0:0:0:0:
109,278,39783,1,0,0:0:0:0:
121,259,39863,1,0,0:0:0:0:
131,238,39943,1,0,0:0:0:0:
139,217,40023,1,0,0:0:0:0:
145,194,40102,1,0,0:0:0:0:
148,172,40182,1,0,0:0:0:0:
149,149,40262,1,0,0:0:0:0:
147,126,40342,1,0,0:0:0:0:
143,103,40422,1,0,0:0:0:0:
137,81,40501,1,0,0:0:0:0:
127,65,40582,6,0,L|117:98,28,34.375
228,288,41859,6,0,P|308:253|433:264,1,165.000006294251
220,46,42178,2,0,L|250:220,1,165.000006294251
90,384,42497,2,0,L|118:221,1,165.000006294251
134,146,42736,1,0,0:0:0:0:
51,125,42816,2,0,P|124:62|215:137,1,165.000006294251
281,240,43135,6,0,P|385:272|485:256,1,165.000006294251
491,71,43454,2,0,P|394:121|335:203,1,165.000006294251
442,373,43774,2,0,P|391:276|309:217,1,165.000006294251,0|0,0:0|0:0,3:0:0:0:
266,188,44013,1,0,0:0:0:0:
172,157,44093,2,0,P|229:98|264:24,1,165.000006294251
411,93,44412,5,0,0:0:0:0:
256,282,44571,1,0,0:0:0:0:
161,19,44731,1,0,0:0:0:0:
185,262,44890,1,0,0:0:0:0:
19,291,45050,6,0,P|119:219|204:204,1,165.000006294251
233,175,45289,1,0,0:0:0:0:
306,127,45369,2,0,P|405:93|465:30,1,165.000006294251
113,59,45688,6,0,P|125:169|217:237,1,165.000006294251
176,225,45928,1,0,0:0:0:0:
195,239,46008,1,0,0:0:0:0:
217,249,46087,1,0,0:0:0:0:
241,250,46167,1,0,0:0:0:0:
419,214,46327,1,0,0:0:0:0:
151,287,46486,1,0,0:0:0:0:
427,200,46646,1,0,0:0:0:0:
139,304,46805,1,0,0:0:0:0:
139,304,46885,1,0,0:0:0:0:
137,304,46965,6,0,B|86:328|52:379|52:379|66:312,1,165.000006294251
31,118,47284,2,0,B|96:135|154:188|154:188|145:167,1,165.000006294251
180,7,47603,5,0,0:0:0:0:
367,98,47763,1,0,0:0:0:0:
261,0,47922,5,0,0:0:0:0:
224,204,48082,1,0,0:0:0:0:
224,204,48162,1,0,0:0:0:0:
224,204,48242,2,0,L|195:371,1,165.000006294251
395,260,48561,2,0,L|366:93,1,165.000006294251
50,96,48880,6,0,B|74:194|125:264|125:264|187:252,2,247.500009441376
454,226,49518,2,0,B|430:128|379:58|379:58|317:70,1,247.500009441376
287,89,49837,1,0,0:0:0:0:
43,55,49997,1,0,0:0:0:0:
43,55,50156,2,0,B|42:94|42:94|81:178|70:284|70:284|83:313,1,247.500009441376
89,325,50476,1,0,0:0:0:0:
199,165,50635,1,0,0:0:0:0:
446,235,50795,6,0,B|408:222|408:222|393:206|393:206|290:180,1,165.000006294251
131,98,51114,1,0,0:0:0:0:
29,291,51273,1,0,0:0:0:0:
273,257,51433,1,0,0:0:0:0:
131,98,51593,1,0,0:0:0:0:
133,122,51672,1,0,0:0:0:0:
136,146,51752,1,0,0:0:0:0:
159,343,51912,1,0,0:0:0:0:
302,169,52071,6,0,P|364:253|308:339,1,165.000006294251
64,198,52390,2,0,P|54:118|111:62,1,165.000006294251
355,78,52710,1,0,0:0:0:0:
136,146,52869,1,0,0:0:0:0:
283,266,53029,1,0,0:0:0:0:
64,198,53188,1,0,0:0:0:0:
292,45,53348,6,0,B|286:113|303:156|303:156|287:192|291:206,1,165.000006294251
129,356,53667,2,0,B|114:330|114:330|140:256|218:215,1,165.000006294251
416,157,53986,2,0,B|431:183|431:183|405:257|327:298,1,165.000006294251
64,151,54305,2,0,B|132:156|175:140|175:140|211:155|225:152,1,165.000006294251
451,87,54625,5,0,0:0:0:0:
264,228,54784,1,0,0:0:0:0:
450,275,54944,5,0,0:0:0:0:
306,96,55103,1,0,0:0:0:0:
145,25,55263,5,0,0:0:0:0:
61,229,55422,1,0,0:0:0:0:
226,150,55582,5,0,0:0:0:0:
0,104,55742,1,0,0:0:0:0:
111,313,55901,6,0,L|267:234,1,165.000006294251
296,222,56140,1,0,0:0:0:0:
334,205,56220,1,0,0:0:0:0:
372,189,56300,1,0,0:0:0:0:
410,173,56380,1,0,0:0:0:0:
384,336,56539,1,0,0:0:0:0:
324,132,56699,1,0,0:0:0:0:
510,261,56859,1,0,0:0:0:0:
262,187,57018,1,0,0:0:0:0:
262,187,57098,1,0,0:0:0:0:
262,187,57178,6,0,P|260:306|340:363,1,165.000006294251
374,57,57497,2,0,B|267:47|267:47|196:80,1,165.000006294251
37,180,57816,1,0,0:0:0:0:
255,122,57976,1,0,0:0:0:0:
32,175,58135,1,0,0:0:0:0:
260,127,58295,1,0,0:0:0:0:
280,163,58375,1,0,0:0:0:0:
299,198,58454,6,0,B|343:279|343:279|382:291|427:273,1,165.000006294251
432,118,58773,2,0,B|388:37|388:37|349:25|316:38,1,165.000006294251
129,140,59093,6,0,B|107:160|105:185|105:185|131:261|82:337|82:337|59:323|59:323|50:300,2,247.500009441376
383,140,59731,2,0,B|405:160|407:185|407:185|381:261|430:337|430:337|453:323|453:323|462:300,1,247.500009441376
483,288,60050,1,0,0:0:0:0:
269,264,60210,1,0,0:0:0:0:
269,264,60369,2,0,B|181:307|131:294|131:294|106:317|109:343|109:343|79:322|34:317,1,247.500009441376
32,309,60688,1,0,0:0:0:0:
82,119,60848,1,0,0:0:0:0:
323,92,61008,6,0,B|228:54|228:54|175:4,1,165.000006294251
13,153,61327,1,0,0:0:0:0:
234,260,61486,1,0,0:0:0:0:
1,269,61646,1,0,0:0:0:0:
212,174,61805,1,0,0:0:0:0:
228,161,61884,1,0,0:0:0:0:
246,152,61964,1,0,0:0:0:0:
266,145,62044,1,0,0:0:0:0:
286,141,62124,1,0,0:0:0:0:
307,140,62203,1,0,0:0:0:0:
327,143,62283,5,2,0:0:0:0:
368,336,62443,1,2,0:0:0:0:
368,88,62603,1,2,0:0:0:0:
328,280,62762,1,2,0:0:0:0:
328,36,62922,1,2,0:0:0:0:
368,228,63081,1,2,0:0:0:0:
396,29,63241,1,2,0:0:0:0:
217,100,63401,1,2,0:0:0:0:
100,0,63560,1,2,0:0:0:0:
279,71,63720,1,2,0:0:0:0:
216,28,63879,1,2,0:0:0:0:
236,248,64039,1,2,0:0:0:0:
284,4,64199,1,2,0:0:0:0:
80,68,64358,1,2,0:0:0:0:
156,64,64518,1,2,0:0:0:0:
40,132,64677,1,2,0:0:0:0:
120,132,64837,1,2,0:0:0:0:
120,132,64996,1,2,0:0:0:0:
8,64,65156,1,2,0:0:0:0:
164,0,65316,1,2,0:0:0:0:
80,196,65475,1,2,0:0:0:0:
48,0,65635,1,2,0:0:0:0:
188,160,65794,1,2,0:0:0:0:
4,124,65954,1,2,0:0:0:0:
152,264,66113,1,2,0:0:0:0:
124,148,66273,1,2,0:0:0:0:
252,168,66433,1,2,0:0:0:0:
80,280,66592,1,2,0:0:0:0:
188,160,66752,1,2,0:0:0:0:
224,336,66911,1,2,0:0:0:0:
124,148,67071,1,2,0:0:0:0:
152,264,67231,1,2,0:0:0:0:
374,242,67390,5,2,0:0:0:0:
232,115,67550,1,2,0:0:0:0:
374,242,67710,1,2,0:0:0:0:
414,56,67869,1,2,0:0:0:0:
374,242,68029,1,2,0:0:0:0:
309,44,68188,1,2,0:0:0:0:
475,230,68348,1,2,0:0:0:0:
285,291,68508,1,2,0:0:0:0:
448,146,68667,1,2,0:0:0:0:
434,314,68827,1,2,0:0:0:0:
285,291,68986,1,2,0:0:0:0:
475,230,69146,1,2,0:0:0:0:
374,242,69305,1,2,0:0:0:0:
285,291,69465,1,2,0:0:0:0:
315,105,69625,1,2,0:0:0:0:
149,178,69784,1,2,0:0:0:0:
221,345,69944,1,2,0:0:0:0:
221,345,70103,1,2,0:0:0:0:
40,315,70263,1,2,0:0:0:0:
40,315,70422,1,2,0:0:0:0:
149,178,70582,1,2,0:0:0:0:
221,345,70742,1,2,0:0:0:0:
40,315,70901,1,2,0:0:0:0:
149,178,71061,1,2,0:0:0:0:
252,27,71220,1,2,0:0:0:0:
69,12,71380,1,2,0:0:0:0:
149,178,71539,1,2,0:0:0:0:
335,233,71699,1,2,0:0:0:0:
77,142,71859,1,0,0:0:0:0:
302,345,72018,1,0,0:0:0:0:
348,81,72178,1,0,0:0:0:0:
90,279,72337,1,0,0:0:0:0:
357,164,72497,6,2,P|428:110|421:44,1,137.5
154,115,72816,2,2,P|114:70|26:71,1,137.5
321,270,73135,2,2,P|364:300|367:392,1,137.5
188,344,73454,1,2,0:0:0:0:
22,214,73614,1,2,0:0:0:0:
104,383,73773,1,2,0:0:0:0:
173,219,73933,1,2,0:0:0:0:
294,46,74093,1,2,0:0:0:0:
277,159,74252,1,2,0:0:0:0:
368,272,74412,1,2,0:0:0:0:
350,159,74571,1,2,0:0:0:0:
440,46,74731,1,2,0:0:0:0:
423,159,74890,1,2,0:0:0:0:
294,46,75050,1,2,0:0:0:0:
173,219,75210,1,2,0:0:0:0:
350,159,75369,1,2,0:0:0:0:
145,115,75529,1,2,0:0:0:0:
123,340,75688,1,2,0:0:0:0:
109,308,75848,1,2,0:0:0:0:
95,276,76008,1,2,0:0:0:0:
145,115,76167,1,2,0:0:0:0:
316,271,76327,1,2,0:0:0:0:
330,239,76487,1,2,0:0:0:0:
344,207,76647,1,2,0:0:0:0:
294,46,76806,1,2,0:0:0:0:
397,255,76965,1,0,0:0:0:0:
179,266,77125,1,0,0:0:0:0:
179,266,77204,1,0,0:0:0:0:
179,266,77284,1,0,0:0:0:0:
344,207,77444,1,0,0:0:0:0:
491,126,77603,5,0,0:0:0:0:
486,112,77682,1,0,0:0:0:0:
481,100,77762,1,0,0:0:0:0:
473,88,77842,1,0,0:0:0:0:
466,77,77922,1,0,0:0:0:0:
457,66,78001,1,0,0:0:0:0:
448,56,78081,1,0,0:0:0:0:
438,48,78161,1,0,0:0:0:0:
427,40,78241,1,0,0:0:0:0:
415,33,78321,1,0,0:0:0:0:
403,27,78400,1,0,0:0:0:0:
390,22,78480,1,0,0:0:0:0:
377,19,78560,1,0,0:0:0:0:
363,16,78640,1,0,0:0:0:0:
351,15,78720,1,0,0:0:0:0:
336,15,78799,1,0,0:0:0:0:
323,16,78879,1,0,0:0:0:0:
310,18,78959,1,0,0:0:0:0:
296,21,79039,1,0,0:0:0:0:
284,26,79118,1,0,0:0:0:0:
272,31,79198,1,0,0:0:0:0:
260,38,79278,1,0,0:0:0:0:
249,45,79358,1,0,0:0:0:0:
238,54,79438,1,0,0:0:0:0:
228,63,79517,1,0,0:0:0:0:
220,74,79597,1,0,0:0:0:0:
211,84,79677,1,0,0:0:0:0:
204,96,79757,1,0,0:0:0:0:
198,108,79837,1,0,0:0:0:0:
193,121,79916,1,0,0:0:0:0:
189,134,79996,1,0,0:0:0:0:
187,147,80076,1,0,0:0:0:0:
203,147,80157,5,0,0:0:0:0:
239,156,80236,1,0,0:0:0:0:
270,175,80316,1,0,0:0:0:0:
295,203,80396,1,0,0:0:0:0:
308,239,80476,1,0,0:0:0:0:
310,276,80555,1,0,0:0:0:0:
301,312,80635,1,0,0:0:0:0:
279,343,80715,1,0,0:0:0:0:
250,366,80795,1,0,0:0:0:0:
215,378,80875,1,0,0:0:0:0:
177,379,80954,1,0,0:0:0:0:
142,368,81034,1,0,0:0:0:0:
112,346,81114,1,0,0:0:0:0:
90,315,81194,1,0,0:0:0:0:
78,280,81274,1,0,0:0:0:0:
80,243,81353,1,0,0:0:0:0:
101,202,81433,6,0,L|113:236,28,27.5
44,109,82710,6,0,B|85:104|132:116|132:116|156:92|156:92|186:84|207:67,1,165.000006294251
411,48,83029,2,0,B|370:43|323:55|323:55|299:31|299:31|269:23|248:6,1,165.000006294251
90,37,83348,2,0,P|80:132|116:206,1,165.000006294251
179,261,83587,1,0,0:0:0:0:
267,305,83667,2,0,P|323:230|459:197,1,165.000006294251
364,11,83986,6,0,B|340:103|340:103|379:193,1,165.000006294251
182,104,84305,2,0,B|206:196|206:196|167:286,1,165.000006294251
82,375,84625,2,0,B|58:283|58:283|97:193,1,165.000006294251
128,129,84864,1,0,0:0:0:0:
175,41,84944,2,0,P|230:108|193:203,1,165.000006294251
121,304,85263,5,0,0:0:0:0:
61,93,85423,1,0,0:0:0:0:
121,304,85582,1,0,0:0:0:0:
253,139,85742,1,0,0:0:0:0:
121,304,85901,2,0,P|238:270|309:299,1,165.000006294251
384,320,86140,1,0,0:0:0:0:
468,240,86220,2,0,B|459:221|461:197|476:178|476:178|480:167|480:167|488:156|488:156|493:137|489:108|468:89|443:88,1,165.000006294251
170,63,86539,5,0,0:0:0:0:
30,185,86699,1,0,0:0:0:0:
46,222,86778,1,0,0:0:0:0:
62,260,86858,1,0,0:0:0:0:
65,300,86938,1,0,0:0:0:0:
60,341,87018,1,0,0:0:0:0:
272,269,87178,1,0,0:0:0:0:
62,260,87337,1,0,0:0:0:0:
264,381,87497,1,0,0:0:0:0:
129,181,87656,1,0,0:0:0:0:
129,181,87736,1,0,0:0:0:0:
129,181,87816,6,0,B|106:83|106:83|138:12,1,165.000006294251
272,269,88135,2,0,B|218:354|218:354|146:382,1,165.000006294251
61,156,88454,1,0,0:0:0:0:
225,280,88614,1,0,0:0:0:0:
0,222,88773,1,0,0:0:0:0:
177,55,88933,1,0,0:0:0:0:
177,55,89013,1,0,0:0:0:0:
177,55,89093,6,0,P|267:28|340:38,1,165.000006294251
469,193,89412,1,0,0:0:0:0:
508,27,89571,1,0,0:0:0:0:
371,161,89731,6,0,B|377:279|417:351|441:353|441:353|451:340|452:316|442:301,2,247.500009441376
216,61,90369,2,0,B|181:165|84:173|14:140|31:72|101:44|122:57,1,247.500009441376
103,36,90688,1,0,0:0:0:0:
219,197,90848,1,0,0:0:0:0:
219,197,91008,2,0,B|254:93|351:85|421:118|404:186|334:214|313:201,1,247.500009441376
332,222,91327,1,0,0:0:0:0:
88,173,91486,1,0,0:0:0:0:
315,127,91646,6,0,B|412:139|412:139|442:219,1,165.000006294251
391,368,91965,1,0,0:0:0:0:
499,153,92125,1,0,0:0:0:0:
332,222,92284,1,0,0:0:0:0:
230,87,92444,1,0,0:0:0:0:
223,119,92523,1,0,0:0:0:0:
216,151,92603,1,0,0:0:0:0:
87,19,92763,1,0,0:0:0:0:
216,255,92922,6,0,P|299:200|309:114,1,165.000006294251
91,91,93242,1,0,0:0:0:0:
216,255,93401,1,0,0:0:0:0:
29,361,93561,2,0,P|51:302|152:244,1,165.000006294251,0|0,0:0|0:0,0:0:0:0:
236,219,93800,1,0,0:0:0:0:
340,193,93880,2,0,P|410:152|444:79,1,165.000006294251,0|0,0:0|0:0,0:0:0:0:
216,114,94199,6,0,B|163:109|133:46|148:6|148:6|178:28|183:47,1,165.000006294251
184,315,94518,2,0,B|237:310|267:247|252:207|252:207|222:229|217:248,1,165.000006294251
237,41,94837,2,0,P|294:124|251:181,1,165.000006294251
187,231,95077,1,0,0:0:0:0:
284,240,95156,2,8,B|374:251|374:251|412:317,1,165.000006294251,0|0,0:0|0:0,0:0:0:0:
507,168,95476,5,0,0:0:0:0:
407,379,95635,1,0,0:0:0:0:
350,162,95795,5,0,0:0:0:0:
509,286,95954,1,0,0:0:0:0:
337,308,96114,6,0,L|154:331,1,165.000006294251
82,337,96353,1,0,0:0:0:0:
27,264,96433,2,0,P|137:234|228:236,1,165.000006294251
393,240,96752,5,0,0:0:0:0:
339,133,96912,1,0,0:0:0:0:
363,154,96992,1,0,0:0:0:0:
366,186,97071,1,0,0:0:0:0:
389,208,97151,1,0,0:0:0:0:
393,240,97231,1,0,0:0:0:0:
421,354,97390,1,0,0:0:0:0:
494,171,97550,1,0,0:0:0:0:
282,210,97710,1,0,0:0:0:0:
348,20,97869,1,0,0:0:0:0:
348,20,97949,1,0,0:0:0:0:
348,20,98029,6,0,B|332:146|332:146|290:127,1,165.000006294251
39,81,98348,2,0,B|55:207|55:207|97:188,1,165.000006294251
298,84,98667,1,0,0:0:0:0:
220,298,98827,1,0,0:0:0:0:
130,96,98986,1,0,0:0:0:0:
331,237,99146,1,0,0:0:0:0:
361,276,99226,1,0,0:0:0:0:
394,311,99305,6,0,B|396:229|421:176|448:139|486:212,1,165.000006294251
411,8,99625,2,0,B|409:90|384:143|357:180|319:107,1,165.000006294251
133,158,99944,6,0,B|116:131|116:131|38:117|46:33|46:33|94:68|138:45,2,247.500009441376
186,243,100582,2,0,B|203:270|203:270|281:284|273:368|273:368|225:333|181:356,1,247.500009441376
164,359,100901,1,0,0:0:0:0:
392,320,101061,1,0,0:0:0:0:
392,320,101220,2,0,B|434:303|480:296|480:296|454:244|403:232|403:232|405:196|412:161,1,247.500009441376
418,147,101539,1,0,0:0:0:0:
471,377,101699,1,0,0:0:0:0:
307,202,101859,6,0,P|166:185|84:205,1,165.000006294251
24,301,102178,1,0,0:0:0:0:
121,57,102337,1,0,0:0:0:0:
299,251,102497,1,0,0:0:0:0:
34,150,102656,1,0,0:0:0:0:
34,150,102736,1,0,0:0:0:0:
241,93,102896,1,0,0:0:0:0:
241,93,102976,1,0,0:0:0:0:
172,338,103135,1,0,0:0:0:0:
256,192,108242,5,4,0:0:0:0:
256,192,112071,5,0,0:0:0:0:
256,192,112550,5,0,0:0:0:0:
256,64,112710,1,0,0:0:0:0:
124,208,112869,1,0,0:0:0:0:
388,208,113029,1,0,0:0:0:0:
375,246,113108,1,0,0:0:0:0:
348,277,113188,1,0,0:0:0:0:
311,295,113268,1,0,0:0:0:0:
270,297,113348,5,0,0:0:0:0:
111,136,113508,1,0,0:0:0:0:
213,337,113667,1,0,0:0:0:0:
175,113,113827,1,0,0:0:0:0:
145,327,113986,1,0,0:0:0:0:
242,122,114146,1,0,0:0:0:0:
95,281,114305,1,0,0:0:0:0:
292,168,114465,1,0,0:0:0:0:
408,366,114625,5,0,0:0:0:0:
246,219,114784,1,0,0:0:0:0:
454,315,114944,1,0,0:0:0:0:
238,287,115103,1,0,0:0:0:0:
462,246,115263,1,0,0:0:0:0:
270,348,115422,1,0,0:0:0:0:
430,186,115582,1,0,0:0:0:0:
331,379,115742,1,0,0:0:0:0:
369,154,115902,5,0,0:0:0:0:
246,8,116061,1,0,0:0:0:0:
264,199,116220,1,0,0:0:0:0:
246,8,116379,1,0,0:0:0:0:
152,175,116539,1,0,0:0:0:0:
246,8,116698,1,0,0:0:0:0:
74,91,116859,1,0,0:0:0:0:
246,8,117018,1,0,0:0:0:0:
152,175,117178,6,0,B|163:279|163:279|206:334,1,165.000006294251
369,154,117497,2,0,B|287:88|287:88|218:79,1,165.000006294251
0,223,117816,2,0,B|104:211|104:211|151:174,1,165.000006294251,0|0,3:0|3:0,3:0:0:0:
176,151,118055,1,0,0:0:0:0:
176,151,118135,1,0,0:0:0:0:
217,337,118295,1,0,0:0:0:0:
387,373,118454,5,0,0:0:0:0:
399,365,118533,1,0,0:0:0:0:
410,356,118613,1,0,0:0:0:0:
420,345,118693,1,0,0:0:0:0:
428,333,118773,1,0,0:0:0:0:
435,319,118852,1,0,0:0:0:0:
439,305,118932,1,0,0:0:0:0:
441,291,119012,1,0,0:0:0:0:
441,276,119092,1,0,0:0:0:0:
439,262,119172,1,0,0:0:0:0:
435,248,119251,1,0,0:0:0:0:
429,234,119331,1,0,0:0:0:0:
421,222,119411,1,0,0:0:0:0:
411,211,119491,1,0,0:0:0:0:
400,202,119571,1,0,0:0:0:0:
388,194,119650,1,0,0:0:0:0:
378,188,119731,1,0,0:0:0:0:
365,180,119810,1,0,0:0:0:0:
354,171,119890,1,0,0:0:0:0:
344,160,119970,1,0,0:0:0:0:
336,148,120050,1,0,0:0:0:0:
329,134,120129,1,0,0:0:0:0:
325,120,120209,1,0,0:0:0:0:
323,106,120289,1,0,0:0:0:0:
323,91,120369,1,0,0:0:0:0:
325,77,120449,1,0,0:0:0:0:
329,63,120528,1,0,0:0:0:0:
335,49,120608,1,0,0:0:0:0:
343,37,120688,1,0,0:0:0:0:
353,26,120768,1,0,0:0:0:0:
364,17,120848,1,0,0:0:0:0:
376,14,120927,1,0,0:0:0:0:
406,18,121008,5,0,0:0:0:0:
400,48,121087,1,0,0:0:0:0:
387,77,121167,1,0,0:0:0:0:
368,102,121247,1,0,0:0:0:0:
343,121,121327,1,0,0:0:0:0:
314,134,121406,1,0,0:0:0:0:
284,139,121486,1,0,0:0:0:0:
252,137,121566,1,0,0:0:0:0:
222,123,121646,1,0,0:0:0:0:
196,141,121726,1,0,0:0:0:0:
175,163,121806,1,0,0:0:0:0:
160,191,121885,1,0,0:0:0:0:
152,222,121965,1,0,0:0:0:0:
153,253,122045,1,0,0:0:0:0:
160,284,122125,1,0,0:0:0:0:
176,312,122204,1,0,0:0:0:0:
197,337,122284,6,0,L|207:299,28,27.5
289,361,123561,5,2,0:0:0:0:
481,251,123720,1,2,0:0:0:0:
246,272,123880,1,2,0:0:0:0:
368,349,124039,1,2,0:0:0:0:
284,356,124199,1,2,0:0:0:0:
476,246,124358,1,2,0:0:0:0:
241,267,124518,1,2,0:0:0:0:
363,344,124677,1,2,0:0:0:0:
292,99,124837,1,2,0:0:0:0:
241,267,124997,1,2,0:0:0:0:
425,78,125156,1,2,0:0:0:0:
476,246,125316,1,2,0:0:0:0:
241,267,125476,1,2,0:0:0:0:
292,99,125636,1,2,0:0:0:0:
108,288,125795,1,2,0:0:0:0:
57,120,125955,1,2,0:0:0:0:
241,267,126114,1,2,0:0:0:0:
108,288,126273,1,2,0:0:0:0:
24,182,126433,1,2,0:0:0:0:
292,99,126593,1,2,0:0:0:0:
107,17,126752,1,2,0:0:0:0:
154,212,126912,1,2,0:0:0:0:
51,78,127071,1,2,0:0:0:0:
154,212,127231,1,2,0:0:0:0:
299,349,127391,1,2,0:0:0:0:
140,293,127550,1,2,0:0:0:0:
313,268,127710,1,2,0:0:0:0:
292,99,127869,1,2,0:0:0:0:
154,212,128029,1,2,0:0:0:0:
299,349,128188,1,2,0:0:0:0:
344,190,128348,1,2,0:0:0:0:
199,327,128507,1,2,0:0:0:0:
429,232,128667,5,2,0:0:0:0:
475,67,128827,1,2,0:0:0:0:
344,190,128986,1,2,0:0:0:0:
298,25,129146,1,2,0:0:0:0:
185,167,129305,1,2,0:0:0:0:
139,332,129465,1,2,0:0:0:0:
8,209,129624,1,2,0:0:0:0:
54,374,129784,1,2,0:0:0:0:
185,167,129944,1,2,0:0:0:0:
8,209,130103,1,2,0:0:0:0:
248,241,130263,1,2,0:0:0:0:
71,283,130422,1,2,0:0:0:0:
203,79,130582,1,2,0:0:0:0:
26,121,130741,1,2,0:0:0:0:
248,241,130901,1,2,0:0:0:0:
206,64,131060,1,2,0:0:0:0:
335,178,131220,1,2,0:0:0:0:
293,366,131379,1,2,0:0:0:0:
442,225,131539,1,2,0:0:0:0:
248,241,131699,1,2,0:0:0:0:
442,225,131859,1,2,0:0:0:0:
335,178,132018,1,2,0:0:0:0:
248,241,132178,1,2,0:0:0:0:
349,57,132337,1,2,0:0:0:0:
412,144,132497,1,2,0:0:0:0:
365,251,132656,1,2,0:0:0:0:
256,293,132816,1,2,0:0:0:0:
128,62,132976,1,2,0:0:0:0:
81,169,133135,1,0,0:0:0:0:
349,57,133295,1,0,0:0:0:0:
256,293,133454,1,0,0:0:0:0:
366,24,133614,1,0,0:0:0:0:
128,62,133773,6,2,B|61:69|61:69|9:51,1,110
188,175,134093,2,2,B|147:161|147:161|80:168,1,110
362,299,134412,2,2,B|329:286|329:286|288:297|288:297|254:292,1,110
80,336,134731,1,2,0:0:0:0:
188,175,134890,1,2,0:0:0:0:
23,238,135050,1,2,0:0:0:0:
174,351,135210,1,2,0:0:0:0:
255,99,135369,1,2,0:0:0:0:
81,173,135529,1,2,0:0:0:0:
279,235,135688,1,2,0:0:0:0:
301,47,135848,1,2,0:0:0:0:
146,199,136008,1,2,0:0:0:0:
297,312,136168,1,2,0:0:0:0:
81,173,136327,1,2,0:0:0:0:
301,47,136486,1,2,0:0:0:0:
146,199,136646,1,2,0:0:0:0:
366,325,136805,1,2,0:0:0:0:
255,99,136965,1,2,0:0:0:0:
224,250,137125,1,2,0:0:0:0:
77,205,137284,1,2,0:0:0:0:
255,99,137444,1,2,0:0:0:0:
286,250,137604,1,2,0:0:0:0:
433,205,137763,1,2,0:0:0:0:
402,54,137922,1,2,0:0:0:0:
286,250,138082,1,2,0:0:0:0:
165,49,138242,1,0,0:0:0:0:
116,238,138402,1,0,0:0:0:0:
109,287,138482,1,0,0:0:0:0:
102,335,138561,1,0,0:0:0:0:
41,93,138720,1,0,0:0:0:0:
207,166,138880,5,0,0:0:0:0:
214,161,138959,1,0,0:0:0:0:
222,157,139039,1,0,0:0:0:0:
230,153,139119,1,0,0:0:0:0:
238,149,139199,1,0,0:0:0:0:
246,145,139278,1,0,0:0:0:0:
254,141,139358,1,0,0:0:0:0:
262,137,139438,1,0,0:0:0:0:
269,133,139518,1,0,0:0:0:0:
277,129,139598,1,0,0:0:0:0:
284,123,139677,1,0,0:0:0:0:
290,117,139757,1,0,0:0:0:0:
296,110,139837,1,0,0:0:0:0:
302,103,139917,1,0,0:0:0:0:
307,96,139997,1,0,0:0:0:0:
313,90,140076,1,0,0:0:0:0:
319,83,140156,1,0,0:0:0:0:
325,76,140236,1,0,0:0:0:0:
331,70,140316,1,0,0:0:0:0:
336,63,140395,1,0,0:0:0:0:
342,56,140475,1,0,0:0:0:0:
348,50,140555,1,0,0:0:0:0:
355,45,140635,1,0,0:0:0:0:
364,44,140715,1,0,0:0:0:0:
373,42,140794,1,0,0:0:0:0:
381,41,140874,1,0,0:0:0:0:
390,40,140954,1,0,0:0:0:0:
399,38,141034,1,0,0:0:0:0:
408,37,141114,1,0,0:0:0:0:
416,36,141193,1,0,0:0:0:0:
425,34,141273,1,0,0:0:0:0:
434,33,141353,1,0,0:0:0:0:
461,29,141433,5,0,0:0:0:0:
458,58,141512,1,0,0:0:0:0:
455,87,141592,1,0,0:0:0:0:
452,116,141672,1,0,0:0:0:0:
432,134,141752,1,0,0:0:0:0:
406,148,141831,1,0,0:0:0:0:
384,164,141911,1,0,0:0:0:0:
381,193,141991,1,0,0:0:0:0:
378,222,142071,1,0,0:0:0:0:
375,252,142151,1,0,0:0:0:0:
372,281,142230,1,0,0:0:0:0:
362,306,142310,1,0,0:0:0:0:
338,321,142390,1,0,0:0:0:0:
313,337,142470,1,0,0:0:0:0:
288,353,142550,1,0,0:0:0:0:
263,368,142629,1,0,0:0:0:0:
236,362,142710,6,0,L|226:318,28,27.5
256,192,143986,5,0,0:0:0:0:
256,192,145263,5,0,0:0:0:0:
256,192,146539,5,0,0:0:0:0:
256,192,147816,5,0,0:0:0:0:
373,55,148614,5,0,0:0:0:0:
107,216,148933,5,0,0:0:0:0:
121,257,149013,1,0,0:0:0:0:
134,298,149093,6,0,B|190:286|190:286|208:316|241:333|290:330|321:309,1,165.000006294251
353,126,149412,2,0,B|315:125|315:125|259:249,1,165.000006294251
459,240,149731,5,0,0:0:0:0:
325,54,149890,1,0,0:0:0:0:
471,189,150050,1,0,0:0:0:0:
284,323,150209,1,0,0:0:0:0:
247,304,150289,1,0,0:0:0:0:
205,307,150369,6,0,B|155:322|155:322|34:309,1,165.000006294251
232,191,150688,2,0,L|415:130,1,165.000006294251
205,307,151008,2,0,P|116:226|181:76,2,247.500009441376
388,138,151646,6,0,B|309:99|265:34|265:34|222:20|174:71,1,247.500009441376
164,80,151965,1,0,0:0:0:0:
6,171,152125,1,0,0:0:0:0:
6,171,152284,2,0,B|85:210|129:275|129:275|172:289|220:238,1,247.500009441376
230,230,152603,1,0,0:0:0:0:
305,60,152763,1,0,0:0:0:0:
389,277,152922,6,0,B|397:224|351:190|351:190|361:152|409:124,1,165.000006294251
488,329,153242,1,0,0:0:0:0:
314,260,153401,1,0,0:0:0:0:
305,60,153561,1,0,0:0:0:0:
80,170,153720,2,0,L|101:263,1,82.5000031471254
191,87,153960,2,0,L|170:-6,1,82.5000031471254
0,180,154199,6,0,L|37:340,1,165.000006294251
240,132,154518,2,0,L|79:169,1,165.000006294251,0|0,0:0|0:0,0:0:0:0:
267,218,154837,2,0,L|427:181,1,165.000006294251,0|0,0:0|0:0,0:0:0:0:
454,84,155077,1,0,0:0:0:0:
393,7,155156,2,0,L|232:44,1,165.000006294251,0|0,0:0|0:0,0:0:0:0:
217,289,155476,6,0,P|316:289|351:232,1,165.000006294251
285,69,155795,2,0,P|186:69|151:126,1,165.000006294251
3,262,156114,2,0,P|102:262|137:205,1,165.000006294251
152,116,156353,1,0,0:0:0:0:
207,33,156433,2,0,P|265:86|254:165,1,165.000006294251
167,295,156752,5,0,0:0:0:0:
296,78,156911,1,0,0:0:0:0:
100,270,157071,5,0,0:0:0:0:
344,207,157230,1,0,0:0:0:0:
318,2,157390,5,0,0:0:0:0:
234,227,157550,1,0,0:0:0:0:
296,78,157710,5,0,0:0:0:0:
395,296,157870,1,0,0:0:0:0:
155,203,158029,1,0,0:0:0:0:
97,367,158188,5,0,0:0:0:0:
87,327,158267,1,0,0:0:0:0:
59,297,158347,1,0,0:0:0:0:
34,264,158427,1,0,0:0:0:0:
32,224,158507,1,0,0:0:0:0:
79,74,158667,1,0,0:0:0:0:
34,264,158827,1,0,0:0:0:0:
220,158,158986,1,0,0:0:0:0:
12,105,159146,1,0,0:0:0:0:
12,105,159226,1,0,0:0:0:0:
12,105,159305,6,0,P|109:76|193:99,1,165.000006294251
188,272,159625,2,0,B|278:255|278:255|326:188,1,165.000006294251
313,59,159944,1,0,0:0:0:0:
362,271,160103,1,0,0:0:0:0:
429,97,160263,1,0,0:0:0:0:
220,158,160422,1,0,0:0:0:0:
188,167,160502,1,0,0:0:0:0:
159,175,160582,6,0,B|102:187|102:187|59:212|59:212|70:177|70:177|72:128,1,165.000006294251
209,40,160901,2,0,B|266:28|266:28|309:3|309:3|298:38|298:38|298:59,1,165.000006294251
354,227,161220,6,0,B|364:261|364:261|362:287|379:338|379:338|403:355|433:382|433:382|445:341|445:341|481:317,2,247.500009441376
209,40,161859,2,0,B|180:32|143:36|143:36|114:79|117:145|117:145|152:166|183:163|183:163,1,247.500009441376,0|0,0:0|0:0,0:0:0:0:
211,154,162178,1,0,0:0:0:0:
381,196,162337,1,0,0:0:0:0:
381,196,162497,2,0,B|407:210|430:239|430:239|420:290|371:335|371:335|332:325|312:301|314:303,1,247.500009441376,0|0,0:0|0:0,0:0:0:0:
298,275,162816,1,0,0:0:0:0:
256,92,162976,1,0,0:0:0:0:
168,232,163135,6,0,P|76:208|16:152,1,165.000006294251
168,320,163454,1,0,0:0:0:0:
344,196,163614,1,0,0:0:0:0:
220,20,163773,1,0,3:0:0:0:
232,192,163933,1,0,0:0:0:0:
244,232,164013,1,0,0:0:0:0:
272,264,164092,1,0,0:0:0:0:
420,120,164252,1,0,0:0:0:0:
215,54,164412,6,0,P|121:38|41:57,1,165.000006294251
232,192,164731,1,0,0:0:0:0:
313,15,164890,1,0,0:0:0:0:
133,175,165050,2,0,P|178:254|258:295,1,165.000006294251
288,109,165369,1,0,0:0:0:0:
356,317,165529,6,0,B|348:205|348:205|398:82|399:41|399:41|399:47,1,247.500009441376
390,44,165848,1,0,0:0:0:0:
470,219,166008,1,0,0:0:0:0:
288,109,166167,1,0,0:0:0:0:
494,92,166327,1,0,0:0:0:0:
329,229,166486,2,0,B|261:245|261:245|159:232,1,165.000006294251
45,18,166805,6,0,P|85:155|63:317,1,247.500009441376
62,293,167125,1,0,0:0:0:0:
181,104,167284,1,0,0:0:0:0:
237,355,167444,1,0,0:0:0:0:
118,166,167603,1,0,0:0:0:0:
101,371,167763,2,0,B|161:340|161:340|167:304|197:273|235:272|282:277,1,165.000006294251
451,180,168082,5,0,0:0:0:0:
451,180,168242,2,0,B|358:137|358:137|319:47,1,165.000006294251
167,34,168561,2,0,B|224:58|224:58|267:151,1,165.000006294251
345,322,168880,5,0,0:0:0:0:
462,61,169039,1,0,0:0:0:0:
167,34,169199,5,0,0:0:0:0:
434,135,169358,1,0,0:0:0:0:
426,346,169518,6,0,P|394:252|305:246,1,165.000006294251
161,353,169837,2,0,P|196:253|178:154,1,165.000006294251
106,42,170156,1,0,0:0:0:0:
2,206,170316,2,0,L|140:110,1,165.000006294251
495,83,170635,6,0,L|246:38,1,247.500009441376
214,32,170954,1,0,0:0:0:0:
350,184,171114,1,0,0:0:0:0:
197,317,171273,1,0,3:0:0:0:
61,164,171433,1,0,3:0:0:0:
312,79,171593,1,0,0:0:0:0:
356,360,171912,6,0,B|329:237|357:146|487:140,1,247.500009441376
467,142,172231,1,0,0:0:0:0:
262,231,172390,2,0,B|271:137|271:137|331:60,1,165.000006294251
422,240,172710,1,0,0:0:0:0:
196,177,172869,1,0,0:0:0:0:
6,303,173188,5,0,0:0:0:0:
6,303,173348,2,0,B|96:257|131:328|259:262,1,247.500009441376
273,239,173667,1,0,0:0:0:0:
365,60,173827,1,0,0:0:0:0:
369,303,173986,1,0,0:0:0:0:
277,124,174146,1,0,0:0:0:0:
277,124,174226,1,0,0:0:0:0:
277,124,174305,1,0,0:0:0:0:
95,196,174465,1,0,0:0:0:0:
216,365,174625,6,0,B|271:276|271:276|220:209,1,165.000006294251
113,58,174944,2,0,B|58:147|58:147|109:214,1,165.000006294251
277,124,175263,1,0,0:0:0:0:
369,303,175422,2,0,B|314:214|314:214|365:147,1,165.000006294251
510,40,175742,6,0,P|391:92|215:43,1,247.500009441376
250,61,176061,1,0,0:0:0:0:
128,192,176220,1,0,0:0:0:0:
265,49,176380,1,0,0:0:0:0:
407,187,176539,1,0,0:0:0:0:
270,329,176699,2,0,P|222:235|245:159,1,165.000006294251
395,24,177018,6,0,P|392:161|319:234,1,247.500009441376
292,247,177337,1,0,0:0:0:0:
326,71,177497,1,0,0:0:0:0:
421,295,177656,1,0,0:0:0:0:
196,240,177816,2,0,P|100:224|20:230,1,165.000006294251
256,312,178135,5,0,0:0:0:0:
256,312,178295,1,0,0:0:0:0:
388,100,178614,1,0,0:0:0:0:
124,100,178933,1,0,0:0:0:0:
384,268,179252,1,0,0:0:0:0:
128,268,179412,1,0,0:0:0:0:
256,40,179571,1,0,0:0:0:0:
240,230,179731,5,0,0:0:0:0:
243,262,179810,1,0,0:0:0:0:
237,295,179890,1,0,0:0:0:0:
223,324,179970,1,0,0:0:0:0:
201,349,180050,1,0,0:0:0:0:
173,366,180129,1,0,0:0:0:0:
141,375,180209,1,0,0:0:0:0:
108,375,180289,1,0,0:0:0:0:
77,366,180369,1,0,0:0:0:0:
49,349,180449,1,0,0:0:0:0:
27,325,180528,1,0,0:0:0:0:
12,295,180608,1,0,0:0:0:0:
6,263,180688,1,0,0:0:0:0:
9,230,180768,1,0,0:0:0:0:
21,200,180848,1,0,0:0:0:0:
41,173,180927,1,0,0:0:0:0:
65,150,181008,1,0,0:0:0:0:
91,129,181087,1,0,0:0:0:0:
121,116,181167,1,0,0:0:0:0:
153,112,181247,1,0,0:0:0:0:
186,116,181327,1,0,0:0:0:0:
218,124,181406,1,0,0:0:0:0:
250,131,181486,1,0,0:0:0:0:
283,132,181566,1,0,0:0:0:0:
316,127,181646,1,0,0:0:0:0:
346,115,181726,1,0,0:0:0:0:
375,98,181805,1,0,0:0:0:0:
401,78,181885,1,0,0:0:0:0:
421,52,181965,1,0,0:0:0:0:
403,80,182044,1,0,0:0:0:0:
394,111,182124,1,0,0:0:0:0:
393,144,182204,1,0,0:0:0:0:
397,176,182284,5,0,0:0:0:0:
398,136,182363,1,0,0:0:0:0:
388,98,182443,1,0,0:0:0:0:
368,64,182523,1,0,0:0:0:0:
340,36,182603,1,0,0:0:0:0:
305,16,182682,1,0,0:0:0:0:
268,6,182762,1,0,0:0:0:0:
229,6,182842,1,0,0:0:0:0:
190,17,182922,1,0,0:0:0:0:
157,38,183002,1,0,0:0:0:0:
129,66,183081,1,0,0:0:0:0:
110,101,183161,1,0,0:0:0:0:
101,140,183241,1,0,0:0:0:0:
103,179,183321,1,0,0:0:0:0:
113,216,183401,1,0,0:0:0:0:
135,250,183480,1,0,0:0:0:0:
167,280,183561,6,0,P|188:291|208:290,28,27.5
47,168,184837,5,2,0:0:0:0:
95,348,184997,1,2,0:0:0:0:
178,112,185156,1,2,0:0:0:0:
85,274,185316,1,2,0:0:0:0:
269,165,185476,5,2,0:0:0:0:
176,3,185636,1,2,0:0:0:0:
190,204,185795,1,2,2:0:0:0:
370,156,185955,1,2,2:0:0:0:
349,383,186114,6,2,P|396:305|461:295,1,110
223,308,186433,2,2,L|179:171,1,110
274,57,186752,2,2,P|276:142|245:205,1,110
85,274,187071,2,2,P|114:227|157:193,1,110
290,145,187390,6,2,P|333:111|362:64,2,110
127,87,187869,1,2,0:0:0:0:
41,225,188029,5,2,0:0:0:0:
128,235,188188,1,2,0:0:0:0:
215,246,188348,1,2,0:0:0:0:
125,328,188508,1,2,0:0:0:0:
125,164,188667,5,2,0:0:0:0:
212,153,188827,1,2,0:0:0:0:
299,143,188986,1,2,0:0:0:0:
215,246,189145,1,2,0:0:0:0:
270,64,189305,5,2,0:0:0:0:
348,224,189465,1,2,0:0:0:0:
212,153,189625,1,2,0:0:0:0:
382,61,189784,1,2,0:0:0:0:
420,268,189944,5,2,0:0:0:0:
184,300,190103,1,2,0:0:0:0:
200,292,190263,1,2,0:0:0:0:
430,260,190422,1,2,0:0:0:0:
446,252,190582,1,2,0:0:0:0:
184,300,190742,1,2,0:0:0:0:
446,252,190901,1,2,0:0:0:0:
200,292,191061,1,2,0:0:0:0:
403,339,191220,5,2,0:0:0:0:
416,151,191380,1,2,0:0:0:0:
260,350,191539,1,2,0:0:0:0:
273,162,191699,1,2,0:0:0:0:
200,292,191859,5,2,0:0:0:0:
376,248,192018,1,2,0:0:0:0:
332,71,192177,1,2,0:0:0:0:
156,115,192337,1,2,0:0:0:0:
336,164,192497,5,2,0:0:0:0:
288,312,192656,1,2,0:0:0:0:
144,184,192816,1,2,0:0:0:0:
356,284,192976,1,2,0:0:0:0:
347,64,193135,5,2,0:0:0:0:
252,184,193295,1,2,0:0:0:0:
184,60,193454,1,2,0:0:0:0:
66,173,193614,5,2,0:0:0:0:
48,20,193774,1,2,0:0:0:0:
184,60,193933,1,2,0:0:0:0:
202,213,194093,1,2,0:0:0:0:
0,276,194252,5,2,0:0:0:0:
148,144,194412,2,2,L|288:120,1,110
168,344,194731,2,2,L|28:320,1,110
282,241,195050,6,2,P|338:309|330:369,1,110
202,213,195369,2,2,P|270:157|330:164,1,110
492,168,195688,2,2,P|444:193|390:188,1,110
368,32,196008,2,2,P|409:66|425:118,1,110
412,296,196327,5,2,0:0:0:0:
416,288,196486,1,2,0:0:0:0:
282,241,196646,5,2,0:0:0:0:
268,136,196805,1,2,0:0:0:0:
416,212,196965,5,2,0:0:0:0:
284,344,197125,1,2,0:0:0:0:
282,241,197284,1,2,0:0:0:0:
416,288,197444,1,2,0:0:0:0:
212,296,197603,5,2,0:0:0:0:
152,308,197763,1,2,0:0:0:0:
92,320,197922,1,2,0:0:0:0:
44,164,198082,1,2,0:0:0:0:
192,48,198242,5,2,0:0:0:0:
156,212,198401,1,2,0:0:0:0:
192,48,198561,1,2,0:0:0:0:
156,212,198720,5,2,2:0:0:0:
320,248,198879,1,2,2:0:0:0:
156,212,199039,1,2,2:0:0:0:
320,248,199199,1,2,2:0:0:0:
192,48,199359,5,2,0:0:0:0:
320,248,199518,1,2,0:0:0:0:
356,84,199678,1,2,2:0:0:0:
476,288,199837,1,2,0:0:0:0:
512,124,199997,1,2,2:0:0:0:
320,248,200156,6,0,P|310:183|316:159,1,55,4|0,0:0|0:0,0:0:0:0:
192,48,200316,2,0,P|202:113|196:137,1,55,4|0,0:0|0:0,0:0:0:0:
175,267,200476,2,0,P|214:191|267:149,1,110,4|0,0:0|0:0,0:0:0:0:
356,84,200795,6,0,P|316:79|279:83,1,55,4|0,0:0|0:0,0:0:0:0:
109,111,200955,2,0,P|81:111|54:106,1,55,4|0,0:0|0:0,0:0:0:0:
230,174,201114,2,0,P|261:229|267:322,1,110,4|0,0:0|0:0,0:0:0:0:
109,350,201433,6,0,B|105:328|105:328|123:288,1,55,4|0,0:0|0:0,0:0:0:0:
240,122,201593,2,0,B|244:144|244:144|226:184,1,55,4|0,0:0|0:0,0:0:0:0:
48,202,201752,2,0,B|76:199|76:199|171:226,1,110,4|0,0:0|0:0,0:0:0:0:
291,340,202071,6,0,B|333:353|333:353|360:348,1,55,4|0,0:0|0:0,0:0:0:0:
492,277,202231,2,0,B|450:290|450:290|423:285,1,55,4|0,0:0|0:0,0:0:0:0:
294,188,202390,2,0,P|329:144|367:183,1,110,4|0,0:0|0:0,0:0:0:0:
291,340,202710,5,0,0:0:0:0:
275,334,202789,1,0,0:0:0:0:
259,329,202869,1,0,0:0:0:0:
243,326,202949,1,0,0:0:0:0:
227,323,203029,1,0,0:0:0:0:
210,321,203108,1,0,0:0:0:0:
194,319,203188,1,0,0:0:0:0:
177,319,203268,1,0,0:0:0:0:
161,319,203348,1,0,0:0:0:0:
145,321,203428,1,0,0:0:0:0:
128,323,203507,1,0,0:0:0:0:
112,326,203587,1,0,0:0:0:0:
96,329,203667,1,0,0:0:0:0:
80,334,203747,1,0,0:0:0:0:
66,343,203827,1,0,0:0:0:0:
91,332,203906,1,0,0:0:0:0:
112,315,203986,1,0,0:0:0:0:
128,292,204066,1,0,0:0:0:0:
137,266,204146,1,0,0:0:0:0:
139,239,204225,1,0,0:0:0:0:
132,212,204305,1,0,0:0:0:0:
119,188,204385,1,0,0:0:0:0:
100,169,204465,1,0,0:0:0:0:
76,155,204545,1,0,0:0:0:0:
50,149,204625,1,0,0:0:0:0:
82,155,204704,1,0,0:0:0:0:
115,157,204784,1,0,0:0:0:0:
148,155,204864,1,0,0:0:0:0:
180,149,204944,1,0,0:0:0:0:
212,140,205023,1,0,0:0:0:0:
243,128,205103,1,0,0:0:0:0:
272,112,205183,1,0,0:0:0:0:
300,95,205263,6,2,P|286:203|262:275,1,137.5
37,235,205582,2,2,P|123:169|191:135,1,137.5,2|2,0:0|0:0,0:0:0:0:
300,338,205901,2,2,P|192:323|120:299,1,137.5
148,155,206220,1,2,0:0:0:0:
126,343,206380,1,2,0:0:0:0:
310,225,206539,5,2,0:0:0:0:
148,155,206699,1,2,0:0:0:0:
321,241,206859,5,2,0:0:0:0:
159,311,207019,1,2,0:0:0:0:
332,254,207178,5,2,0:0:0:0:
262,92,207338,1,2,0:0:0:0:
344,265,207497,5,2,0:0:0:0:
414,103,207657,1,2,0:0:0:0:
450,307,207816,5,2,0:0:0:0:
330,338,207976,1,2,0:0:0:0:
179,327,208135,1,2,0:0:0:0:
13,228,208295,1,2,0:0:0:0:
194,172,208454,5,2,0:0:0:0:
101,357,208614,1,2,0:0:0:0:
256,312,208773,1,2,0:0:0:0:
318,172,208933,5,2,0:0:0:0:
411,357,209093,1,2,0:0:0:0:
256,312,209252,1,2,0:0:0:0:
256,136,209412,1,2,0:0:0:0:
96,168,209571,1,2,0:0:0:0:
254,53,209731,6,2,P|319:83|339:145,1,137.5
97,252,210050,2,2,P|32:222|12:160,1,137.5
256,136,210369,5,2,0:0:0:0:
405,283,210529,1,2,0:0:0:0:
198,210,210688,1,2,0:0:0:0:
391,111,210848,1,2,0:0:0:0:
463,334,211008,1,2,0:0:0:0:
280,226,211167,1,2,0:0:0:0:
263,27,211327,2,2,P|288:108|283:180,1,137.5
259,356,211646,5,2,0:0:0:0:
265,322,211805,1,2,0:0:0:0:
104,201,211965,5,2,0:0:0:0:
110,235,212124,1,2,0:0:0:0:
402,235,212284,5,2,0:0:0:0:
408,201,212443,1,2,0:0:0:0:
253,28,212603,5,2,0:0:0:0:
247,62,212762,1,2,0:0:0:0:
338,266,212922,5,2,0:0:0:0:
395,119,213081,1,2,0:0:0:0:
247,62,213241,1,2,0:0:0:0:
191,210,213401,1,2,0:0:0:0:
386,195,213561,6,2,P|419:292|389:331,2,137.5
148,279,214039,2,2,P|115:182|145:143,2,137.5
247,62,214518,1,2,0:0:0:0:
338,266,214678,1,2,0:0:0:0:
178,347,214837,5,0,0:0:0:0:
319,77,214997,1,0,0:0:0:0:
334,347,215156,5,0,0:0:0:0:
193,77,215316,1,0,0:0:0:0:
421,153,215476,6,10,B|356:83|356:83|313:75,1,137.5,2|2,0:0|0:0,0:0:0:0:
86,0,215795,2,10,B|150:69|150:69|193:77,1,137.5,2|2,0:0|0:0,0:0:0:0:
264,285,216114,2,2,B|267:190|267:190|242:154,1,137.5
76,151,216433,1,2,0:0:0:0:
262,95,216593,1,2,0:0:0:0:
390,269,216752,6,2,B|481:239|481:239|517:276,1,137.5
264,285,217071,2,2,B|173:315|173:315|137:278,1,137.5
262,95,217390,1,2,0:0:0:0:
76,151,217550,1,2,0:0:0:0:
144,0,217710,1,2,0:0:0:0:
326,56,217870,1,2,0:0:0:0:
148,107,218029,6,2,P|67:67|11:90,1,137.5
243,179,218348,2,2,P|328:150|351:94,1,137.5,2|2,0:0|0:0,3:0:0:0:
230,0,218667,1,2,0:0:0:0:
210,122,218827,1,2,0:0:0:0:
191,243,218986,1,2,0:0:0:0:
271,37,219146,1,2,0:0:0:0:
291,159,219306,1,2,0:0:0:0:
310,280,219465,1,2,0:0:0:0:
191,243,219625,1,2,0:0:0:0:
316,90,219784,1,2,0:0:0:0:
442,204,219944,5,0,0:0:0:0:
310,280,220103,1,0,0:0:0:0:
302,306,220183,1,0,0:0:0:0:
294,332,220263,1,0,0:0:0:0:
217,142,220422,1,0,0:0:0:0:
302,306,220582,5,0,0:0:0:0:
290,323,220661,1,0,0:0:0:0:
275,337,220741,1,0,0:0:0:0:
258,347,220821,1,0,0:0:0:0:
238,353,220901,1,0,0:0:0:0:
217,355,220980,1,0,0:0:0:0:
197,351,221060,1,0,0:0:0:0:
178,343,221140,1,0,0:0:0:0:
162,331,221220,1,0,0:0:0:0:
148,315,221300,1,0,0:0:0:0:
139,297,221379,1,0,0:0:0:0:
134,277,221459,1,0,0:0:0:0:
135,256,221539,1,0,0:0:0:0:
139,236,221619,1,0,0:0:0:0:
149,218,221699,1,0,0:0:0:0:
162,202,221778,1,0,0:0:0:0:
177,194,221859,1,0,0:0:0:0:
193,181,221939,1,0,0:0:0:0:
206,166,222018,1,0,0:0:0:0:
216,147,222098,1,0,0:0:0:0:
220,127,222178,1,0,0:0:0:0:
220,107,222258,1,0,0:0:0:0:
216,87,222338,1,0,0:0:0:0:
206,68,222417,1,0,0:0:0:0:
193,52,222497,1,0,0:0:0:0:
177,40,222577,1,0,0:0:0:0:
158,32,222657,1,0,0:0:0:0:
137,29,222737,1,0,0:0:0:0:
117,30,222816,1,0,0:0:0:0:
97,36,222896,1,0,0:0:0:0:
79,46,222976,1,0,0:0:0:0:
65,61,223056,1,0,0:0:0:0:
57,75,223135,5,0,0:0:0:0:
80,98,223214,1,0,0:0:0:0:
105,118,223294,1,0,0:0:0:0:
133,134,223374,1,0,0:0:0:0:
163,142,223454,1,0,0:0:0:0:
195,143,223533,1,0,0:0:0:0:
227,137,223613,1,0,0:0:0:0:
258,128,223693,1,0,0:0:0:0:
288,118,223773,1,0,0:0:0:0:
319,109,223853,1,0,0:0:0:0:
350,104,223932,1,0,0:0:0:0:
382,104,224012,1,0,0:0:0:0:
414,110,224092,1,0,0:0:0:0:
444,122,224172,1,0,0:0:0:0:
472,138,224252,1,0,0:0:0:0:
497,157,224331,1,0,0:0:0:0:
497,189,224412,6,0,L|470:225,28,27.5,0|0|0|0|0|0|0|0|0|0|0|0|0|0|0|0|0|0|0|0|0|0|0|0|0|0|0|0|0,1:0|1:0|1:0|1:0|1:0|1:0|1:0|1:0|1:0|1:0|1:0|1:0|1:0|1:0|1:0|1:0|1:0|1:0|1:0|1:0|1:0|1:0|1:0|1:0|1:0|1:0|1:0|1:0|1:0,1:0:0:0:
408,257,225688,5,0,0:0:0:0:
222,160,226327,6,0,L|206:117,14,27.5,0|0|0|0|0|0|0|0|0|0|0|0|0|0|0,1:0|1:0|1:0|1:0|1:0|1:0|1:0|1:0|1:0|1:0|1:0|1:0|1:0|1:0|1:0,1:0:0:0:
257,77,226965,6,0,P|150:79|20:87,1,192.500001835823
228,325,227284,2,0,P|253:194|168:141,1,192.500001835823
0,299,227603,2,0,P|131:243|240:250,1,192.500001835823
287,245,227843,1,0,0:0:0:0:
378,296,227922,2,0,P|374:204|456:87,1,192.500001835823
474,308,228242,5,0,0:0:0:0:
495,60,228401,1,0,0:0:0:0:
484,313,228561,5,0,0:0:0:0:
293,152,228720,1,0,0:0:0:0:
166,351,228880,6,0,B|47:249|47:249|66:186,1,192.500001835823
90,114,229119,1,0,0:0:0:0:
180,59,229199,2,0,B|299:161|299:161|288:195,1,192.500001835823
190,383,229518,5,0,0:0:0:0:
388,234,229678,1,0,0:0:0:0:
345,196,229757,1,0,0:0:0:0:
288,195,229837,1,0,0:0:0:0:
231,193,229917,1,0,0:0:0:0:
189,155,229997,1,0,0:0:0:0:
321,268,230156,1,0,0:0:0:0:
255,122,230316,1,0,0:0:0:0:
123,301,230476,1,0,0:0:0:0:
288,195,230635,5,0,0:0:0:0:
333,159,230715,1,0,0:0:0:0:
388,144,230795,1,0,0:0:0:0:
204,74,230954,1,0,0:0:0:0:
375,237,231114,1,0,0:0:0:0:
427,49,231273,1,0,0:0:0:0:
281,253,231433,6,0,B|350:334|350:334|452:309,1,192.500001835823
300,61,231752,2,0,B|231:-20|231:-20|129:5,1,192.500001835823
114,14,231992,1,0,0:0:0:0:
114,14,232071,1,0,0:0:0:0:
0,182,232231,1,0,0:0:0:0:
32,0,232390,1,0,0:0:0:0:
134,196,232550,1,0,0:0:0:0:
326,185,232710,6,0,P|338:309|223:262,2,288.750002753735
125,63,233348,2,0,P|28:142|143:190,1,288.750002753735
165,171,233667,1,0,0:0:0:0:
377,37,233827,1,0,0:0:0:0:
377,37,233986,2,0,P|474:116|359:164,1,288.750002753735
337,145,234305,1,0,0:0:0:0:
101,132,234465,1,0,0:0:0:0:
222,265,234625,6,0,B|282:378|282:378|207:338,1,192.500001835823
84,238,234944,1,0,0:0:0:0:
194,86,235103,1,0,0:0:0:0:
115,320,235263,1,0,0:0:0:0:
5,168,235422,1,0,0:0:0:0:
5,168,235502,1,0,0:0:0:0:
5,168,235582,1,0,0:0:0:0:
265,120,235742,1,0,0:0:0:0:
319,335,235901,6,0,B|373:309|454:324|454:324|431:262,1,192.500001835823
257,252,236220,2,0,B|198:247|133:292|110:349|110:349|96:323,1,192.500001835823
43,47,236539,6,0,P|71:183|67:267,1,192.500001835823
54,332,236779,1,0,0:0:0:0:
150,328,236859,2,0,P|246:260|302:127,1,192.500001835823
279,43,237178,5,0,0:0:0:0:
419,259,237337,1,0,0:0:0:0:
179,182,237497,5,0,0:0:0:0:
373,17,237656,1,0,0:0:0:0:
419,259,237816,6,0,B|429:183|429:183|413:161|413:161|328:133,1,192.500001835823
217,99,238055,1,0,0:0:0:0:
109,142,238135,2,0,B|24:170|24:170|8:192|8:192|18:267,1,192.500001835823
197,329,238454,5,0,0:0:0:0:
440,382,238614,1,0,0:0:0:0:
257,261,238773,1,0,0:0:0:0:
14,314,238933,1,0,0:0:0:0:
281,346,239093,6,0,P|344:260|228:180,1,192.500001835823
209,142,239332,1,0,0:0:0:0:
111,199,239412,2,0,P|221:277|289:188,1,192.500001835823
447,124,239731,5,0,0:0:0:0:
447,353,239890,1,0,0:0:0:0:
416,316,239969,1,0,0:0:0:0:
390,275,240049,1,0,0:0:0:0:
372,231,240129,1,0,0:0:0:0:
360,184,240209,1,0,0:0:0:0:
422,22,240369,1,0,0:0:0:0:
447,124,240529,1,0,0:0:0:0:
301,228,240688,1,0,0:0:0:0:
135,37,240848,5,0,0:0:0:0:
121,83,240927,1,0,0:0:0:0:
120,131,241008,2,0,P|128:220|173:334,1,192.500001835823
372,231,241327,2,0,B|262:165|262:165|166:202,1,192.500001835823
16,258,241646,1,0,0:0:0:0:
201,97,241805,1,0,0:0:0:0:
163,316,241965,1,0,0:0:0:0:
56,99,242125,5,0,0:0:0:0:
56,99,242204,1,0,0:0:0:0:
56,100,242284,2,0,B|108:216|149:240|181:222,1,192.500001835823
249,31,242603,2,0,B|281:13|322:37|373:153,1,192.500001835823
454,351,242922,6,0,B|428:331|415:305|415:305|335:294|293:316|293:316|236:305|236:305|205:256,2,288.750002753735
356,199,243561,6,0,B|391:148|391:80|356:28|356:28|351:20|341:16|331:19|331:19|322:20|314:29|314:39|314:39|313:49|319:58|328:62|328:62|337:66|348:63|354:56,1,288.75
391,50,243880,1,0,0:0:0:0:
167,6,244039,1,0,0:0:0:0:
167,6,244199,2,0,B|131:56|131:124|166:176|166:176|171:184|181:188|191:185|191:185|200:184|208:175|208:165|208:165|209:155|203:146|194:142|194:142|185:138|174:141|168:148,1,288.75
131,154,244518,1,0,0:0:0:0:
7,285,244678,1,0,0:0:0:0:
182,374,244837,6,0,B|297:352|297:352|388:320,1,192.500001835823
511,215,245156,2,0,B|396:237|396:237|305:269,1,192.500001835823
125,224,245476,1,0,0:0:0:0:
315,38,245635,1,0,0:0:0:0:
313,66,245715,1,0,0:0:0:0:
385,240,245875,1,0,0:0:0:0:
406,259,245955,1,0,0:0:0:0:
281,353,246114,5,2,0:0:0:0:
97,313,246273,1,2,0:0:0:0:
185,209,246433,1,2,0:0:0:0:
1,169,246592,1,2,0:0:0:0:
89,65,246752,1,2,0:0:0:0:
273,105,246911,1,2,0:0:0:0:
185,209,247071,1,2,0:0:0:0:
369,249,247230,1,2,0:0:0:0:
273,105,247390,1,2,0:0:0:0:
112,196,247550,1,2,0:0:0:0:
360,126,247710,1,2,0:0:0:0:
199,35,247870,1,2,0:0:0:0:
166,255,248029,1,2,0:0:0:0:
88,111,248188,1,2,0:0:0:0:
80,322,248348,1,2,0:0:0:0:
2,179,248507,1,2,0:0:0:0:
185,209,248667,1,2,0:0:0:0:
273,105,248827,1,2,0:0:0:0:
89,65,248986,1,2,0:0:0:0:
1,169,249146,1,2,0:0:0:0:
221,155,249305,1,2,0:0:0:0:
285,282,249465,1,2,0:0:0:0:
388,182,249625,1,2,0:0:0:0:
273,105,249784,1,2,0:0:0:0:
337,232,249944,1,2,0:0:0:0:
440,132,250104,1,2,0:0:0:0:
376,5,250263,1,2,0:0:0:0:
337,232,250422,1,2,0:0:0:0:
207,306,250582,1,2,0:0:0:0:
218,298,250742,1,2,0:0:0:0:
436,333,250901,1,2,0:0:0:0:
425,325,251061,1,2,0:0:0:0:
281,158,251220,5,2,0:0:0:0:
261,357,251380,1,2,0:0:0:0:
471,369,251539,1,2,0:0:0:0:
451,170,251699,1,2,0:0:0:0:
229,218,251859,1,2,0:0:0:0:
355,372,252019,1,2,0:0:0:0:
512,232,252178,1,2,0:0:0:0:
357,106,252338,1,2,0:0:0:0:
362,242,252497,1,2,0:0:0:0:
211,143,252656,1,2,0:0:0:0:
199,309,252816,1,2,0:0:0:0:
258,88,252976,1,2,0:0:0:0:
87,175,253135,1,2,0:0:0:0:
43,37,253295,1,2,0:0:0:0:
87,175,253454,1,2,0:0:0:0:
131,313,253614,1,2,0:0:0:0:
6,199,253773,1,2,0:0:0:0:
87,175,253933,1,2,0:0:0:0:
168,151,254093,1,2,0:0:0:0:
131,313,254252,1,2,0:0:0:0:
372,384,254412,1,2,0:0:0:0:
291,360,254572,1,2,0:0:0:0:
210,336,254732,1,2,0:0:0:0:
168,151,254890,1,2,0:0:0:0:
272,284,255050,1,2,0:0:0:0:
353,260,255210,1,2,0:0:0:0:
434,236,255370,1,2,0:0:0:0:
476,51,255529,1,2,0:0:0:0:
407,309,255688,1,0,0:0:0:0:
178,71,255848,1,0,0:0:0:0:
39,276,256008,1,0,0:0:0:0:
268,38,256168,1,0,0:0:0:0:
308,320,256327,6,2,B|321:256|321:256|372:227,1,110
204,64,256646,2,2,B|191:128|191:128|152:150,1,110
160,304,256965,2,2,L|240:208,1,110
357,65,257284,1,2,0:0:0:0:
204,64,257444,1,2,0:0:0:0:
349,182,257603,1,2,0:0:0:0:
441,330,257763,1,2,0:0:0:0:
430,173,257922,1,2,0:0:0:0:
338,321,258082,1,2,0:0:0:0:
357,65,258242,1,2,0:0:0:0:
449,213,258402,1,2,0:0:0:0:
265,213,258561,1,2,0:0:0:0:
357,65,258721,1,2,0:0:0:0:
185,50,258880,1,2,0:0:0:0:
100,210,259039,1,2,0:0:0:0:
185,50,259199,1,2,0:0:0:0:
265,213,259359,1,2,0:0:0:0:
50,132,259518,1,2,0:0:0:0:
98,360,259678,1,2,0:0:0:0:
100,210,259837,1,2,0:0:0:0:
315,135,259997,1,2,0:0:0:0:
267,363,260157,1,2,0:0:0:0:
265,213,260316,1,2,0:0:0:0:
100,210,260476,1,2,0:0:0:0:
364,208,260635,1,2,0:0:0:0:
171,36,260795,1,0,0:0:0:0:
222,277,260954,1,0,0:0:0:0:
222,277,261034,1,0,0:0:0:0:
222,277,261114,1,0,0:0:0:0:
449,160,261273,1,0,0:0:0:0:
494,313,261433,5,0,0:0:0:0:
469,342,261512,1,0,0:0:0:0:
435,359,261592,1,0,0:0:0:0:
396,361,261672,1,0,0:0:0:0:
361,347,261752,1,0,0:0:0:0:
333,321,261831,1,0,0:0:0:0:
319,285,261911,1,0,0:0:0:0:
319,247,261991,1,0,0:0:0:0:
334,211,262071,1,0,0:0:0:0:
339,173,262150,1,0,0:0:0:0:
335,134,262230,1,0,0:0:0:0:
321,98,262310,1,0,0:0:0:0:
299,67,262390,1,0,0:0:0:0:
270,42,262469,1,0,0:0:0:0:
235,26,262549,1,0,0:0:0:0:
198,18,262629,1,0,0:0:0:0:
159,21,262709,1,0,0:0:0:0:
123,33,262789,1,0,0:0:0:0:
90,53,262868,1,0,0:0:0:0:
64,82,262948,1,0,0:0:0:0:
46,115,263028,1,0,0:0:0:0:
37,153,263109,1,0,0:0:0:0:
71,136,263188,1,0,0:0:0:0:
109,137,263268,1,0,0:0:0:0:
142,155,263348,1,0,0:0:0:0:
164,186,263428,1,0,0:0:0:0:
168,224,263507,1,0,0:0:0:0:
155,260,263587,1,0,0:0:0:0:
127,285,263667,1,0,0:0:0:0:
90,295,263747,1,0,0:0:0:0:
53,287,263827,1,0,0:0:0:0:
23,263,263906,1,0,0:0:0:0:
9,227,263986,5,0,0:0:0:0:
37,187,264065,1,0,0:0:0:0:
75,156,264145,1,0,0:0:0:0:
122,141,264225,1,0,0:0:0:0:
171,144,264305,1,0,0:0:0:0:
219,156,264384,1,0,0:0:0:0:
267,170,264464,1,0,0:0:0:0:
315,180,264544,1,0,0:0:0:0:
364,179,264624,1,0,0:0:0:0:
410,160,264704,1,0,0:0:0:0:
446,126,264783,1,0,0:0:0:0:
473,85,264863,1,0,0:0:0:0:
507,48,264943,1,0,0:0:0:0:
498,97,265023,1,0,0:0:0:0:
498,146,265103,1,0,0:0:0:0:
506,195,265182,1,0,0:0:0:0:
505,234,265263,6,0,L|507:275,30,27.5
467,300,266539,1,0,0:0:0:0:
85,217,267178,5,0,0:0:0:0:
119,322,267417,1,0,0:0:0:0:
183,119,267656,1,0,0:0:0:0:
171,192,267816,1,0,0:0:0:0:
21,75,268454,6,0,P|108:63|156:42,1,123.750004720688
341,69,268933,1,0,0:0:0:0:
272,40,269093,1,0,0:0:0:0:
132,182,269731,5,0,0:0:0:0:
105,264,269970,1,0,0:0:0:0:
137,370,270210,1,0,0:0:0:0:
27,260,270369,1,0,0:0:0:0:
202,244,270529,1,0,0:0:0:0:
232,246,270608,1,0,0:0:0:0:
262,253,270688,1,0,0:0:0:0:
292,263,270768,1,0,0:0:0:0:
319,278,270848,1,0,0:0:0:0:
411,350,271008,1,0,0:0:0:0:
490,269,271167,1,0,0:0:0:0:
398,197,271327,1,0,0:0:0:0:
289,124,271486,1,0,0:0:0:0:
289,124,271566,1,0,0:0:0:0:
289,124,271646,1,0,0:0:0:0:
440,44,272284,5,0,0:0:0:0:
424,152,272523,1,0,0:0:0:0:
260,116,272763,1,0,0:0:0:0:
272,152,272843,1,0,0:0:0:0:
284,188,272922,1,0,0:0:0:0:
256,376,273561,5,0,0:0:0:0:
256,264,273800,1,0,0:0:0:0:
256,152,274039,1,0,0:0:0:0:
396,264,274199,1,0,0:0:0:0:
256,324,274438,1,0,0:0:0:0:
116,264,274678,1,0,0:0:0:0:
160,96,274837,1,0,0:0:0:0:
352,96,275077,1,0,0:0:0:0:
256,208,275316,1,0,0:0:0:0:
256,0,275476,1,0,0:0:0:0:
256,8,276114,5,0,0:0:0:0:
256,60,276433,1,0,0:0:0:0:
364,224,276752,1,4,0:0:0:0:
148,224,277390,5,0,0:0:0:0:
176,332,277630,1,0,0:0:0:0:
44,224,277869,1,0,0:0:0:0:
92,168,278029,1,0,0:0:0:0:
280,140,278667,6,0,B|352:128|352:128|380:80,1,123.750004720688
321,207,279146,2,0,L|236:222,1,82.5000031471254
397,310,279944,5,0,0:0:0:0:
486,375,280183,1,0,0:0:0:0:
453,227,280422,1,0,0:0:0:0:
485,111,280582,1,0,0:0:0:0:
311,135,280742,1,0,0:0:0:0:
280,140,280821,1,0,0:0:0:0:
250,149,280901,1,0,0:0:0:0:
222,162,280981,1,0,0:0:0:0:
196,178,281061,1,0,0:0:0:0:
248,288,281220,1,0,0:0:0:0:
121,210,281380,1,0,0:0:0:0:
289,212,281539,1,0,0:0:0:0:
225,69,281699,1,0,0:0:0:0:
225,69,281779,1,0,0:0:0:0:
225,69,281859,1,0,0:0:0:0:
121,210,282497,5,0,0:0:0:0:
289,212,282736,1,0,0:0:0:0:
206,349,282975,1,0,0:0:0:0:
195,313,283055,1,0,0:0:0:0:
196,275,283135,1,0,0:0:0:0:
315,105,283773,5,0,0:0:0:0:
348,269,284013,1,0,0:0:0:0:
315,105,284252,1,0,0:0:0:0:
218,217,284412,1,0,0:0:0:0:
348,269,284651,1,0,0:0:0:0:
445,157,284890,1,0,0:0:0:0:
445,157,285050,1,0,0:0:0:0:
315,105,285289,1,0,0:0:0:0:
464,232,285529,1,0,0:0:0:0:
256,192,285688,5,4,0:0:0:0:
256,192,288242,5,0,0:0:0:0:
256,116,288880,6,0,L|244:148,14,27.5000010490418,0|0|0|0|0|0|0|0|0|0|0|0|0|0|0,1:0|1:0|1:0|1:0|1:0|1:0|1:0|1:0|1:0|1:0|1:0|1:0|1:0|1:0|1:0,1:0:0:0:
188,192,289518,6,0,B|100:303|100:303|22:349|22:349,1,220
88,115,289837,1,0,0:0:0:0:
260,283,289997,1,0,0:0:0:0:
28,200,290156,6,0,P|136:110|238:132,1,220
305,169,290396,1,0,0:0:0:0:
394,233,290476,2,0,B|435:238|474:285|474:285|449:198|475:104,1,220
377,6,290795,5,0,0:0:0:0:
139,118,290954,1,0,0:0:0:0:
419,155,291114,1,0,0:0:0:0:
115,6,291273,1,0,0:0:0:0:
306,153,291433,6,0,B|353:273|353:273|238:290,1,220
153,300,291672,1,0,0:0:0:0:
42,299,291752,2,0,B|-5:179|-5:179|110:162,1,220
306,153,292071,5,0,0:0:0:0:
454,336,292231,1,0,0:0:0:0:
404,289,292310,1,0,0:0:0:0:
337,274,292390,1,0,0:0:0:0:
269,265,292470,1,0,0:0:0:0:
214,226,292550,1,0,0:0:0:0:
431,178,292710,1,0,0:0:0:0:
214,226,292869,1,0,0:0:0:0:
393,375,293029,1,0,0:0:0:0:
306,153,293188,1,0,0:0:0:0:
293,110,293268,1,0,0:0:0:0:
296,66,293348,6,0,B|305:3|305:3|244:53|101:81,1,220
20,224,293667,2,0,P|141:143|214:139,1,220
457,176,293986,1,0,0:0:0:0:
163,66,294146,1,0,0:0:0:0:
501,65,294305,1,0,0:0:0:0:
404,289,294465,1,0,0:0:0:0:
404,289,294545,1,0,0:0:0:0:
404,289,294625,6,0,P|363:230|345:51,1,220
145,181,294944,2,0,P|186:240|204:419,1,220
6,146,295263,6,0,B|25:66|142:23|207:55|207:55|242:61|271:44|271:44|256:92,2,330
231,196,295901,2,0,B|254:168|254:168|303:158|303:158|318:125|362:119|368:77|368:77|358:36|358:36|378:57|418:72|456:59,1,330
481,49,296220,1,0,0:0:0:0:
445,330,296380,1,0,0:0:0:0:
445,330,296539,2,0,B|421:302|421:302|372:292|372:292|357:259|313:253|307:211|307:211|318:170|318:170|298:191|258:206|220:193,1,330
195,183,296858,1,0,0:0:0:0:
56,383,297018,1,0,0:0:0:0:
9,156,297178,6,0,B|41:95|41:95|109:73|109:73|155:110|226:111,1,220
412,118,297497,1,0,0:0:0:0:
188,0,297656,1,0,0:0:0:0:
224,278,297816,1,0,0:0:0:0:
310,36,297976,1,0,0:0:0:0:
310,36,298055,1,0,0:0:0:0:
310,36,298135,1,0,0:0:0:0:
405,325,298295,1,0,0:0:0:0:
224,278,298454,6,0,B|152:205|114:127|114:127|117:191,1,220
12,384,298773,2,0,L|263:322,1,220
472,260,299093,6,0,B|389:236|432:125|365:80|365:80|332:76,1,220
257,52,299332,1,0,0:0:0:0:
148,80,299412,2,0,B|147:80|147:80|80:125|123:236|40:260,1,220
332,264,299731,6,0,P|408:144|504:132,1,220
336,384,300050,2,0,P|232:320|252:176,1,220
472,72,300369,6,0,B|312:140|312:140|196:72,1,220
184,48,300609,1,0,0:0:0:0:
80,20,300688,2,0,B|32:96|32:96|80:240,1,220
268,360,301008,5,0,0:0:0:0:
452,140,301167,1,0,0:0:0:0:
272,368,301327,5,0,0:0:0:0:
284,60,301486,1,0,0:0:0:0:
196,340,301646,6,0,B|160:276|80:264|28:312|28:312|44:248,1,220
64,184,301885,1,0,0:0:0:0:
116,88,301965,2,0,B|152:24|232:12|284:60|284:60|248:60|224:72,1,220
36,64,302284,5,0,0:0:0:0:
288,152,302444,1,0,0:0:0:0:
273,205,302523,1,0,0:0:0:0:
259,258,302603,1,0,0:0:0:0:
245,311,302683,1,0,0:0:0:0:
231,364,302763,1,0,0:0:0:0:
88,268,302922,1,0,0:0:0:0:
416,212,303082,1,0,0:0:0:0:
88,156,303242,1,0,0:0:0:0:
416,324,303401,5,0,0:0:0:0:
416,324,303481,1,0,0:0:0:0:
416,324,303561,2,0,P|301:223|331:134,1,220
446,28,303880,2,8,P|455:180|371:222,1,220,0|0,0:0|0:0,0:0:0:0:
131,174,304199,1,0,0:0:0:0:
415,214,304359,1,0,0:0:0:0:
254,19,304518,1,0,0:0:0:0:
153,287,304678,1,0,0:0:0:0:
153,287,304758,1,0,0:0:0:0:
153,287,304837,6,0,B|246:349|258:351|369:329,1,220
512,230,305156,2,0,B|419:168|419:168|407:166|407:166|296:188,1,220
92,304,305476,6,0,B|145:254|119:183|119:183|97:110|121:32|200:33,2,330
13,144,306114,2,0,B|143:113|233:132|233:132|274:117|273:79|273:79|293:58|320:51,1,330
335,39,306433,1,0,0:0:0:0:
497,361,306593,1,0,0:0:0:0:
497,361,306752,2,0,B|367:330|276:349|276:349|236:334|236:296|236:296|217:275|190:268,1,330
175,256,307071,1,0,0:0:0:0:
512,107,307231,1,0,0:0:0:0:
276,384,307390,6,0,B|302:244|319:204|319:204|374:155,1,220
509,290,307710,1,0,0:0:0:0:
287,53,307869,1,0,0:0:0:0:
202,297,308029,1,0,0:0:0:0:
512,107,308188,1,0,0:0:0:0:
512,107,308268,1,0,0:0:0:0:
512,107,308348,1,0,0:0:0:0:
217,83,308508,1,0,0:0:0:0:
441,242,308667,6,0,B|298:194|221:158|190:231,1,220
44,373,308986,2,0,B|102:354|102:354|134:282|75:192,1,220
90,35,309305,2,0,B|187:46|110:87|204:134|204:134|240:121|252:97,1,220
301,1,309545,1,0,0:0:0:0:
377,78,309625,2,0,P|319:193|195:253,1,220
45,297,309944,5,0,0:0:0:0:
288,129,310103,1,0,0:0:0:0:
32,302,310263,1,0,0:0:0:0:
323,249,310422,1,0,0:0:0:0:
67,182,310582,6,0,P|143:299|222:362,1,220
310,379,310821,1,0,0:0:0:0:
403,331,310901,2,0,P|378:219|316:263,1,220
494,293,311220,6,0,B|453:171|453:171|487:77,1,220
273,0,311539,2,0,B|314:122|314:122|280:216,1,220
56,129,311859,2,0,P|169:70|281:58,1,220
369,69,312098,1,0,0:0:0:0:
452,141,312178,2,0,B|313:194|313:194|234:95,1,220
176,1,312497,5,0,0:0:0:0:
64,226,312656,1,0,0:0:0:0:
114,206,312735,1,0,0:0:0:0:
144,161,312815,1,0,0:0:0:0:
144,107,312895,1,0,0:0:0:0:
114,62,312975,1,0,0:0:0:0:
106,283,313134,1,0,0:0:0:0:
76,27,313294,1,0,0:0:0:0:
328,125,313454,1,0,0:0:0:0:
236,354,313614,1,0,0:0:0:0:
236,354,313694,1,0,0:0:0:0:
236,354,313773,6,0,B|200:289|251:214|251:214|299:240|318:288,1,220
503,322,314093,2,0,P|356:319|298:371,1,220
131,248,314412,5,0,0:0:0:0:
376,347,314571,1,0,0:0:0:0:
137,177,314731,1,0,0:0:0:0:
255,379,314890,1,0,0:0:0:0:
264,335,314970,1,0,0:0:0:0:
273,291,315050,1,0,0:0:0:0:
318,85,315210,1,0,0:0:0:0:
137,177,315369,1,0,0:0:0:0:
263,26,315529,1,0,0:0:0:0:
443,118,315688,6,0,B|410:188|416:278|416:278|402:216|354:152|354:152|350:172|344:185,2,330
383,363,316327,2,0,B|300:291|275:165|275:165|235:195|156:164,1,330
142,157,316646,1,0,0:0:0:0:
407,5,316805,1,0,0:0:0:0:
407,5,316965,2,0,B|335:88|209:113|209:113|239:153|207:232,1,330
201,246,317284,1,0,0:0:0:0:
4,113,317444,1,0,0:0:0:0:
281,167,317603,6,0,P|393:114|465:49,1,220
244,37,317922,1,0,0:0:0:0:
316,269,318082,1,0,0:0:0:0:
463,50,318242,1,0,0:0:0:0:
391,282,318402,1,0,0:0:0:0:
391,282,318481,1,0,0:0:0:0:
391,282,318561,1,0,0:0:0:0:
149,376,318720,1,0,0:0:0:0:
16,152,318880,6,0,B|140:233|140:233|90:310,1,220
96,106,319199,2,0,B|94:4|94:4|198:69,1,220
360,174,319518,2,0,B|426:188|456:209|456:209|439:159|434:69,1,220
342,32,319758,1,0,0:0:0:0:
251,92,319837,2,0,B|185:78|155:57|155:57|172:107|177:197,1,220
249,384,320156,5,0,0:0:0:0:
457,246,320316,1,0,0:0:0:0:
175,172,320476,1,0,0:0:0:0:
322,376,320635,1,0,0:0:0:0:
355,116,320795,2,0,B|300:175|283:222|283:222|227:246|155:256,1,220
85,248,321034,1,0,0:0:0:0:
13,163,321114,2,0,B|74:86|135:92|135:92|172:112|213:108,1,220
447,132,321433,5,0,0:0:0:0:
194,26,321593,1,0,0:0:0:0:
458,139,321752,5,0,0:0:0:0:
183,149,321912,1,0,0:0:0:0:
470,149,322071,5,0,0:0:0:0:
224,274,322231,1,0,0:0:0:0:
432,51,322390,5,0,0:0:0:0:
423,262,322550,1,0,0:0:0:0:
89,262,322869,5,0,0:0:0:0:
80,51,323188,5,0,0:0:0:0:
322,132,323507,5,0,0:0:0:0:
42,178,323667,1,0,0:0:0:0:
272,232,323827,1,0,0:0:0:0:
284,262,323906,1,0,0:0:0:0:
297,292,323986,5,0,0:0:0:0:
344,305,324065,1,0,0:0:0:0:
392,298,324145,1,0,0:0:0:0:
434,272,324225,1,0,0:0:0:0:
462,231,324305,1,0,0:0:0:0:
470,183,324384,1,0,0:0:0:0:
458,135,324464,1,0,0:0:0:0:
428,97,324544,1,0,0:0:0:0:
385,73,324624,1,0,0:0:0:0:
336,70,324704,1,0,0:0:0:0:
290,87,324783,1,0,0:0:0:0:
247,113,324864,1,0,0:0:0:0:
208,144,324943,1,0,0:0:0:0:
162,160,325023,1,0,0:0:0:0:
113,159,325103,1,0,0:0:0:0:
67,141,325183,1,0,0:0:0:0:
30,108,325262,1,0,0:0:0:0:
7,64,325342,1,0,0:0:0:0:
5,15,325422,1,0,0:0:0:0:
53,9,325501,1,0,0:0:0:0:
100,26,325581,1,0,0:0:0:0:
134,61,325661,1,0,0:0:0:0:
150,107,325741,1,0,0:0:0:0:
145,156,325820,1,0,0:0:0:0:
124,201,325901,1,0,0:0:0:0:
119,250,325980,1,0,0:0:0:0:
135,296,326060,1,0,0:0:0:0:
169,331,326140,1,0,0:0:0:0:
216,348,326220,1,0,0:0:0:0:
265,343,326299,1,0,0:0:0:0:
309,319,326380,1,0,0:0:0:0:
346,288,326459,1,0,0:0:0:0:
385,257,326539,5,0,0:0:0:0:
333,274,326618,1,0,0:0:0:0:
278,270,326698,1,0,0:0:0:0:
230,244,326778,1,0,0:0:0:0:
196,201,326858,1,0,0:0:0:0:
181,149,326937,1,0,0:0:0:0:
189,95,327017,1,0,0:0:0:0:
217,48,327097,1,0,0:0:0:0:
262,16,327177,1,0,0:0:0:0:
315,5,327257,1,0,0:0:0:0:
369,16,327336,1,0,0:0:0:0:
419,42,327417,1,0,0:0:0:0:
412,96,327496,1,0,0:0:0:0:
405,151,327576,1,0,0:0:0:0:
399,205,327656,1,0,0:0:0:0:
392,260,327736,1,0,0:0:0:0:
381,314,327816,6,0,B|369:339|369:339|354:354,30,27.5
321,305,329093,1,0,0:0:0:0:
256,192,329172,12,0,331646,0:0:0:0:
