osu file format v14

[General]
AudioFilename: MMRY - Determine.mp3
AudioLeadIn: 0
PreviewTime: 48074
Countdown: 0
SampleSet: Normal
StackLeniency: 0.4
Mode: 0
LetterboxInBreaks: 0
WidescreenStoryboard: 1

[Editor]
DistanceSpacing: 1.2
BeatDivisor: 4
GridSize: 4
TimelineZoom: 1

[Metadata]
Title:Determine
TitleUnicode:Determine
Artist:mmry
ArtistUnicode:mmry
Creator:-N a n a k o-
Version:Normal
Source:Dynamix
Tags:佛教 Buddhism 南無阿彌陀佛 Namo Amitabha Amitayus April Fool
BeatmapID:703131
BeatmapSetID:312104

[Difficulty]
HPDrainRate:4
CircleSize:4
OverallDifficulty:4
ApproachRate:4
SliderMultiplier:1.2
SliderTickRate:2

[Events]
//Background and Video events
0,0,"maxresdefault.jpg",0,0
//Break Periods
//Storyboard Layer 0 (Background)
//Storyboard Layer 1 (Fail)
//Storyboard Layer 2 (Pass)
//Storyboard Layer 3 (Foreground)
//Storyboard Sound Samples

[TimingPoints]
62,500,4,1,0,50,1,0
62,-200,4,1,0,50,0,0
6000,500,4,1,0,50,1,0
6000,-200,4,1,0,50,0,0
16058,500,4,1,0,50,1,0
24054,500,4,1,0,50,1,0
48074,500,4,1,0,50,1,0
48074,-100,4,1,0,50,0,1
80074,-200,4,1,0,50,0,0
95564,-100,4,1,0,70,0,0

[HitObjects]
56,64,62,6,0,L|176:72,1,120
236,32,1562,1,0,0:0:0:0:
300,68,2062,2,0,P|352:48|360:36,2,60
296,212,4062,6,0,P|332:272|388:280,1,120
444,260,5562,1,0,0:0:0:0:
464,192,6062,2,0,L|484:64,1,120
360,148,8000,6,0,P|304:120|248:144,1,120
212,196,9500,1,0,0:0:0:0:
144,168,10000,2,0,P|108:132|104:116,2,60
236,280,12000,6,0,P|288:304|344:280,1,120
400,236,13500,1,0,0:0:0:0:
344,188,14000,2,0,L|384:64,1,120
64,60,16058,6,0,P|48:120|108:160,1,120
184,52,17058,2,0,L|308:44,1,120
412,140,18058,2,0,P|456:72|424:36,2,120
303,44,19558,1,0,0:0:0:0:
252,180,20058,6,0,L|284:320,1,120
416,344,21058,2,0,L|384:204,1,120
252,180,22058,2,0,P|172:164|128:200,2,120
380,112,23558,1,0,0:0:0:0:
268,24,24054,6,0,L|124:36,1,120
40,128,25054,2,0,L|184:116,1,120
236,240,26054,2,0,P|216:320|164:344,2,120
348,152,27554,1,0,0:0:0:0:
468,228,28054,6,0,L|492:96,1,120
369,33,29054,2,0,L|345:165,1,120
216,212,30054,2,0,P|152:232|96:212,1,120
64,76,31054,2,0,P|128:56|184:76,1,120
216,212,32054,6,0,L|192:292,2,60
280,80,33054,2,0,P|340:64|404:84,1,120
452,212,34054,6,0,L|496:160,2,60
360,324,35054,2,0,L|344:384,2,60
256,224,36054,6,0,P|184:224|144:268,1,120
68,372,37054,2,0,L|0:344,2,60
150,254,38054,6,0,P|144:184|96:164,1,120
64,28,39054,2,0,L|4:8,2,60
192,92,40054,6,0,P|264:108|320:80,1,120
436,32,41054,2,0,L|496:12,2,60
420,176,42054,6,0,L|416:240,2,60
305,91,43054,2,0,L|225:71,2,60
268,228,44054,6,0,P|196:244|152:220,1,120
80,104,45054,2,0,L|8:64,2,60
32,240,46054,6,0,L|48:308,1,60
64,368,46554,1,0,0:0:0:0:
200,316,47054,2,0,L|280:340,1,60
328,352,47554,1,0,0:0:0:0:
428,240,48074,6,0,P|476:160|412:88,1,180
352,128,49074,2,0,L|288:100,1,60
276,36,49574,1,0,0:0:0:0:
136,68,50074,2,0,L|64:40,2,60
180,204,51074,2,0,L|152:280,2,60
320,168,52074,6,0,P|412:160|460:244,1,180
464,296,53074,2,0,L|432:360,1,60
364,360,53574,1,0,0:0:0:0:
224,328,54074,2,0,L|160:340,2,60
128,224,55074,2,0,L|64:212,2,60
240,132,56074,6,0,P|224:56|120:44,1,180
76,80,57074,2,0,L|8:104,2,60
36,216,58074,2,0,L|48:296,1,60
56,348,58574,1,0,0:0:0:0:
192,304,59074,2,0,L|180:224,1,60
172,172,59574,1,0,0:0:0:0:
256,52,60074,6,0,P|312:24|408:80,1,180
404,148,61074,1,0,0:0:0:0:
388,216,61324,1,0,0:0:0:0:
324,248,61574,1,0,0:0:0:0:
196,180,62074,2,0,P|156:176|120:188,1,60
72,212,62574,1,0,0:0:0:0:
20,344,63074,2,0,P|60:348|96:336,1,60
144,312,63574,1,0,0:0:0:0:
284,344,64074,6,0,L|480:364,1,180
484,292,65074,2,0,L|500:212,1,60
508,160,65574,1,0,0:0:0:0:
412,52,66074,2,0,P|364:48|340:60,2,60
352,184,67074,2,0,P|400:188|424:176,2,60
224,108,68074,6,0,P|116:108|76:168,1,180
88,232,69074,2,0,L|108:308,1,60
124,360,69574,1,0,0:0:0:0:
256,300,70074,2,0,L|336:324,2,60
209,166,71074,2,0,L|229:86,2,60
84,92,72074,6,0,P|104:32|224:32,1,180
252,76,73074,2,0,L|340:88,2,60
228,220,74074,2,0,L|280:280,1,60
316,320,74574,1,0,0:0:0:0:
460,320,75074,2,0,L|408:260,1,60
372,220,75574,1,0,0:0:0:0:
276,112,76074,6,0,P|188:76|112:112,1,180
72,164,77074,1,0,0:0:0:0:
68,236,77324,1,0,0:0:0:0:
116,292,77574,1,0,0:0:0:0:
252,344,78074,2,0,L|332:336,1,60
368,292,78574,1,0,0:0:0:0:
232,240,79074,2,0,L|152:248,1,60
116,292,79574,1,0,0:0:0:0:
36,172,80074,6,0,P|48:120|112:88,1,120
172,104,81574,1,0,0:0:0:0:
212,44,82074,2,0,L|280:36,3,60
344,48,84074,6,0,P|396:80|392:136,1,120
360,200,85574,1,0,0:0:0:0:
288,200,86074,2,0,L|254:84,1,120
116,52,88074,6,0,P|56:76|48:132,1,120
96,176,89574,1,0,0:0:0:0:
92,248,90074,2,0,P|52:256|32:248,3,60
32,176,92074,6,0,L|156:156,1,120
176,224,93574,1,0,0:0:0:0:
228,272,94074,2,0,P|304:312|380:268,1,180
