osu file format v14

[General]
AudioFilename: MMRY - Determine.mp3
AudioLeadIn: 0
PreviewTime: 48074
Countdown: 0
SampleSet: Normal
StackLeniency: 0.4
Mode: 0
LetterboxInBreaks: 0
WidescreenStoryboard: 1

[Editor]
DistanceSpacing: 1
BeatDivisor: 2
GridSize: 4
TimelineZoom: 1

[Metadata]
Title:Determine
TitleUnicode:Determine
Artist:mmry
ArtistUnicode:mmry
Creator:-N a n a k o-
Version:New Normal
Source:Dynamix
Tags:佛教 Buddhism 南無阿彌陀佛 Namo Amitabha Amitayus April Fool
BeatmapID:1165822
BeatmapSetID:312104

[Difficulty]
HPDrainRate:4
CircleSize:4
OverallDifficulty:4
ApproachRate:4
SliderMultiplier:0.999999999999999
SliderTickRate:2

[Events]
//Background and Video events
0,0,"maxresdefault.jpg",0,0
//Break Periods
//Storyboard Layer 0 (Background)
//Storyboard Layer 1 (Fail)
//Storyboard Layer 2 (Pass)
//Storyboard Layer 3 (Foreground)
//Storyboard Sound Samples

[TimingPoints]
130,489.795918367347,4,1,0,60,1,0
2089,491.803278688525,4,1,0,60,1,0
4008,476.190476190476,4,1,0,60,1,0
4127,476.190476190476,4,1,0,60,1,0
6032,526.315789473684,4,1,0,60,1,0
7084,474.308300395257,4,1,0,60,1,0
8032,491.803278688525,4,1,0,60,1,0
9999,508.474576271186,4,1,0,60,1,0
11015,500,4,1,0,60,1,0
12015,500,4,1,0,60,1,0
13515,483.870967741935,4,1,0,60,1,0
13998,491.803278688525,4,1,0,60,1,0
14991,495.867768595041,4,1,0,60,1,0
16044,500,4,1,0,60,1,0
47669,555.555555555556,4,1,0,60,1,0
48085,500.000852265159,4,1,0,60,1,1
52085,495.867768595041,4,1,0,60,1,1
55804,555.555555555556,4,1,0,60,1,1
56081,500,4,1,0,60,1,1
63831,517.241379310345,4,1,0,60,1,1
64089,495.867768595041,4,1,0,60,1,1
68055,500,4,1,0,60,1,1
80055,495.867768595041,4,1,0,60,1,0
83774,535.714285714286,4,1,0,60,1,0
84041,500,4,1,0,60,1,0
87791,535.714285714286,4,1,0,60,1,0
88058,500,4,1,0,60,1,0
91808,535.714285714286,4,1,0,60,1,0
92075,500,4,1,0,60,1,0
93825,491.803278688525,4,1,0,60,1,0
95546,461.538461538462,4,1,0,60,1,0

[Colours]
Combo1 : 253,190,0
Combo2 : 255,255,128
Combo3 : 23,255,82
Combo4 : 166,166,0

[HitObjects]
176,344,16044,6,0,P|192:276|168:232,1,99.9999999999999
108,180,17044,2,0,P|92:112|116:68,1,99.9999999999999
176,20,18044,2,0,L|280:28,2,99.9999999999999
39,166,20044,6,0,L|143:174,1,99.9999999999999
206,247,21044,2,0,L|310:239,1,99.9999999999999
405,234,22044,2,0,P|418:298|396:336,2,99.9999999999999
388,34,24044,6,0,P|373:95|397:140,1,99.9999999999999
443,209,25044,2,0,L|310:202,1,99.9999999999999
260,259,26044,2,0,L|261:122,1,99.9999999999999
218,68,27044,1,0,0:0:0:0:
66,198,28044,6,0,P|29:281|137:348,1,200
196,364,29544,1,0,0:0:0:0:
292,344,30044,2,0,B|351:322|420:370|420:370|416:316|476:286,1,200
500,232,31544,1,0,0:0:0:0:
440,152,32044,6,0,P|424:104|456:52,2,99.9999999999999
500,232,33544,1,0,0:0:0:0:
400,224,34044,2,0,L|264:212,2,99.9999999999999
448,312,35544,1,0,0:0:0:0:
360,360,36044,6,0,P|308:368|244:340,2,99.9999999999999
316,268,37544,1,0,0:0:0:0:
272,176,38044,2,0,P|324:168|388:196,2,99.9999999999999
184,220,39544,1,0,0:0:0:0:
124,140,40044,6,0,P|108:92|148:36,2,99.9999999999999
184,220,41544,1,0,0:0:0:0:
256,288,42044,2,0,P|272:336|232:392,2,99.9999999999999
164,328,43544,1,0,0:0:0:0:
68,304,44044,6,0,B|20:292|20:292|0:232,2,99.9999999999999
164,328,45544,1,0,0:0:0:0:
256,288,46044,2,0,L|272:152,2,99.9999999999999
344,336,47544,1,0,0:0:0:0:
448,300,48085,6,0,B|492:280|492:280|512:220,1,99.9999999999999
412,204,49085,2,0,P|392:156|424:112,1,99.9999999999999
484,48,50085,2,0,L|360:24,1,99.9999999999999
288,12,51085,1,0,0:0:0:0:
248,104,51585,1,0,0:0:0:0:
204,196,52085,6,0,P|132:224|56:168,1,150
52,148,53076,2,0,L|64:36,1,99.9999999999999
144,108,54068,2,0,L|120:300,1,150
120,308,55060,2,0,P|168:300|232:348,1,99.9999999999999
312,356,56081,6,0,L|456:336,1,99.9999999999999
460,256,57081,1,0,0:0:0:0:
404,176,57581,1,0,0:0:0:0:
468,100,58081,2,0,P|484:48|452:0,2,99.9999999999999
404,176,59581,1,0,0:0:0:0:
308,208,60081,6,0,L|112:192,1,150
116,168,61081,2,0,L|108:288,1,99.9999999999999
200,312,62081,2,0,L|396:328,1,150
376,364,63081,2,0,L|384:244,1,99.9999999999999
388,160,64089,6,0,L|508:168,1,99.9999999999999
444,76,65080,2,0,L|324:68,1,99.9999999999999
304,160,66072,1,0,0:0:0:0:
220,212,66568,1,0,0:0:0:0:
124,192,67064,1,0,0:0:0:0:
52,120,67560,1,0,0:0:0:0:
12,28,68055,6,0,P|48:144|-4:216,1,200
76,280,69555,1,0,0:0:0:0:
164,232,70055,2,0,P|288:212|360:272,1,200
416,320,71555,1,0,0:0:0:0:
488,252,72055,6,0,P|452:136|504:64,1,200
404,24,73555,1,0,0:0:0:0:
360,112,74055,2,0,L|232:96,1,99.9999999999999
216,188,75055,2,0,L|88:172,1,99.9999999999999
40,236,76055,6,0,P|20:304|108:364,1,150
116,348,77055,2,0,L|228:316,1,99.9999999999999
308,296,78055,2,0,P|364:284|444:332,1,150
460,376,79055,2,0,L|488:264,1,99.9999999999999
504,180,80055,5,0,0:0:0:0:
