osu file format v14

[General]
AudioFilename: MMRY - Determine.mp3
AudioLeadIn: 0
PreviewTime: 48074
Countdown: 0
SampleSet: Normal
StackLeniency: 0.4
Mode: 0
LetterboxInBreaks: 0
WidescreenStoryboard: 1

[Editor]
DistanceSpacing: 1.2
BeatDivisor: 4
GridSize: 4
TimelineZoom: 1

[Metadata]
Title:Determine
TitleUnicode:Determine
Artist:mmry
ArtistUnicode:mmry
Creator:-N a n a k o-
Version:Hard
Source:Dynamix
Tags:佛教 Buddhism 南無阿彌陀佛 Namo Amitabha Amitayus April Fool
BeatmapID:704950
BeatmapSetID:312104

[Difficulty]
HPDrainRate:6
CircleSize:5.5
OverallDifficulty:6
ApproachRate:6
SliderMultiplier:1.8
SliderTickRate:2

[Events]
//Background and Video events
0,0,"maxresdefault.jpg",0,0
//Break Periods
//Storyboard Layer 0 (Background)
//Storyboard Layer 1 (Fail)
//Storyboard Layer 2 (Pass)
//Storyboard Layer 3 (Foreground)
//Storyboard Sound Samples

[TimingPoints]
62,500,4,1,0,50,1,0
62,-200,4,1,0,50,0,0
6000,500,4,1,0,50,1,0
6000,-200,4,1,0,50,0,0
16058,500,4,1,0,50,1,0
24054,500,4,1,0,50,1,0
48074,500,4,1,0,50,1,0
48074,-100,4,1,0,50,0,1
80074,-200,4,1,0,50,0,0
95574,-100,4,1,0,70,0,0

[HitObjects]
56,136,62,6,0,P|140:132|164:92,1,135
244,28,1062,2,0,L|292:36,1,45
360,124,1562,2,0,L|312:116,1,45
236,176,2062,2,0,P|252:232|292:248,2,90
356,40,3562,1,0,0:0:0:0:
472,176,4062,6,0,L|440:328,1,135
364,352,5062,2,0,P|316:364|272:340,1,90
80,348,6000,2,0,P|112:292|220:304,1,180
24,272,8000,6,0,L|56:132,1,135
104,44,9000,2,0,P|124:36|156:56,1,45
224,112,9500,2,0,P|245:117|268:112,1,45
344,40,10000,2,0,P|396:28|436:48,2,90
380,200,11500,1,0,0:0:0:0:
316,356,12000,6,0,P|264:368|184:332,1,135
120,312,13000,2,0,P|72:328|48:376,1,90
20,244,14000,2,0,P|60:196|20:92,2,180
140,372,16558,5,0,0:0:0:0:
316,336,17058,2,0,L|416:356,1,90
480,284,17558,2,0,L|380:264,1,90
344,196,18058,2,0,P|344:136|452:72,2,180
228,320,19558,1,0,0:0:0:0:
24,232,20058,6,0,P|92:224|124:124,1,180
200,56,20808,1,0,0:0:0:0:
296,100,21058,2,0,P|344:100|368:60,2,90
224,248,22058,6,0,P|248:320|356:352,1,180
488,252,23058,2,0,P|464:180|356:148,1,180
212,168,24054,6,0,L|4:204,1,180
16,284,24804,1,0,0:0:0:0:
80,344,25054,2,0,P|128:360|168:336,1,90
248,276,25554,2,0,P|200:260|160:284,1,90
244,348,26054,2,0,P|328:372|436:332,2,180
332,180,27554,1,0,0:0:0:0:
228,32,28054,6,0,P|112:24|64:100,1,180
56,148,28804,1,0,0:0:0:0:
104,228,29054,2,0,L|196:248,1,90
244,160,29554,2,0,L|336:180,1,90
420,232,30054,2,0,P|476:152|428:84,2,180
344,368,31554,1,0,0:0:0:0:
208,328,32054,5,0,0:0:0:0:
148,340,32304,1,0,0:0:0:0:
88,352,32554,1,0,0:0:0:0:
24,232,33054,1,0,0:0:0:0:
84,216,33304,1,0,0:0:0:0:
144,200,33554,1,0,0:0:0:0:
204,184,33804,1,0,0:0:0:0:
264,168,34054,5,0,0:0:0:0:
324,192,34304,1,0,0:0:0:0:
384,216,34554,1,0,0:0:0:0:
480,104,35054,1,0,0:0:0:0:
424,72,35304,1,0,0:0:0:0:
368,40,35554,1,0,0:0:0:0:
312,8,35804,1,0,0:0:0:0:
252,32,36054,5,0,0:0:0:0:
196,60,36304,1,0,0:0:0:0:
140,88,36554,1,0,0:0:0:0:
128,208,37054,1,0,0:0:0:0:
184,180,37304,1,0,0:0:0:0:
240,152,37554,1,0,0:0:0:0:
296,124,37804,1,0,0:0:0:0:
352,152,38054,5,0,0:0:0:0:
408,180,38304,1,0,0:0:0:0:
464,208,38554,1,0,0:0:0:0:
448,336,39054,1,0,0:0:0:0:
392,308,39304,1,0,0:0:0:0:
336,280,39554,1,0,0:0:0:0:
280,252,39804,1,0,0:0:0:0:
224,284,40054,5,0,0:0:0:0:
168,316,40304,1,0,0:0:0:0:
112,348,40554,1,0,0:0:0:0:
16,232,41054,1,0,0:0:0:0:
32,168,41304,1,0,0:0:0:0:
48,104,41554,1,0,0:0:0:0:
64,40,41804,1,0,0:0:0:0:
128,28,42054,5,0,0:0:0:0:
192,44,42304,1,0,0:0:0:0:
256,60,42554,1,0,0:0:0:0:
228,192,43054,1,0,0:0:0:0:
292,208,43304,1,0,0:0:0:0:
356,224,43554,1,0,0:0:0:0:
420,240,43804,1,0,0:0:0:0:
444,180,44054,5,0,0:0:0:0:
468,120,44304,1,0,0:0:0:0:
492,60,44554,1,0,0:0:0:0:
352,4,45054,1,0,0:0:0:0:
328,64,45304,1,0,0:0:0:0:
304,124,45554,1,0,0:0:0:0:
280,184,45804,1,0,0:0:0:0:
220,160,46054,5,0,0:0:0:0:
160,136,46304,1,0,0:0:0:0:
100,112,46554,1,0,0:0:0:0:
16,228,47054,1,0,0:0:0:0:
76,252,47304,1,0,0:0:0:0:
136,276,47554,1,0,0:0:0:0:
196,300,47804,1,0,0:0:0:0:
256,324,48074,6,0,L|352:364,1,90
440,304,48574,2,0,L|344:264,1,90
308,160,49074,2,0,L|404:200,1,90
492,140,49574,2,0,L|396:100,1,90
340,36,50074,2,0,P|256:12|160:40,3,180
8,192,52074,6,0,P|64:212|188:192,1,180
256,140,52824,1,0,0:0:0:0:
324,208,53074,2,0,L|424:232,2,90
256,140,53824,1,0,0:0:0:0:
300,64,54074,6,0,P|396:48|480:100,1,180
490,228,55074,2,0,P|394:244|310:192,1,180
208,108,56074,6,0,P|140:104|96:204,1,180
160,240,56824,1,0,0:0:0:0:
200,316,57074,2,0,P|196:368|156:380,1,90
72,384,57574,2,0,P|76:332|116:320,1,90
196,360,58074,2,0,P|296:356|296:260,3,180
216,192,60074,6,0,L|24:144,1,180
76,68,60824,1,0,0:0:0:0:
160,20,61074,2,0,P|212:12|256:28,1,90
372,96,61574,2,0,P|320:104|276:88,1,90
232,160,62074,2,0,P|236:224|364:240,1,180
434,361,63074,2,0,P|430:297|302:281,1,180
240,368,64074,6,0,L|44:336,1,180
16,276,64824,1,0,0:0:0:0:
72,200,65074,2,0,L|96:92,1,90
192,76,65574,2,0,L|168:184,1,90
224,248,66074,2,0,P|288:268|376:200,3,180
488,44,68074,6,0,P|424:24|336:92,1,180
256,152,68824,1,0,0:0:0:0:
168,68,69074,2,0,L|68:76,1,90
24,164,69574,2,0,L|124:156,1,90
168,68,70074,2,0,P|200:152|152:256,3,180
256,344,72074,6,0,P|300:368|420:324,1,180
456,248,72824,1,0,0:0:0:0:
420,164,73074,2,0,P|376:200|384:244,1,90
300,176,73574,2,0,P|344:140|336:96,1,90
264,64,74074,2,0,L|44:84,1,180
4,244,75074,2,0,L|224:224,1,180
372,208,76074,6,0,P|396:268|312:336,1,180
228,368,76824,1,0,0:0:0:0:
136,336,77074,2,0,P|80:340|56:300,1,90
0,240,77574,2,0,P|56:236|80:276,1,90
136,336,78074,2,0,L|184:144,1,180
328,48,79074,2,0,L|280:240,1,180
136,336,80074,6,0,P|88:332|40:252,1,135
84,184,81074,2,0,L|88:120,1,45
20,28,81574,2,0,L|16:92,1,45
86,139,82074,2,0,P|144:132|164:100,2,90
184,12,83574,1,0,0:0:0:0:
296,84,84074,6,0,L|444:108,1,135
484,192,85074,2,0,P|500:240|476:272,1,90
296,360,86074,2,0,P|280:312|384:256,1,180
296,48,88074,6,0,L|152:64,1,135
116,132,89074,2,0,P|112:168|124:188,1,45
36,212,89574,2,0,P|40:176|28:156,1,45
116,132,90074,2,0,L|220:120,3,90
324,224,92074,6,0,P|340:280|316:356,1,135
228,364,93074,2,0,L|128:352,1,90
44,248,94074,2,0,L|224:272,1,180
324,224,95574,2,0,L|352:128,1,90
