osu file format v14

[General]
AudioFilename: MMRY - Determine.mp3
AudioLeadIn: 0
PreviewTime: 48074
Countdown: 0
SampleSet: Normal
StackLeniency: 0.2
Mode: 0
LetterboxInBreaks: 0
WidescreenStoryboard: 1

[Editor]
DistanceSpacing: 0.5
BeatDivisor: 4
GridSize: 4
TimelineZoom: 1

[Metadata]
Title:Determine
TitleUnicode:Determine
Artist:mmry
ArtistUnicode:mmry
Creator:-N a n a k o-
Version:Amitabha CS10
Source:Dynamix
Tags:佛教 Buddhism 南無阿彌陀佛 Namo Amitabha Amitayus April Fool
BeatmapID:705393
BeatmapSetID:312104

[Difficulty]
HPDrainRate:7
CircleSize:10
OverallDifficulty:8
ApproachRate:8
SliderMultiplier:2.2
SliderTickRate:2

[Events]
//Background and Video events
0,0,"maxresdefault.jpg",0,0
//Break Periods
//Storyboard Layer 0 (Background)
//Storyboard Layer 1 (Fail)
//Storyboard Layer 2 (Pass)
//Storyboard Layer 3 (Foreground)
//Storyboard Sound Samples

[TimingPoints]
62,500,4,1,0,100,1,0
62,-200,4,1,0,100,0,0
6000,500,4,1,0,100,1,0
6000,-200,4,1,0,100,0,0
16058,500,4,1,0,100,1,0
16058,-100,4,1,0,100,0,0
17245,-100,4,1,0,100,0,0
17308,-100,4,1,0,100,0,0
17495,-100,4,1,0,100,0,0
17558,-100,4,1,0,100,0,0
17745,-100,4,1,0,100,0,0
17808,-100,4,1,0,100,0,0
17995,-100,4,1,0,100,0,0
18058,-100,4,1,0,100,0,0
24054,500,4,1,0,100,1,0
25241,-100,4,1,0,100,0,0
25304,-100,4,1,0,100,0,0
25491,-100,4,1,0,100,0,0
25554,-100,4,1,0,100,0,0
25741,-100,4,1,0,100,0,0
25804,-100,4,1,0,100,0,0
25991,-100,4,1,0,100,0,0
26054,-100,4,1,0,100,0,0
48074,500,4,1,0,100,1,0
48074,-100,4,1,0,100,0,1
80074,-200,4,1,0,100,0,0
95574,-50,4,1,0,100,0,0

[HitObjects]
24,88,62,6,0,P|56:40|168:40,1,165
190,123,1062,2,0,L|254:155,1,55
392,88,1562,2,0,L|328:56,1,55
240,148,2062,2,0,P|242:223|282:251,2,110
392,88,3562,1,0,0:0:0:0:
468,224,4062,6,0,L|400:380,1,165
308,312,5062,1,0,0:0:0:0:
208,292,5312,1,0,0:0:0:0:
116,308,5562,1,0,0:0:0:0:
48,368,5812,1,0,0:0:0:0:
116,308,6062,2,0,P|132:208|116:192,2,110
28,108,7500,1,0,0:0:0:0:
180,36,8000,6,0,L|356:48,1,165
432,92,9000,1,0,0:0:0:0:
392,176,9250,1,0,0:0:0:0:
296,208,9500,1,0,0:0:0:0:
192,200,9750,1,0,0:0:0:0:
104,148,10000,2,0,P|36:164|24:208,2,110
176,372,11500,1,0,0:0:0:0:
348,356,12000,6,0,P|432:352|456:272,1,165
372,268,13000,1,0,0:0:0:0:
304,228,13250,1,0,0:0:0:0:
256,168,13500,1,0,0:0:0:0:
248,88,13750,1,0,0:0:0:0:
256,8,14000,5,0,0:0:0:0:
224,16,14125,1,0,0:0:0:0:
192,24,14250,1,0,0:0:0:0:
160,32,14375,1,0,0:0:0:0:
128,40,14500,1,0,0:0:0:0:
96,48,14625,1,0,0:0:0:0:
64,56,14750,1,0,0:0:0:0:
32,64,14875,1,0,0:0:0:0:
12,136,15000,5,0,0:0:0:0:
44,128,15125,1,0,0:0:0:0:
76,120,15250,1,0,0:0:0:0:
108,112,15375,1,0,0:0:0:0:
140,104,15500,1,0,0:0:0:0:
172,96,15625,1,0,0:0:0:0:
204,88,15750,1,0,0:0:0:0:
236,80,15875,1,0,0:0:0:0:
300,64,16000,5,0,0:0:0:0:
340,196,16308,1,0,0:0:0:0:
340,196,16433,1,0,0:0:0:0:
340,196,16558,1,0,0:0:0:0:
448,132,16808,1,0,0:0:0:0:
340,196,17058,2,0,P|292:248|296:280,1,82.5
291,255,17308,2,0,P|260:288|208:276,1,82.5
225,287,17558,2,0,P|184:264|164:228,1,82.5
166,234,17808,2,0,P|148:196|96:188,1,82.5
112,184,18058,2,0,P|64:208|20:80,2,220
256,24,19558,1,0,0:0:0:0:
460,108,19933,1,0,0:0:0:0:
460,108,20058,6,0,P|488:180|444:232,1,110
388,360,20558,2,0,P|360:288|404:236,1,110
296,120,21058,1,0,0:0:0:0:
216,280,21308,1,0,0:0:0:0:
212,284,21433,1,0,0:0:0:0:
208,288,21558,1,0,0:0:0:0:
88,176,21808,1,0,0:0:0:0:
160,44,22058,2,0,P|224:12|368:64,2,220
96,144,23308,1,0,0:0:0:0:
32,24,23558,1,0,0:0:0:0:
76,348,24054,5,0,0:0:0:0:
192,228,24304,1,0,0:0:0:0:
192,228,24429,1,0,0:0:0:0:
192,228,24554,1,0,0:0:0:0:
336,312,24804,1,0,0:0:0:0:
472,200,25054,2,0,P|484:152|464:112,1,82.5
472,122,25304,2,0,P|408:144|384:124,1,82.5
400,140,25554,2,0,P|368:100|372:72,1,82.5
371,72,25804,2,0,P|328:52|284:72,1,82.5
297,60,26054,2,0,P|196:88|208:12,2,220
284,192,27304,1,0,0:0:0:0:
268,328,27554,1,0,0:0:0:0:
76,364,27929,1,0,0:0:0:0:
76,364,28054,6,0,P|32:328|36:256,1,110
44,104,28554,2,0,P|88:140|84:212,1,110
140,292,29054,1,0,0:0:0:0:
268,328,29304,1,0,0:0:0:0:
268,328,29429,1,0,0:0:0:0:
268,328,29554,1,0,0:0:0:0:
396,292,29804,1,0,0:0:0:0:
504,188,30054,2,0,P|448:120|512:16,2,220
388,104,31304,1,0,0:0:0:0:
256,144,31554,1,0,0:0:0:0:
164,24,31804,1,0,0:0:0:0:
48,112,32054,5,0,0:0:0:0:
48,112,32304,5,0,0:0:0:0:
48,112,32554,5,0,0:0:0:0:
48,112,32804,5,0,0:0:0:0:
48,112,32929,5,0,0:0:0:0:
48,112,33179,5,0,0:0:0:0:
48,112,33304,5,0,0:0:0:0:
48,112,33554,5,0,0:0:0:0:
48,112,33804,5,0,0:0:0:0:
48,112,34054,5,0,0:0:0:0:
48,112,34304,5,0,0:0:0:0:
48,112,34554,5,0,0:0:0:0:
48,112,34804,5,0,0:0:0:0:
48,112,34929,5,0,0:0:0:0:
48,112,35179,5,0,0:0:0:0:
48,112,35304,5,0,0:0:0:0:
48,112,35554,5,0,0:0:0:0:
48,112,35679,5,0,0:0:0:0:
48,112,35804,5,0,0:0:0:0:
136,192,36054,5,0,0:0:0:0:
136,192,36304,5,0,0:0:0:0:
136,192,36554,5,0,0:0:0:0:
136,192,36804,5,0,0:0:0:0:
136,192,36929,5,0,0:0:0:0:
136,192,37179,5,0,0:0:0:0:
136,192,37304,5,0,0:0:0:0:
136,192,37554,5,0,0:0:0:0:
136,192,37804,5,0,0:0:0:0:
136,192,38054,5,0,0:0:0:0:
136,192,38304,5,0,0:0:0:0:
136,192,38554,5,0,0:0:0:0:
136,192,38804,5,0,0:0:0:0:
136,192,38929,5,0,0:0:0:0:
136,192,39179,5,0,0:0:0:0:
136,192,39304,5,0,0:0:0:0:
136,192,39554,5,0,0:0:0:0:
136,192,39679,5,0,0:0:0:0:
136,192,39804,5,0,0:0:0:0:
48,112,40054,5,0,0:0:0:0:
48,112,40304,5,0,0:0:0:0:
48,112,40554,5,0,0:0:0:0:
48,112,40804,5,0,0:0:0:0:
48,112,40929,5,0,0:0:0:0:
48,112,41179,5,0,0:0:0:0:
48,112,41304,5,0,0:0:0:0:
48,112,41554,5,0,0:0:0:0:
48,112,41804,5,0,0:0:0:0:
48,112,42054,5,0,0:0:0:0:
48,112,42304,5,0,0:0:0:0:
48,112,42554,5,0,0:0:0:0:
48,112,42804,5,0,0:0:0:0:
48,112,42929,5,0,0:0:0:0:
48,112,43179,5,0,0:0:0:0:
48,112,43304,5,0,0:0:0:0:
48,112,43554,5,0,0:0:0:0:
48,112,43679,5,0,0:0:0:0:
48,112,43804,5,0,0:0:0:0:
136,192,44054,5,0,0:0:0:0:
136,192,44304,5,0,0:0:0:0:
136,192,44554,5,0,0:0:0:0:
136,192,44804,5,0,0:0:0:0:
136,192,44929,5,0,0:0:0:0:
136,192,45179,5,0,0:0:0:0:
136,192,45304,5,0,0:0:0:0:
136,192,45554,5,0,0:0:0:0:
136,192,45804,5,0,0:0:0:0:
136,192,46054,5,0,0:0:0:0:
136,192,46304,5,0,0:0:0:0:
136,192,46554,5,0,0:0:0:0:
136,192,46804,5,0,0:0:0:0:
136,192,46929,5,0,0:0:0:0:
136,192,47179,5,0,0:0:0:0:
136,192,47304,5,0,0:0:0:0:
136,192,47554,5,0,0:0:0:0:
136,192,47679,5,0,0:0:0:0:
136,192,47804,5,0,0:0:0:0:
4,268,48054,5,0,0:0:0:0:
112,384,48324,1,0,0:0:0:0:
204,192,48574,1,0,0:0:0:0:
328,284,48824,1,0,0:0:0:0:
360,308,48949,1,0,0:0:0:0:
392,332,49074,1,0,0:0:0:0:
480,204,49324,1,0,0:0:0:0:
392,332,49574,1,0,0:0:0:0:
316,160,49824,1,0,0:0:0:0:
444,36,50074,5,0,0:0:0:0:
316,160,50324,1,0,0:0:0:0:
252,16,50574,1,0,0:0:0:0:
168,136,50824,1,0,0:0:0:0:
192,168,50949,1,0,0:0:0:0:
216,200,51074,1,0,0:0:0:0:
268,336,51324,1,0,0:0:0:0:
120,368,51574,1,0,0:0:0:0:
96,336,51699,1,0,0:0:0:0:
72,304,51824,1,0,0:0:0:0:
48,272,51949,1,0,0:0:0:0:
24,240,52074,5,0,0:0:0:0:
56,76,52324,1,0,0:0:0:0:
208,120,52574,1,0,0:0:0:0:
304,24,52824,1,0,0:0:0:0:
340,20,52949,1,0,0:0:0:0:
376,16,53074,1,0,0:0:0:0:
208,120,53324,1,0,0:0:0:0:
316,240,53574,1,0,0:0:0:0:
452,180,53824,1,0,0:0:0:0:
448,316,54074,5,0,0:0:0:0:
300,376,54324,1,0,0:0:0:0:
220,232,54574,1,0,0:0:0:0:
100,352,54824,1,0,0:0:0:0:
60,360,54949,1,0,0:0:0:0:
20,368,55074,1,0,0:0:0:0:
100,192,55324,1,0,0:0:0:0:
312,224,55574,1,0,0:0:0:0:
316,188,55699,1,0,0:0:0:0:
320,152,55824,1,0,0:0:0:0:
192,32,56074,5,0,0:0:0:0:
44,124,56324,1,0,0:0:0:0:
152,264,56574,1,0,0:0:0:0:
316,188,56824,1,0,0:0:0:0:
316,188,56949,1,0,0:0:0:0:
316,188,57074,1,0,0:0:0:0:
472,108,57324,1,0,0:0:0:0:
420,304,57574,1,0,0:0:0:0:
256,376,57824,1,0,0:0:0:0:
32,260,58074,5,0,0:0:0:0:
144,372,58324,1,0,0:0:0:0:
232,168,58574,1,0,0:0:0:0:
368,240,58824,1,0,0:0:0:0:
400,232,58949,1,0,0:0:0:0:
432,224,59074,1,0,0:0:0:0:
364,32,59324,1,0,0:0:0:0:
200,96,59574,1,0,0:0:0:0:
164,84,59699,1,0,0:0:0:0:
128,72,59824,1,0,0:0:0:0:
92,60,59949,1,0,0:0:0:0:
56,48,60074,5,0,0:0:0:0:
56,244,60324,1,0,0:0:0:0:
244,364,60574,1,0,0:0:0:0:
460,320,60824,1,0,0:0:0:0:
420,308,60949,1,0,0:0:0:0:
380,296,61074,1,0,0:0:0:0:
332,52,61324,1,0,0:0:0:0:
164,152,61574,1,0,0:0:0:0:
292,276,61824,1,0,0:0:0:0:
128,368,62074,5,0,0:0:0:0:
16,268,62324,1,0,0:0:0:0:
128,368,62574,1,0,0:0:0:0:
236,136,62824,1,0,0:0:0:0:
264,144,62949,1,0,0:0:0:0:
292,152,63074,1,0,0:0:0:0:
420,308,63324,1,0,0:0:0:0:
504,76,63574,1,0,0:0:0:0:
476,68,63699,1,0,0:0:0:0:
448,60,63824,1,0,0:0:0:0:
292,152,64074,5,0,0:0:0:0:
136,32,64324,1,0,0:0:0:0:
52,224,64574,1,0,0:0:0:0:
160,96,64824,1,0,0:0:0:0:
160,96,64949,1,0,0:0:0:0:
160,96,65074,1,0,0:0:0:0:
256,280,65324,1,0,0:0:0:0:
360,36,65574,1,0,0:0:0:0:
500,184,65824,1,0,0:0:0:0:
296,108,66074,5,0,0:0:0:0:
256,280,66324,1,0,0:0:0:0:
120,172,66574,1,0,0:0:0:0:
68,356,66824,1,0,0:0:0:0:
68,356,66949,1,0,0:0:0:0:
68,356,67074,1,0,0:0:0:0:
256,280,67324,1,0,0:0:0:0:
448,368,67574,1,0,0:0:0:0:
448,368,67699,1,0,0:0:0:0:
448,368,67824,1,0,0:0:0:0:
448,368,67949,1,0,0:0:0:0:
448,368,68074,5,0,0:0:0:0:
256,280,68324,1,0,0:0:0:0:
420,84,68574,1,0,0:0:0:0:
372,260,68824,1,0,0:0:0:0:
372,260,68949,1,0,0:0:0:0:
372,260,69074,1,0,0:0:0:0:
224,140,69324,1,0,0:0:0:0:
160,360,69574,1,0,0:0:0:0:
12,240,69824,1,0,0:0:0:0:
108,28,70074,5,0,0:0:0:0:
256,112,70324,1,0,0:0:0:0:
408,28,70574,1,0,0:0:0:0:
256,112,70824,1,0,0:0:0:0:
256,148,70949,1,0,0:0:0:0:
256,184,71074,1,0,0:0:0:0:
168,300,71324,1,0,0:0:0:0:
336,368,71574,1,0,0:0:0:0:
376,360,71699,1,0,0:0:0:0:
416,352,71824,1,0,0:0:0:0:
496,192,72074,5,0,0:0:0:0:
376,360,72324,1,0,0:0:0:0:
332,104,72574,1,0,0:0:0:0:
168,248,72824,1,0,0:0:0:0:
132,236,72949,1,0,0:0:0:0:
96,224,73074,1,0,0:0:0:0:
176,28,73324,1,0,0:0:0:0:
16,148,73574,1,0,0:0:0:0:
120,352,73824,1,0,0:0:0:0:
352,308,74074,5,0,0:0:0:0:
172,376,74324,1,0,0:0:0:0:
64,172,74574,1,0,0:0:0:0:
216,284,74824,1,0,0:0:0:0:
216,284,74949,1,0,0:0:0:0:
216,284,75074,1,0,0:0:0:0:
328,40,75324,1,0,0:0:0:0:
480,192,75574,1,0,0:0:0:0:
480,192,75699,1,0,0:0:0:0:
480,192,75824,1,0,0:0:0:0:
480,192,75949,1,0,0:0:0:0:
480,192,76074,5,0,0:0:0:0:
272,80,76324,5,0,0:0:0:0:
392,260,76574,1,0,0:0:0:0:
220,372,76824,1,0,0:0:0:0:
220,372,76949,1,0,0:0:0:0:
220,372,77074,1,0,0:0:0:0:
456,320,77324,1,0,0:0:0:0:
292,208,77574,1,0,0:0:0:0:
416,20,77824,1,0,0:0:0:0:
256,112,78074,5,0,0:0:0:0:
52,24,78324,1,0,0:0:0:0:
208,96,78574,1,0,0:0:0:0:
32,148,78824,1,0,0:0:0:0:
28,184,78949,1,0,0:0:0:0:
24,220,79074,1,0,0:0:0:0:
112,356,79324,1,0,0:0:0:0:
308,280,79574,1,0,0:0:0:0:
340,296,79699,1,0,0:0:0:0:
372,312,79824,1,0,0:0:0:0:
404,328,79949,1,0,0:0:0:0:
436,344,80074,6,0,P|480:320|484:212,1,165
432,96,81074,2,0,L|456:36,1,55
320,88,81574,2,0,L|296:148,1,55
184,160,82074,2,0,P|128:148|96:100,2,110
336,28,83574,1,0,0:0:0:0:
392,328,84074,6,0,P|376:356|248:360,1,165
192,236,85074,2,0,P|152:236|132:248,1,55
48,368,85574,2,0,P|88:368|108:356,1,55
139,242,86074,2,0,P|144:160|116:132,2,110
16,36,87574,1,0,0:0:0:0:
176,92,88074,6,0,P|260:100|304:32,1,165
412,104,89074,2,0,L|484:124,1,55
492,268,89574,2,0,L|420:248,1,55
344,344,90074,2,0,P|304:344|240:288,2,110
412,104,91574,1,0,0:0:0:0:
204,28,92074,6,0,P|136:28|52:92,1,165
120,348,93074,2,0,P|124:316|112:276,1,55
28,172,93574,2,0,P|24:212|36:244,1,55
176,356,94074,2,0,P|264:372|344:352,1,165
488,236,95074,2,0,P|492:204|488:172,1,55
412,52,95574,2,0,L|380:44,7,27.5
412,52,95824,1,0,0:0:0:0:
