osu file format v14

[General]
AudioFilename: miwa feat HD .mp3
AudioLeadIn: 0
PreviewTime: 107321
Countdown: 1
SampleSet: Soft
StackLeniency: 0.7
Mode: 2
LetterboxInBreaks: 1
WidescreenStoryboard: 1

[Editor]
DistanceSpacing: 1.2
BeatDivisor: 4
GridSize: 8
TimelineZoom: 2

[Metadata]
Title:Yozora
TitleUnicode:夜空
Artist:miwa feat. Haji
ArtistUnicode:miwa feat. ハジ
Creator:[-naniwa-]
Version:Night Sky
Source:
Tags:
BeatmapID:1599333
BeatmapSetID:760437

[Difficulty]
HPDrainRate:7
CircleSize:4
OverallDifficulty:9.5
ApproachRate:9.2
SliderMultiplier:2.2
SliderTickRate:1

[Events]
//Background and Video events
0,0,"rvoDm0WBPZw.jpg",0,0
//Break Periods
2,133771,144429
//Storyboard Layer 0 (Background)
//Storyboard Layer 1 (Fail)
//Storyboard Layer 2 (Pass)
//Storyboard Layer 3 (Foreground)
//Storyboard Sound Samples

[TimingPoints]
1072,714.285714285714,4,2,0,30,1,0
1072,-100,4,2,0,30,0,0
2143,714.285714285714,4,2,0,30,1,0
23571,-100,4,2,0,50,0,1
23572,-100,4,2,0,50,0,0
25000,-100,4,2,0,70,0,1
47857,-100,4,2,0,50,0,0
59285,-100,4,2,0,30,0,0
70714,-100,4,2,0,40,0,0
80714,-100,4,2,0,50,0,0
81250,-100,4,2,0,30,0,0
82142,-100,4,2,0,30,0,0
87857,-100,4,2,0,40,0,0
90714,-100,4,2,0,30,0,0
93571,-100,4,2,0,50,0,0
99285,-100,4,2,0,40,0,0
103571,-100,4,2,0,50,0,0
105000,-100,4,2,0,30,0,0
107321,-100,4,2,0,50,0,0
107857,-100,4,2,0,70,0,1
109285,-100,4,2,0,70,0,0
110714,714.285714285714,4,2,0,80,1,0
110714,-100,4,2,0,80,0,1
132142,-100,4,2,0,50,0,0
144999,-100,4,2,0,30,0,0
167856,-100,4,2,0,50,0,0
179285,-100,4,2,0,40,0,0
184999,-100,4,2,0,50,0,0
190713,-100,4,2,0,45,0,0
191071,-100,4,2,0,40,0,0
191428,-100,4,2,0,35,0,0
191785,-100,4,2,0,30,0,0
193571,714.285714285714,4,2,0,30,1,0
193571,-100,4,2,0,10,0,0
204999,-100,4,2,0,30,0,0
224999,-100,4,2,0,50,0,0
227856,-100,4,2,0,50,0,1
227857,-100,4,2,0,50,0,0
244999,-100,4,2,0,55,0,0
245713,-100,4,2,0,60,0,0
246428,-100,4,2,0,65,0,0
247856,-100,4,2,0,70,0,1
253570,-100,4,2,0,50,0,1
254642,-100,4,2,0,30,0,1
255713,-100,4,2,0,30,0,0
256428,-100,4,2,0,10,0,0
260535,-100,4,2,0,50,0,0
260713,-100,4,2,0,80,0,1
262141,-83.3333333333333,4,2,0,80,0,0
262142,-83.3333333333333,4,2,0,100,0,1
283570,714.285714285714,3,2,0,50,1,0
283570,-100,3,2,0,50,0,0
287855,714.285714285714,4,2,0,30,1,0
287855,-100,4,2,0,30,0,0
298569,-100,4,2,0,10,0,0
299402,714.285714285714,4,2,0,10,1,0

[HitObjects]
152,128,1072,5,0,0:0:0:0:
344,184,1429,1,0,0:0:0:0:
200,280,1786,1,0,0:0:0:0:
392,272,2143,6,0,P|392:232|328:200,1,110
224,248,2857,1,0,0:0:0:0:
128,176,3214,1,0,0:0:0:0:
304,128,3571,6,0,L|192:72,1,110,2|0,0:0|0:0,0:0:0:0:
32,168,4285,1,0,0:0:0:0:
176,208,4642,2,0,P|208:136|248:128,1,110
112,168,5357,5,0,0:0:0:0:
376,80,5535,2,0,P|472:128|384:224,1,275
152,128,6785,5,0,0:0:0:0:
344,184,7142,1,0,0:0:0:0:
200,280,7500,1,0,0:0:0:0:
408,280,7857,6,0,L|368:176,1,110,2|0,0:0|0:0,0:0:0:0:
200,240,8571,1,0,0:0:0:0:
352,200,8928,1,0,0:0:0:0:
104,256,9285,6,0,P|64:232|72:160,1,110
176,160,10000,1,0,0:0:0:0:
400,192,10357,1,0,0:0:0:0:
272,264,10535,1,0,0:0:0:0:
440,312,10714,5,0,0:0:0:0:
256,128,11071,1,0,0:0:0:0:
448,248,11428,1,0,0:0:0:0:
208,312,11785,1,0,0:0:0:0:
16,192,12142,1,0,0:0:0:0:
201,184,12857,6,0,L|136:152,1,73.3333333333333,2|0,0:0|0:0,0:0:0:0:
280,104,13333,1,0,0:0:0:0:
80,112,13571,2,0,P|48:160|80:208,1,110,2|0,0:0|0:0,0:0:0:0:
208,200,14285,6,0,L|288:240,1,73.3333333333333,2|0,0:0|0:0,0:0:0:0:
416,168,14762,1,0,0:0:0:0:
248,48,15000,2,0,P|216:96|248:144,1,110,2|0,0:0|0:0,0:0:0:0:
432,224,15714,6,0,L|322:224,1,110
48,248,16428,2,0,P|32:224|24:144,1,110
448,128,17142,1,2,0:0:0:0:
200,248,17500,1,0,0:0:0:0:
480,256,17857,6,0,L|504:144,1,110
72,216,18571,1,2,0:0:0:0:
368,176,18928,1,0,0:0:0:0:
144,104,19285,6,0,L|40:176,1,110
272,128,20000,1,0,0:0:0:0:
384,208,20357,1,0,0:0:0:0:
208,320,20714,6,0,L|104:256,1,110
312,272,21428,2,0,L|432:296,1,110
256,192,22142,12,0,23214,0:0:0:0:
384,280,23571,6,0,L|424:160,1,110,4|0,0:0|0:0,0:0:0:0:
168,160,24285,1,0,0:0:0:0:
288,224,24642,2,0,L|360:224,1,55
80,280,25000,6,0,P|48:240|64:184,1,110
280,96,25535,1,0,0:0:0:0:
392,192,25714,2,0,L|287:224,1,110
472,208,26428,6,0,L|440:144,1,55
184,176,26785,2,0,L|128:176,1,55
352,224,27142,2,0,P|384:208|392:160,1,73.3333333333333
120,216,27500,2,0,L|80:176,1,55
416,176,27857,5,2,0:0:0:0:
240,264,28214,2,0,L|176:264,1,55
32,216,28571,2,0,P|16:160|48:120,1,110
472,256,29107,2,0,L|416:160,1,110
120,176,29821,6,0,L|240:176,1,110
24,128,30357,1,0,0:0:0:0:
160,64,30535,1,0,0:0:0:0:
448,256,30714,6,0,P|480:224|448:176,1,110,2|0,0:0|0:0,0:0:0:0:
208,240,31250,2,0,P|152:208|152:208,1,55
488,128,31785,1,0,0:0:0:0:
56,232,32142,6,0,P|22:192|47:147,1,110,2|0,0:0|0:0,0:0:0:0:
296,208,32678,2,0,L|352:208,2,55
424,176,33214,2,0,L|472:136,1,55
88,280,33571,6,0,P|48:232|72:200,1,110,2|0,0:0|0:0,0:0:0:0:
232,224,34107,2,0,L|296:224,1,55
56,208,34464,2,0,L|72:144,1,55
176,96,34821,1,0,0:0:0:0:
432,256,35000,2,0,P|400:200|440:168,1,110,2|0,0:0|0:0,0:0:0:0:
240,192,35714,6,0,L|152:200,1,73.3333333333333,2|0,0:0|0:0,0:0:0:0:
352,112,36190,1,0,0:0:0:0:
24,296,36428,2,0,P|96:280|96:240,1,110,2|0,0:0|0:0,0:0:0:0:
328,256,37142,6,0,L|352:176,1,73.3333333333333,2|0,0:0|0:0,0:0:0:0:
96,152,37619,1,0,0:0:0:0:
416,192,37857,2,0,P|432:144|392:104,1,110,2|0,0:0|0:0,0:0:0:0:
128,112,38392,5,0,0:0:0:0:
288,248,38571,2,0,L|248:208,1,55,2|0,0:0|0:0,0:0:0:0:
104,224,38928,2,0,L|160:200,1,55
312,176,39285,6,0,L|368:176,3,55,2|0|0|0,0:0|0:0|0:0|0:0,0:0:0:0:
88,176,40000,2,0,L|32:176,2,55,2|0|0,0:0|0:0|0:0,0:0:0:0:
272,288,40535,2,0,P|208:280|160:264,2,110
472,152,41428,5,0,0:0:0:0:
232,224,41607,1,0,0:0:0:0:
432,272,41785,1,0,0:0:0:0:
176,312,41964,1,0,0:0:0:0:
408,160,42142,1,2,0:0:0:0:
184,272,42500,6,0,L|80:208,2,110
416,144,43571,1,2,0:0:0:0:
248,272,43928,2,0,L|184:240,2,55
472,184,44642,5,0,0:0:0:0:
80,208,45000,2,0,L|32:168,1,55,2|0,0:0|0:0,0:0:0:0:
224,184,45357,2,0,L|280:176,2,55
472,128,46071,6,0,L|352:128,1,110
175,255,46785,2,0,P|85:236|36:90,1,220
458,188,47857,5,2,0:0:0:0:
146,230,48214,2,0,L|202:190,1,55
310,175,48750,2,0,L|262:127,1,55
408,152,49285,2,0,L|448:96,1,55
184,208,49821,5,0,0:0:0:0:
328,168,50000,2,0,L|384:168,1,55,2|0,0:0|0:0,0:0:0:0:
168,120,50357,2,0,L|96:120,1,55
432,88,50714,5,2,0:0:0:0:
232,224,51071,2,0,L|296:200,1,55
72,176,51607,2,0,L|136:144,1,55
440,184,52142,2,0,L|384:176,1,55
104,120,52678,5,0,0:0:0:0:
376,104,52857,1,2,0:0:0:0:
456,120,53035,1,0,0:0:0:0:
504,192,53214,1,0,0:0:0:0:
448,280,53392,1,0,0:0:0:0:
120,320,53571,5,2,0:0:0:0:
384,256,53928,2,0,L|424:200,1,55
104,184,54464,2,0,L|40:152,1,55
216,160,55000,2,0,L|264:120,1,55
440,112,55535,5,0,0:0:0:0:
208,280,55714,2,0,L|272:280,1,55,2|0,0:0|0:0,0:0:0:0:
376,208,56071,2,0,L|448:208,1,55
32,176,56428,5,2,0:0:0:0:
248,208,56785,2,0,L|184:176,1,55
432,192,57321,2,0,L|368:160,1,55
48,200,57857,6,2,L|64:136,1,55,2|0,0:0|0:0,0:0:0:0:
240,192,58214,2,2,L|296:200,1,55,2|0,0:0|0:0,0:0:0:0:
96,120,58571,2,2,L|40:120,1,55,2|0,0:0|0:0,0:0:0:0:
384,96,58928,1,2,0:0:0:0:
256,320,59285,6,0,P|328:288|288:80,1,330,2|0,0:0|0:0,0:0:0:0:
24,280,60714,6,0,P|32:216|256:152,1,330,2|0,0:0|0:0,0:0:0:0:
400,216,62142,6,0,L|464:216,1,55
296,152,62500,1,0,0:0:0:0:
200,232,62678,1,0,0:0:0:0:
392,152,63035,1,0,0:0:0:0:
472,184,63214,1,0,0:0:0:0:
128,128,63571,5,0,0:0:0:0:
56,184,63750,1,0,0:0:0:0:
464,192,64285,1,0,0:0:0:0:
208,192,64642,1,0,0:0:0:0:
112,328,65000,6,0,P|104:280|312:184,1,330,2|0,0:0|0:0,0:0:0:0:
384,320,66428,6,0,P|408:248|216:160,1,330,2|0,0:0|0:0,0:0:0:0:
152,192,67857,6,0,L|88:192,2,55
304,240,68392,2,0,L|240:240,2,55
464,144,68928,2,0,L|400:144,1,55
104,136,69285,5,2,0:0:0:0:
208,200,69464,1,0,0:0:0:0:
64,264,69642,1,0,0:0:0:0:
448,184,70000,1,2,0:0:0:0:
328,248,70178,1,0,0:0:0:0:
456,296,70357,1,0,0:0:0:0:
32,160,70714,5,2,0:0:0:0:
288,256,71071,2,0,P|328:224|320:160,1,110
112,256,71785,2,0,P|64:216|56:160,1,110
360,192,72500,2,0,L|240:184,1,110
96,168,73214,2,0,L|144:120,1,55
432,248,73571,6,0,P|464:224|456:160,1,110,2|0,0:0|0:0,0:0:0:0:
144,248,74107,2,0,P|96:224|80:168,1,110
320,256,74642,2,0,P|360:208|256:192,1,220
96,208,75535,2,0,L|24:208,2,55
488,128,76071,5,0,0:0:0:0:
128,168,76428,1,2,0:0:0:0:
272,224,76785,2,0,P|304:200|312:176,1,55
480,152,77321,1,0,0:0:0:0:
344,208,77500,2,0,L|312:152,1,55
72,128,77857,5,2,0:0:0:0:
304,216,78214,2,0,L|368:216,2,55
248,280,78928,2,0,P|288:200|304:192,1,110,0|2,0:0|0:0,0:0:0:0:
408,240,79464,5,0,0:0:0:0:
304,160,79642,1,0,0:0:0:0:
136,120,79821,1,0,0:0:0:0:
424,184,80178,1,0,0:0:0:0:
296,128,80357,1,0,0:0:0:0:
96,256,80714,5,2,0:0:0:0:
248,216,80892,1,0,0:0:0:0:
128,128,81071,1,0,0:0:0:0:
344,112,81250,1,0,0:0:0:0:
48,64,81428,1,2,0:0:0:0:
216,120,81607,1,0,0:0:0:0:
16,240,81785,1,0,0:0:0:0:
304,280,82142,6,0,P|352:248|304:160,1,165,2|0,0:0|0:0,0:0:0:0:
136,272,83214,6,0,P|128:240|264:160,1,220
432,200,84285,2,0,L|400:88,1,110
192,232,85000,6,0,P|104:232|88:160,2,165,2|0|0,0:0|0:0|0:0,0:0:0:0:
448,160,86785,5,0,0:0:0:0:
192,200,87142,2,0,L|248:200,2,55
88,144,87678,1,0,0:0:0:0:
408,160,87857,6,0,L|464:160,1,55,8|0,0:0|0:0,0:0:0:0:
296,144,88214,2,0,L|224:144,1,55
123,116,88571,2,0,L|59:116,1,55
235,74,88928,2,0,L|299:74,1,55
96,240,89285,6,0,L|160:240,2,55,8|0|0,0:0|0:0|0:0,0:0:0:0:
8,192,89821,1,0,0:0:0:0:
280,264,90000,2,0,L|280:184,1,73.3333333333333
392,248,90714,6,0,L|328:248,1,55,8|0,0:0|0:0,0:0:0:0:
424,144,91071,1,0,0:0:0:0:
128,304,91428,1,0,0:0:0:0:
48,240,91607,1,0,0:0:0:0:
120,160,91785,1,0,0:0:0:0:
232,128,91964,1,0,0:0:0:0:
376,224,92142,6,0,P|400:264|392:296,1,73.3333333333333
104,248,92678,2,0,P|64:224|112:136,1,165
224,112,93392,1,0,0:0:0:0:
472,192,93571,6,0,L|400:192,1,55,10|0,0:0|0:0,0:0:0:0:
256,120,93928,2,0,L|312:120,1,55
88,192,94285,2,0,L|24:192,1,55,2|0,0:0|0:0,0:0:0:0:
208,104,94642,2,0,L|144:104,1,55
352,88,95000,5,2,0:0:0:0:
432,136,95178,1,0,0:0:0:0:
464,256,95357,1,0,0:0:0:0:
368,312,95535,1,0,0:0:0:0:
112,248,95714,2,0,L|176:248,1,55,2|0,0:0|0:0,0:0:0:0:
400,168,96071,2,0,L|456:168,1,55
56,184,96428,5,10,0:0:0:0:
224,168,96607,1,0,0:0:0:0:
32,136,96785,2,0,L|80:88,1,55
352,80,97142,1,2,0:0:0:0:
240,136,97321,1,0,0:0:0:0:
384,184,97500,1,0,0:0:0:0:
216,256,97678,1,0,0:0:0:0:
464,272,97857,6,0,P|478:221|440:185,1,110,2|0,0:0|0:0,0:0:0:0:
128,216,98571,2,0,L|152:96,1,110
248,96,99285,5,10,0:0:0:0:
400,208,99642,2,0,L|464:208,1,55
160,248,100000,2,0,P|104:208|112:168,1,110
424,160,100714,6,0,L|480:160,2,55
80,200,101309,1,0,0:0:0:0:
320,216,101785,6,0,L|264:216,1,55
408,160,102142,2,0,L|472:160,1,55,8|0,0:0|0:0,0:0:0:0:
248,120,102500,2,0,P|296:96|360:80,1,110
96,128,103214,2,0,L|96:72,1,55
384,240,103571,6,0,L|448:240,1,55,2|0,0:0|0:0,0:0:0:0:
264,176,103928,2,0,L|328:176,1,55,2|0,0:0|0:0,0:0:0:0:
56,96,104285,2,0,L|128:96,1,55,2|0,0:0|0:0,0:0:0:0:
408,104,104642,2,0,L|480:104,1,55,2|0,0:0|0:0,0:0:0:0:
200,296,105000,6,4,P|120:264|368:160,1,715,4|0,0:0|0:0,0:0:0:0:
192,160,107500,1,0,0:0:0:0:
88,224,107678,1,0,0:0:0:0:
344,280,107857,6,0,L|376:168,1,110,4|0,0:0|0:0,0:0:0:0:
112,208,108392,2,0,L|48:112,1,110,4|0,0:0|0:0,0:0:0:0:
336,240,108928,2,0,P|360:200|304:176,1,110,4|0,0:0|0:0,0:0:0:0:
152,184,109642,5,0,0:0:0:0:
64,248,109821,1,0,0:0:0:0:
160,336,110000,1,0,0:0:0:0:
320,312,110178,1,0,0:0:0:0:
448,232,110357,1,0,0:0:0:0:
360,120,110535,1,0,0:0:0:0:
88,168,110714,6,0,L|200:144,1,110,10|0,0:0|0:0,0:0:0:0:
352,192,111249,2,0,L|416:184,1,55,0|2,0:0|0:0,0:0:0:0:
96,264,111785,6,0,P|56:184|64:152,1,110,0|2,0:0|0:0,0:0:0:0:
384,256,112499,2,0,P|424:232|424:168,1,110,0|2,0:0|0:0,0:0:0:0:
160,160,113214,2,0,L|104:160,1,55
368,272,113571,6,0,P|320:240|288:200,2,110,10|0|2,0:0|0:0|0:0,0:0:0:0:
104,248,114642,2,0,L|48:240,1,55
352,240,114999,6,0,L|400:208,1,55,2|0,0:0|0:0,0:0:0:0:
240,152,115356,1,0,0:0:0:0:
80,240,115535,2,0,P|56:200|56:184,2,55,0|2|0,0:0|0:0|0:0,0:0:0:0:
256,240,116071,2,0,L|312:232,1,55
56,256,116428,6,0,P|64:208|120:176,1,110,10|0,0:0|0:0,0:0:0:0:
312,272,116964,2,0,L|240:272,2,55,0|2|0,0:0|0:0|0:0,0:0:0:0:
512,176,117499,1,0,0:0:0:0:
96,288,117856,6,0,P|56:264|80:208,1,110,2|0,0:0|0:0,0:0:0:0:
224,184,118392,2,0,L|280:176,2,55,0|2|0,0:0|0:0|0:0,0:0:0:0:
0,192,118928,1,0,0:0:0:0:
432,280,119285,6,0,P|472:232|440:192,1,110,10|0,0:0|0:0,0:0:0:0:
248,216,119821,2,0,L|192:224,2,55,0|2|0,0:0|0:0|0:0,0:0:0:0:
384,224,120356,2,0,L|448:208,1,55
96,256,120714,2,0,P|88:176|104:144,1,110,2|0,0:0|0:0,0:0:0:0:
352,192,121428,6,0,L|424:184,2,73.3333333333333,2|0|0,0:0|0:0|0:0,0:0:0:0:
16,248,122142,2,0,P|0:200|48:160,1,110,10|0,0:0|0:0,0:0:0:0:
152,240,122856,6,0,L|240:240,2,73.3333333333333,2|0|0,0:0|0:0|0:0,0:0:0:0:
456,224,123571,2,0,P|480:200|448:136,1,110,2|0,0:0|0:0,0:0:0:0:
96,160,124106,5,0,0:0:0:0:
352,208,124285,2,0,L|408:208,1,55,2|0,0:0|0:0,0:0:0:0:
80,272,124642,2,0,L|16:272,1,55
328,144,124999,6,0,L|256:144,3,55,10|0|0|0,0:0|0:0|0:0|0:0,0:0:0:0:
72,248,125714,2,0,P|48:192|80:152,1,110,2|0,0:0|0:0,0:0:0:0:
200,144,126249,1,0,0:0:0:0:
456,272,126428,2,0,P|488:240|408:176,1,165,2|0,0:0|0:0,0:0:0:0:
48,80,127142,5,2,0:0:0:0:
192,72,127321,1,0,0:0:0:0:
56,208,127499,1,0,0:0:0:0:
272,208,127678,1,0,0:0:0:0:
64,272,127856,2,0,P|40:224|80:184,1,110,10|0,0:0|0:0,0:0:0:0:
264,216,128571,2,0,L|152:200,1,110,2|0,0:0|0:0,0:0:0:0:
264,176,129285,6,0,L|320:168,1,55,2|0,0:0|0:0,0:0:0:0:
128,216,129642,2,0,L|184:208,1,55
448,168,129999,1,2,0:0:0:0:
144,144,130356,5,0,0:0:0:0:
432,200,130714,2,0,L|376:200,1,55,10|0,0:0|0:0,0:0:0:0:
488,120,131071,2,0,L|432:120,1,55
224,272,131428,2,0,P|184:248|208:184,1,110,2|0,0:0|0:0,0:0:0:0:
256,192,132142,12,0,133571,0:0:0:0:
328,184,144999,5,2,0:0:0:0:
32,216,146428,5,0,0:0:0:0:
416,288,147856,6,0,P|368:280|488:232,1,440
112,144,149642,5,0,0:0:0:0:
384,136,149999,1,0,0:0:0:0:
152,272,150356,1,0,0:0:0:0:
512,296,150714,5,2,0:0:0:0:
120,200,152142,5,0,0:0:0:0:
264,296,153571,6,0,P|304:272|168:200,1,330
440,208,154999,5,2,0:0:0:0:
80,176,155713,1,2,0:0:0:0:
272,120,156428,5,2,0:0:0:0:
128,288,156785,2,0,L|112:232,1,55
336,248,157142,2,0,L|448:192,1,110
152,184,157856,6,0,L|40:184,1,110
344,144,158571,1,0,0:0:0:0:
88,224,158928,2,0,L|144:208,1,55
424,264,159285,6,0,P|480:240|496:184,1,110,2|0,0:0|0:0,0:0:0:0:
384,112,159821,1,0,0:0:0:0:
104,216,159999,2,0,P|48:200|24:152,1,110
208,176,160713,6,0,L|144:176,2,55
480,136,161428,1,0,0:0:0:0:
192,200,161785,2,0,L|264:200,1,55
40,280,162142,6,0,P|8:240|40:192,1,110,2|0,0:0|0:0,0:0:0:0:
232,240,162678,2,0,L|288:232,1,55
432,184,163035,2,0,L|376:184,1,55
152,192,163392,1,0,0:0:0:0:
272,168,163571,6,0,P|264:128|192:96,1,110,2|0,0:0|0:0,0:0:0:0:
448,160,164285,2,0,L|392:160,2,55
64,168,164999,5,2,0:0:0:0:
408,208,165356,2,0,L|344:208,1,55
80,224,165892,2,0,L|144:224,1,55
488,256,166428,6,0,L|496:144,1,110
152,224,167142,2,0,L|56:152,1,110
144,56,167678,1,0,0:0:0:0:
384,288,167856,5,10,0:0:0:0:
456,256,168035,1,0,0:0:0:0:
464,160,168213,1,0,0:0:0:0:
344,96,168392,1,2,0:0:0:0:
96,280,168571,2,0,L|40:280,3,55,0|0|2|0,0:0|0:0|0:0|0:0,0:0:0:0:
256,296,169285,6,0,P|280:280|256:208,1,110,0|2,0:0|0:0,0:0:0:0:
80,136,169821,1,0,0:0:0:0:
392,176,169999,2,0,L|456:176,1,55,2|0,0:0|0:0,0:0:0:0:
288,104,170356,2,0,L|352:104,1,55,2|0,0:0|0:0,0:0:0:0:
40,160,170713,6,2,L|104:160,3,55,10|2|0|2,0:0|0:0|0:0|0:0,0:0:0:0:
336,144,171428,2,0,L|272:144,3,55,0|0|2|2,0:0|0:0|0:0|0:0,0:0:0:0:
96,96,172142,6,2,P|56:128|48:192,1,110
384,176,172856,2,0,L|440:176,1,55,2|0,0:0|0:0,0:0:0:0:
120,200,173213,2,0,L|160:152,1,55,2|0,0:0|0:0,0:0:0:0:
424,240,173571,6,0,L|424:184,1,55,8|0,0:0|0:0,0:0:0:0:
200,216,173928,2,0,L|144:216,2,55,0|2|0,0:0|0:0|0:0,0:0:0:0:
432,224,174642,2,0,L|368:224,1,55,2|0,0:0|0:0,0:0:0:0:
64,200,174999,6,0,L|8:200,3,55,0|0|2|0,0:0|0:0|0:0|0:0,0:0:0:0:
272,96,175713,1,2,0:0:0:0:
376,144,175892,1,0,0:0:0:0:
240,232,176071,1,2,0:0:0:0:
432,272,176249,1,0,0:0:0:0:
224,320,176428,6,0,L|288:272,1,73.3333333333333,10|0,0:0|0:0,0:0:0:0:
112,232,176963,1,2,0:0:0:0:
240,192,177142,2,0,L|304:192,1,55
64,136,177499,2,2,L|0:136,1,55
368,280,177856,6,0,P|384:248|336:184,1,110,0|2,0:0|0:0,0:0:0:0:
224,224,178392,1,2,0:0:0:0:
136,192,178571,1,2,0:0:0:0:
208,96,178749,1,2,0:0:0:0:
368,216,178928,2,0,L|432:216,1,55,2|0,0:0|0:0,0:0:0:0:
80,272,179285,6,0,L|144:208,1,73.3333333333333,8|0,0:0|0:0,0:0:0:0:
320,248,179642,2,0,L|320:184,1,55
72,160,179999,6,0,L|8:160,1,55
152,96,180356,1,0,0:0:0:0:
400,224,180535,2,0,P|432:208|432:128,1,110
200,152,181428,5,0,0:0:0:0:
392,232,181785,2,0,L|320:232,1,55
512,184,182142,6,0,L|448:184,3,55,8|0|0|0,0:0|0:0|0:0|0:0,0:0:0:0:
216,96,182856,1,0,0:0:0:0:
96,168,183035,1,0,0:0:0:0:
144,288,183213,1,0,0:0:0:0:
288,296,183392,1,0,0:0:0:0:
40,224,183571,6,0,L|0:176,1,55
160,208,183928,2,0,P|184:168|168:104,1,110
400,248,184999,6,0,L|456:248,1,55,8|0,0:0|0:0,0:0:0:0:
144,256,185356,2,0,P|120:232|120:184,1,73.3333333333333
328,232,185713,6,0,P|352:208|360:184,2,55
192,264,186249,2,0,P|216:216|192:160,1,110
48,128,186785,1,0,0:0:0:0:
440,232,187142,6,0,L|384:120,1,110
272,120,187678,1,0,0:0:0:0:
16,208,187856,6,0,L|72:208,1,55,10|0,0:0|0:0,0:0:0:0:
344,224,188213,2,0,L|400:224,1,55,2|0,0:0|0:0,0:0:0:0:
128,144,188571,2,0,L|184:144,1,55,2|0,0:0|0:0,0:0:0:0:
512,120,188928,2,0,L|456:120,1,55,2|0,0:0|0:0,0:0:0:0:
208,96,189285,2,0,P|200:168|232:192,1,110,2|0,0:0|0:0,0:0:0:0:
96,272,189999,6,0,P|128:256|104:192,1,110
24,152,190535,1,0,0:0:0:0:
376,224,190713,6,0,L|440:224,1,55,8|0,0:0|0:0,0:0:0:0:
320,144,191071,2,0,L|384:144,1,55,2|0,0:0|0:0,0:0:0:0:
256,80,191428,2,0,L|328:80,1,55,2|0,0:0|0:0,0:0:0:0:
448,96,191785,2,0,L|376:96,1,55,2|0,0:0|0:0,0:0:0:0:
256,192,192142,12,0,193213,0:0:0:0:
88,176,193571,5,2,0:0:0:0:
304,176,193928,1,0,0:0:0:0:
392,288,194285,2,0,L|464:288,1,55
72,248,194642,1,0,0:0:0:0:
0,160,194999,5,2,0:0:0:0:
296,152,195356,1,0,0:0:0:0:
112,208,195713,2,0,P|128:176|160:264,1,220,0|2,0:0|0:0,0:0:0:0:
352,64,196785,5,0,0:0:0:0:
456,144,197142,1,0,0:0:0:0:
488,288,197499,1,0,0:0:0:0:
264,328,197856,6,0,P|176:264|272:104,1,330,2|0,0:0|0:0,0:0:0:0:
472,152,199285,5,2,0:0:0:0:
248,208,199642,1,0,0:0:0:0:
416,312,199999,2,0,L|368:272,1,55
480,200,200356,1,0,0:0:0:0:
152,232,200713,6,0,L|96:128,1,110,2|0,0:0|0:0,0:0:0:0:
392,184,201428,1,0,0:0:0:0:
256,192,202142,12,0,204285,0:0:0:0:
448,192,204821,5,0,0:0:0:0:
120,256,204999,2,0,L|240:256,1,110
40,224,205713,2,0,L|40:112,1,110
368,248,206428,6,0,P|368:208|224:128,1,220
408,136,207499,2,0,L|448:96,1,55
264,200,207856,6,0,L|184:120,1,110
64,256,208392,1,0,0:0:0:0:
304,256,208571,2,0,L|224:160,1,110
120,296,209106,1,0,0:0:0:0:
448,280,209285,6,0,L|360:200,1,110
240,176,209821,1,0,0:0:0:0:
504,128,209999,2,0,P|456:104|336:88,1,165
56,232,210713,6,0,L|152:88,1,165
288,248,211428,2,0,P|296:184|208:128,1,165
416,176,212142,6,0,L|328:104,1,110
456,88,212678,1,0,0:0:0:0:
224,176,212856,2,0,P|232:136|288:96,1,110
384,216,213392,5,0,0:0:0:0:
176,240,213571,2,0,P|176:200|240:152,1,110
368,168,214106,1,0,0:0:0:0:
144,208,214285,2,0,P|184:160|232:144,1,110
288,216,214821,1,0,0:0:0:0:
56,208,214999,6,0,P|32:176|40:96,1,110
192,96,215535,1,0,0:0:0:0:
352,216,215713,2,0,P|368:176|288:96,1,165
24,224,216428,6,0,L|168:144,1,165
360,200,217142,2,0,L|480:184,1,110
328,88,217856,6,0,P|368:144|280:248,1,220
72,240,218928,1,0,0:0:0:0:
368,248,219285,6,0,P|432:152|408:120,1,165
304,176,219999,2,0,P|296:136|384:56,1,165
208,40,220713,5,0,0:0:0:0:
72,144,221071,1,0,0:0:0:0:
160,296,221428,1,0,0:0:0:0:
384,296,221785,1,0,0:0:0:0:
168,240,222142,6,0,P|136:200|160:88,1,165
424,208,222856,2,0,P|456:168|456:56,1,165
208,216,223571,6,0,P|216:176|320:120,1,165
16,208,224285,2,0,L|192:168,1,165
448,144,224999,1,8,0:0:0:0:
176,280,225713,5,0,0:0:0:0:
288,240,225892,1,0,0:0:0:0:
152,160,226071,1,0,0:0:0:0:
280,216,226249,2,0,L|312:208,2,18.3333333333333
112,192,226428,6,0,P|72:168|96:112,1,110,8|0,0:0|0:0,0:0:0:0:
408,104,226963,1,0,0:0:0:0:
224,64,227142,1,0,0:0:0:0:
416,216,227499,2,0,L|432:160,1,55
216,248,227856,6,2,L|136:224,1,73.3333333333333
32,160,228213,1,2,0:0:0:0:
96,80,228332,1,2,0:0:0:0:
192,56,228451,1,2,0:0:0:0:
408,192,228571,2,0,P|400:160|344:112,1,110,2|0,0:0|0:0,0:0:0:0:
200,136,229106,1,0,0:0:0:0:
416,296,229285,6,0,P|456:256|432:208,1,110,2|0,0:0|0:0,0:0:0:0:
296,232,229821,1,0,0:0:0:0:
128,224,229999,2,0,L|56:224,2,55,2|0|0,0:0|0:0|0:0,0:0:0:0:
312,192,230713,5,2,0:0:0:0:
80,168,230892,2,0,L|144:168,2,55
240,144,231428,6,0,L|296:144,1,55,2|0,0:0|0:0,0:0:0:0:
152,80,231785,2,0,L|208:80,1,55
344,232,232142,2,0,L|408:232,2,55,2|0|0,0:0|0:0|0:0,0:0:0:0:
112,208,232678,6,0,L|152:256,1,55,0|2,0:0|0:0,0:0:0:0:
336,296,233213,1,2,0:0:0:0:
424,272,233332,1,2,0:0:0:0:
464,176,233451,1,2,0:0:0:0:
88,248,233571,6,0,P|80:216|144:168,1,110,2|0,0:0|0:0,0:0:0:0:
256,160,234106,1,0,0:0:0:0:
32,240,234285,2,0,P|56:208|120:176,1,110,2|0,0:0|0:0,0:0:0:0:
256,136,234820,1,0,0:0:0:0:
392,192,234999,5,2,0:0:0:0:
208,248,235178,1,0,0:0:0:0:
456,312,235356,2,0,L|472:256,1,55,2|0,0:0|0:0,0:0:0:0:
136,240,235713,2,0,L|72:240,3,55,2|0|2|0,0:0|0:0|0:0|0:0,0:0:0:0:
336,288,236428,6,0,P|296:264|256:256,1,73.3333333333333,8|0,0:0|0:0,0:0:0:0:
416,208,236785,2,0,P|376:192|344:192,1,73.3333333333333,8|0,0:0|0:0,0:0:0:0:
488,128,237142,2,0,P|440:112|408:120,1,73.3333333333333,8|0,0:0|0:0,0:0:0:0:
224,112,237499,2,0,L|280:112,1,55,8|0,0:0|0:0,0:0:0:0:
416,136,237856,5,2,0:0:0:0:
224,192,238035,1,2,0:0:0:0:
376,256,238213,1,2,0:0:0:0:
152,296,238392,1,2,0:0:0:0:
392,96,238570,1,2,0:0:0:0:
480,152,238749,1,2,0:0:0:0:
512,264,238928,1,2,0:0:0:0:
424,336,239106,1,2,0:0:0:0:
104,280,239285,6,0,P|88:240|208:144,1,220,4|0,0:0|0:0,0:0:0:0:
344,224,240356,2,2,L|280:224,1,55
40,144,240713,5,2,0:0:0:0:
208,144,240892,2,4,P|224:112|168:72,1,110,4|0,0:0|0:0,0:0:0:0:
96,112,241428,1,0,0:0:0:0:
0,176,241606,1,0,0:0:0:0:
32,272,241785,1,0,0:0:0:0:
144,296,241963,1,0,0:0:0:0:
432,304,242142,6,0,P|448:272|272:112,1,330,4|0,0:0|0:0,0:0:0:0:
480,192,243570,6,0,P|480:160|336:80,1,220,4|0,0:0|0:0,0:0:0:0:
136,216,244642,1,0,0:0:0:0:
368,176,244820,1,0,0:0:0:0:
112,160,244999,6,0,L|168:160,1,55,2|0,0:0|0:0,0:0:0:0:
16,80,245356,2,0,L|72:80,1,55,2|0,0:0|0:0,0:0:0:0:
240,80,245713,2,0,L|304:80,1,55,2|0,0:0|0:0,0:0:0:0:
440,160,246070,2,0,L|384:160,1,55,2|0,0:0|0:0,0:0:0:0:
136,224,246428,6,0,L|72:224,1,55,2|0,0:0|0:0,0:0:0:0:
304,200,246785,2,0,L|240:200,1,55,2|0,0:0|0:0,0:0:0:0:
400,152,247142,2,0,L|510:152,1,110,2|0,0:0|0:0,0:0:0:0:
56,216,247856,6,0,L|0:216,1,55,12|0,0:0|0:0,0:0:0:0:
288,192,248213,2,0,L|233:192,1,55
480,160,248570,2,0,L|416:160,3,55,8|0|0|0,0:0|0:0|0:0|0:0,0:0:0:0:
104,160,249285,6,0,L|168:160,3,55,8|0|0|0,0:0|0:0|0:0|0:0,0:0:0:0:
416,96,249999,1,8,0:0:0:0:
264,136,250178,1,0,0:0:0:0:
208,264,250356,1,0,0:0:0:0:
360,368,250535,1,0,0:0:0:0:
96,216,250713,6,0,P|88:176|136:120,1,110,4|0,0:0|0:0,0:0:0:0:
328,104,251249,1,2,0:0:0:0:
88,232,251428,2,2,L|40:232,2,36.6666666666667
232,240,251785,2,2,L|296:240,1,55
464,200,252142,6,2,L|456:144,1,55
208,176,252499,2,2,L|256:176,2,36.6666666666667
464,128,252856,2,2,L|416:128,2,36.6666666666667
192,88,253213,2,2,L|144:88,2,36.6666666666667
376,288,253570,6,4,P|400:264|336:120,1,220,4|0,0:0|0:0,0:0:0:0:
80,272,254642,6,0,P|64:224|264:136,1,330,2|0,0:0|0:0,0:0:0:0:
56,128,256428,5,0,0:0:0:0:
304,176,256785,1,0,0:0:0:0:
480,272,257142,2,0,L|424:272,2,55
208,208,257856,5,0,0:0:0:0:
424,184,258213,1,0,0:0:0:0:
208,264,258570,2,0,P|160:248|144:144,1,165
256,192,259285,12,0,260356,0:0:0:0:
464,136,260535,5,8,0:0:0:0:
208,248,260713,2,0,P|168:216|152:152,1,110,4|0,0:0|0:0,0:0:0:0:
344,152,261249,1,0,0:0:0:0:
96,96,261428,2,0,L|40:96,1,55,2|0,0:0|0:0,0:0:0:0:
392,64,261785,2,0,L|448:64,1,55,2|0,0:0|0:0,0:0:0:0:
56,224,262142,6,0,P|40:192|80:104,1,131.99999597168,14|2,0:0|0:0,0:0:0:0:
176,80,262678,1,0,0:0:0:0:
448,152,262856,2,0,L|328:224,1,131.99999597168,2|2,0:0|0:0,0:0:0:0:
144,208,263392,6,0,L|72:208,2,65.9999979858399,0|2|0,0:0|0:0|0:0,0:0:0:0:
320,264,263928,2,0,L|240:264,1,65.9999979858399,2|0,0:0|0:0,0:0:0:0:
504,184,264285,2,0,L|408:200,1,87.9999973144532,2|0,0:0|0:0,0:0:0:0:
232,160,264642,2,0,P|208:128|200:88,1,65.9999979858399,2|0,0:0|0:0,0:0:0:0:
451,81,264999,6,0,P|459:121|411:201,1,131.99999597168,10|2,0:0|0:0,0:0:0:0:
168,176,265535,2,0,L|240:176,2,65.9999979858399,0|2|0,0:0|0:0|0:0,0:0:0:0:
0,272,266071,2,0,P|0:224|16:200,2,65.9999979858399,2|0|2,0:0|0:0|0:0,0:0:0:0:
144,128,266606,5,0,0:0:0:0:
240,56,266785,1,2,0:0:0:0:
432,216,266963,1,0,0:0:0:0:
200,248,267142,1,2,0:0:0:0:
440,128,267321,2,0,L|520:128,2,65.9999979858399,0|2|0,0:0|0:0|0:0,0:0:0:0:
30,152,267856,6,0,L|96:152,2,65.9999979858399,14|0|2,0:0|0:0|0:0,0:0:0:0:
384,224,268392,2,0,L|318:224,1,65.9999979858399,0|10,0:0|0:0,0:0:0:0:
504,168,268749,2,0,L|424:168,2,65.9999979858399,0|2|0,0:0|0:0|0:0,0:0:0:0:
224,160,269285,6,0,L|152:160,2,65.9999979858399,10|0|2,0:0|0:0|0:0,0:0:0:0:
0,104,269821,2,0,L|80:104,2,65.9999979858399,0|10|0,0:0|0:0|0:0,0:0:0:0:
320,112,270356,1,2,0:0:0:0:
88,192,270713,6,0,L|22:192,2,65.9999979858399,10|0|2,0:0|0:0|0:0,0:0:0:0:
328,224,271249,2,0,P|360:200|368:160,2,65.9999979858399,0|2|0,0:0|0:0|0:0,0:0:0:0:
88,152,271785,6,0,L|8:152,1,65.9999979858399,2|0,0:0|0:0,0:0:0:0:
432,256,272142,2,0,P|448:200|512:160,1,131.99999597168,10|2,0:0|0:0,0:0:0:0:
400,120,272678,1,0,0:0:0:0:
64,96,272856,5,2,0:0:0:0:
208,88,273094,1,2,0:0:0:0:
368,168,273332,1,2,0:0:0:0:
40,264,273571,2,0,P|40:200|88:152,1,131.99999597168,14|2,0:0|0:0,0:0:0:0:
200,144,274106,1,0,0:0:0:0:
488,224,274285,5,2,0:0:0:0:
352,168,274523,1,2,0:0:0:0:
200,152,274761,1,2,0:0:0:0:
512,280,274999,2,0,P|480:224|416:216,1,131.99999597168,10|2,0:0|0:0,0:0:0:0:
176,216,275535,1,0,0:0:0:0:
416,152,275713,6,0,L|482:152,2,65.9999979858399,2|0|2,0:0|0:0|0:0,0:0:0:0:
512,96,276249,1,0,0:0:0:0:
176,88,276428,2,0,L|248:88,1,65.9999979858399,14|0,0:0|0:0,0:0:0:0:
0,192,276785,2,0,L|72:192,1,65.9999979858399,2|0,0:0|0:0,0:0:0:0:
376,232,277142,6,0,L|376:152,1,65.9999979858399,2|0,0:0|0:0,0:0:0:0:
136,304,277499,2,0,L|216:304,1,65.9999979858399,2|0,0:0|0:0,0:0:0:0:
80,200,277856,2,0,L|8:200,2,65.9999979858399,10|0|2,0:0|0:0|0:0,0:0:0:0:
288,280,278570,5,2,0:0:0:0:
288,208,278690,1,0,0:0:0:0:
200,160,278809,1,0,0:0:0:0:
464,264,278928,1,2,0:0:0:0:
464,192,279047,1,0,0:0:0:0:
376,144,279166,1,0,0:0:0:0:
112,104,279285,6,0,P|80:128|80:176,1,87.9999973144532,14|2,0:0|0:0,0:0:0:0:
200,248,279642,2,0,L|266:248,1,65.9999979858399,2|2,0:0|0:0,0:0:0:0:
432,128,279999,2,0,L|366:128,1,65.9999979858399,2|0,0:0|0:0,0:0:0:0:
136,160,280356,2,0,L|144:88,1,65.9999979858399,2|0,0:0|0:0,0:0:0:0:
432,200,280713,6,0,P|456:168|392:120,1,131.99999597168,10|2,0:0|0:0,0:0:0:0:
240,112,281249,1,0,0:0:0:0:
496,200,281428,2,0,L|496:120,1,65.9999979858399,2|0,0:0|0:0,0:0:0:0:
208,144,281785,2,0,L|288:144,1,65.9999979858399,2|0,0:0|0:0,0:0:0:0:
16,144,282142,6,0,P|-16:200|16:264,1,131.99999597168,10|2,0:0|0:0,0:0:0:0:
272,216,282678,2,0,L|344:216,2,65.9999979858399,0|2|0,0:0|0:0|0:0,0:0:0:0:
80,176,283213,2,0,L|8:176,1,65.9999979858399,2|0,0:0|0:0,0:0:0:0:
280,352,283570,6,0,P|368:328|152:288,1,880,4|0,0:0|0:0,0:0:0:0:
496,304,286784,6,0,P|469:258|486:207,2,110
72,184,287855,5,2,0:0:0:0:
176,152,288033,1,0,0:0:0:0:
360,104,288212,1,0,0:0:0:0:
248,72,288390,1,0,0:0:0:0:
56,232,288747,1,0,0:0:0:0:
176,184,288926,1,0,0:0:0:0:
8,120,289283,1,0,0:0:0:0:
104,96,289462,1,0,0:0:0:0:
312,112,289819,5,0,0:0:0:0:
120,136,289997,1,2,0:0:0:0:
72,216,290176,1,0,0:0:0:0:
136,296,290355,1,0,0:0:0:0:
248,296,290533,1,0,0:0:0:0:
504,160,290712,5,2,0:0:0:0:
240,192,291069,1,0,0:0:0:0:
360,144,291247,1,0,0:0:0:0:
152,152,291605,1,0,0:0:0:0:
264,120,291783,1,0,0:0:0:0:
104,104,292140,1,0,0:0:0:0:
16,72,292319,1,0,0:0:0:0:
200,64,292676,5,0,0:0:0:0:
384,112,292855,1,2,0:0:0:0:
304,168,293033,1,0,0:0:0:0:
304,280,293212,1,0,0:0:0:0:
424,304,293390,1,0,0:0:0:0:
128,272,293569,5,2,0:0:0:0:
368,272,293926,1,0,0:0:0:0:
232,256,294105,1,0,0:0:0:0:
408,144,294462,1,0,0:0:0:0:
496,128,294640,1,0,0:0:0:0:
152,168,294997,1,0,0:0:0:0:
56,144,295176,1,0,0:0:0:0:
376,104,295533,5,0,0:0:0:0:
160,112,295712,1,2,0:0:0:0:
112,192,295890,1,0,0:0:0:0:
72,256,296069,1,0,0:0:0:0:
40,304,296247,1,0,0:0:0:0:
376,296,296426,5,2,0:0:0:0:
88,264,296783,1,0,0:0:0:0:
96,168,296962,1,0,0:0:0:0:
416,288,297319,1,0,0:0:0:0:
328,208,297497,1,0,0:0:0:0:
88,224,297855,5,2,0:0:0:0:
8,168,298033,1,0,0:0:0:0:
64,72,298212,1,0,0:0:0:0:
160,48,298390,1,0,0:0:0:0:
264,96,298569,6,0,P|224:152|248:184,1,110,2|0,0:0|0:0,0:0:0:0:
384,112,299283,1,0,0:0:0:0:
448,144,299402,6,0,P|448:216|328:272,1,220
104,224,300473,5,0,0:0:0:0:
352,160,300830,1,0,0:0:0:0:
160,112,301187,1,0,0:0:0:0:
384,64,301544,1,0,0:0:0:0:
176,104,301902,6,0,P|120:144|264:224,1,330
464,192,303330,6,0,L|352:200,3,110
144,288,304759,6,0,P|128:232|400:128,1,440
56,344,306544,6,0,P|16:296|224:96,1,440
