osu file format v14

[General]
AudioFilename: audio.mp3
AudioLeadIn: 0
PreviewTime: 54147
Countdown: 0
SampleSet: Soft
StackLeniency: 0.7
Mode: 0
LetterboxInBreaks: 0
WidescreenStoryboard: 0

[Editor]
DistanceSpacing: 1.2
BeatDivisor: 4
GridSize: 4
TimelineZoom: 2.699999

[Metadata]
Title:chAngE (TV Size)
TitleUnicode:chAngE (TV Size)
Artist:miwa
ArtistUnicode:miwa
Creator:semaphore
Version:Insane
Source:BLEACH
Tags:anime japanese bleach γƒ–γƒͺーチ opening 12 rock op evilelvis jounzan natteke desu aishiteiru-
BeatmapID:3688782
BeatmapSetID:1799424

[Difficulty]
HPDrainRate:5
CircleSize:4
OverallDifficulty:7
ApproachRate:8
SliderMultiplier:1.6
SliderTickRate:1

[Events]
//Background and Video events
Video,-400,"Video.mp4"
0,0,"Background.jpg",0,0
//Break Periods
//Storyboard Layer 0 (Background)
//Storyboard Layer 1 (Fail)
//Storyboard Layer 2 (Pass)
//Storyboard Layer 3 (Foreground)
//Storyboard Layer 4 (Overlay)
//Storyboard Sound Samples

[TimingPoints]
420,363.636363636364,4,2,2,40,1,0
420,-133.333333333333,4,2,2,60,0,0
510,-133.333333333333,4,2,2,40,0,0
6147,-133.333333333333,4,2,2,60,0,0
6329,-133.333333333333,4,2,2,40,0,0
11965,-133.333333333333,4,2,2,60,0,0
12147,-133.333333333333,4,2,2,10,0,0
13147,-133.333333333333,4,1,1,80,0,0
13510,-100,4,1,1,70,0,0
13601,-100,4,1,1,50,0,0
13783,-100,4,1,1,70,0,0
13965,-100,4,1,1,50,0,0
14510,-100,4,1,1,70,0,0
14692,-100,4,1,1,50,0,0
15056,-100,4,1,1,70,0,0
15420,-100,4,1,1,50,0,0
15783,-100,4,1,1,70,0,0
16147,-100,4,1,1,50,0,0
16329,-100,4,1,1,70,0,0
16510,-100,4,1,1,50,0,0
16692,-100,4,1,1,70,0,0
17056,-100,4,1,1,50,0,0
17420,-100,4,1,1,70,0,0
17601,-100,4,1,1,50,0,0
17783,-100,4,1,1,70,0,0
17965,-100,4,1,1,50,0,0
18147,-100,4,1,1,70,0,0
18329,-100,4,1,1,50,0,0
19329,-100,4,1,1,60,0,0
19420,-100,4,1,1,30,0,0
19601,-100,4,1,1,60,0,0
19965,-100,4,1,1,30,0,0
20329,-100,4,1,1,60,0,0
20510,-100,4,1,1,30,0,0
20692,-100,4,1,1,60,0,0
20874,-100,4,1,1,30,0,0
21056,-100,4,1,1,60,0,0
21965,-100,4,2,1,60,0,0
22147,-100,4,1,1,60,0,0
22329,-100,4,1,1,30,0,0
22510,-100,4,1,1,60,0,0
22692,-100,4,1,1,30,0,0
22874,-100,4,1,1,60,0,0
23420,-100,4,2,1,50,0,0
23601,-100,4,1,1,60,0,0
24329,-100,4,1,1,30,0,0
24510,-100,4,1,1,60,0,0
25601,-100,4,1,1,30,0,0
25783,-100,4,1,1,60,0,0
26329,-100,4,2,1,50,0,0
26510,-100,4,1,1,60,0,0
26692,-100,4,1,1,30,0,0
26874,-100,4,1,1,60,0,0
27783,-100,4,2,1,50,0,0
27965,-100,4,1,1,60,0,0
28329,-100,4,1,1,30,0,0
28692,-100,4,1,1,60,0,0
28874,-100,4,1,1,30,0,0
29056,-100,4,1,1,60,0,0
29601,-100,4,1,1,30,0,0
29783,-100,4,1,1,60,0,0
29965,-100,4,1,1,30,0,0
30329,-100,4,1,1,60,0,0
31056,-100,4,1,1,30,0,0
31238,-100,4,1,1,60,0,0
31601,-100,4,1,1,30,0,0
31965,-100,4,1,1,60,0,0
32510,-100,4,1,1,30,0,0
32692,-100,4,1,1,60,0,0
32874,-100,4,1,1,30,0,0
33056,-100,4,1,1,60,0,0
33965,-100,4,1,1,30,0,0
34238,-100,4,1,1,60,0,0
34329,-100,4,1,1,30,0,0
34510,-100,4,1,1,60,0,0
34692,-100,4,1,1,30,0,0
34874,-100,4,1,1,60,0,0
35601,-100,4,2,1,30,0,0
35692,-100,4,1,1,60,0,0
35783,-100,4,1,1,30,0,0
35965,-100,4,1,1,60,0,0
37056,-100,4,2,1,30,0,0
37147,-100,4,1,1,60,0,0
37420,-100,4,1,1,30,0,0
37601,-100,4,1,1,60,0,0
38147,-100,4,2,1,30,0,0
38238,-100,4,1,1,60,0,0
38329,-100,4,1,1,30,0,0
38510,-100,4,1,1,60,0,0
39056,-100,4,1,1,30,0,0
39238,-100,4,1,1,60,0,0
39965,-100,4,2,1,30,0,0
40056,-100,4,1,1,60,0,0
40147,-100,4,1,1,30,0,0
40329,-100,4,1,1,60,0,0
40874,-100,4,1,1,40,0,0
41147,-100,4,1,1,60,0,0
41238,-100,4,1,1,30,0,0
41420,-100,4,1,1,60,0,0
41965,-100,4,1,1,30,0,0
42147,-100,4,1,1,60,0,0
42601,-133.333333333333,4,1,1,60,0,0
42692,-133.333333333333,4,1,1,30,0,0
43056,-133.333333333333,4,1,1,60,0,0
43420,-133.333333333333,4,1,1,30,0,0
43601,-133.333333333333,4,1,1,60,0,0
43783,-133.333333333333,4,1,1,30,0,0
44056,-133.333333333333,4,1,1,60,0,0
44329,-133.333333333333,4,1,1,30,0,0
44510,-133.333333333333,4,1,1,60,0,0
44874,-133.333333333333,4,1,1,30,0,0
45056,-133.333333333333,4,1,1,60,0,0
45601,-133.333333333333,4,1,1,30,0,0
45965,-133.333333333333,4,1,1,60,0,0
46329,-133.333333333333,4,2,1,60,0,0
46692,-133.333333333333,4,1,1,30,0,0
46965,-133.333333333333,4,1,1,60,0,0
47601,-133.333333333333,4,2,1,30,0,0
47692,-133.333333333333,4,1,1,60,0,0
47965,-133.333333333333,4,2,1,60,0,0
48147,-133.333333333333,4,1,1,60,0,0
48510,-133.333333333333,4,1,1,30,0,0
48874,-133.333333333333,4,1,1,60,0,0
49238,-133.333333333333,4,2,1,60,0,0
49601,-133.333333333333,4,1,1,30,0,0
49874,-133.333333333333,4,1,1,60,0,0
50147,-133.333333333333,4,1,1,30,0,0
50329,-133.333333333333,4,1,1,60,0,0
50692,-133.333333333333,4,1,1,90,0,0
51056,-133.333333333333,4,1,1,70,0,0
51601,-133.333333333333,4,1,1,50,0,0
51783,-133.333333333333,4,1,1,70,0,0
52510,-133.333333333333,4,1,1,50,0,0
52692,-133.333333333333,4,1,1,70,0,0
54147,-133.333333333333,4,1,1,80,0,0
54238,-90.9090909090909,4,1,1,80,0,1
54692,-90.9090909090909,4,1,1,50,0,1
55056,-90.9090909090909,4,1,1,80,0,1
55420,-90.9090909090909,4,1,1,50,0,1
55965,-90.9090909090909,4,1,1,80,0,1
56147,-90.9090909090909,4,1,1,50,0,1
56783,-90.9090909090909,4,1,1,80,0,1
56874,-90.9090909090909,4,1,1,50,0,1
57056,-90.9090909090909,4,1,1,80,0,1
57238,-90.9090909090909,4,1,1,50,0,1
57420,-90.9090909090909,4,1,1,80,0,1
57601,-90.9090909090909,4,1,1,50,0,1
57965,-90.9090909090909,4,1,1,80,0,1
58329,-90.9090909090909,4,1,1,50,0,1
58874,-90.9090909090909,4,1,1,80,0,1
59056,-90.9090909090909,4,1,1,50,0,1
59420,-90.9090909090909,4,1,1,80,0,1
60510,-90.9090909090909,4,1,1,50,0,1
60692,-90.9090909090909,4,1,1,80,0,1
60874,-90.9090909090909,4,1,1,50,0,1
61056,-90.9090909090909,4,1,1,80,0,1
61238,-90.9090909090909,4,1,1,50,0,1
61420,-90.9090909090909,4,1,1,80,0,1
61783,-90.9090909090909,4,1,1,50,0,1
61874,-90.9090909090909,4,1,1,80,0,1
62147,-90.9090909090909,4,1,1,50,0,1
62510,-90.9090909090909,4,1,1,80,0,1
62692,-90.9090909090909,4,1,1,50,0,1
62874,-90.9090909090909,4,1,1,80,0,1
63056,-90.9090909090909,4,1,1,50,0,1
63238,-90.9090909090909,4,1,1,80,0,1
63601,-90.9090909090909,4,1,1,50,0,1
63783,-90.9090909090909,4,1,1,80,0,1
64147,-90.9090909090909,4,1,1,50,0,1
64783,-90.9090909090909,4,2,1,80,0,1
64874,-90.9090909090909,4,1,1,80,0,1
65056,-90.9090909090909,4,1,1,50,0,1
65329,-90.9090909090909,4,1,1,50,0,0
65874,-90.9090909090909,4,1,1,80,0,1
66329,-90.9090909090909,4,1,1,50,0,1
66692,-90.9090909090909,4,1,1,80,0,1
67056,-90.9090909090909,4,1,1,50,0,1
67601,-90.9090909090909,4,1,1,80,0,1
67783,-90.9090909090909,4,1,1,50,0,1
68147,-90.9090909090909,4,1,1,80,0,1
68510,-90.9090909090909,4,1,1,50,0,1
68692,-90.9090909090909,4,1,1,80,0,1
68874,-90.9090909090909,4,1,1,50,0,1
69056,-90.9090909090909,4,1,1,80,0,1
69238,-90.9090909090909,4,1,1,50,0,1
69420,-90.9090909090909,4,1,1,80,0,1
69965,-90.9090909090909,4,1,1,50,0,1
70147,-90.9090909090909,4,1,1,80,0,1
70692,-90.9090909090909,4,1,1,50,0,1
71056,-90.9090909090909,4,1,1,80,0,1
71238,-90.9090909090909,4,1,1,50,0,1
71601,-90.9090909090909,4,1,1,50,0,0
71692,-133.333333333333,4,1,1,80,0,1
71783,-133.333333333333,4,1,1,50,0,0
72329,-133.333333333333,4,1,1,80,0,0
72510,-133.333333333333,4,1,1,50,0,0
72874,-133.333333333333,4,1,1,80,0,0
73056,-133.333333333333,4,1,1,50,0,0
73238,-133.333333333333,4,1,1,80,0,0
73420,-133.333333333333,4,1,1,50,0,0
73601,-133.333333333333,4,1,1,80,0,0
74692,-133.333333333333,4,1,1,50,0,0
75238,-133.333333333333,4,1,1,80,0,0
75420,-133.333333333333,4,1,1,50,0,0
75783,-133.333333333333,4,1,1,80,0,0
75965,-133.333333333333,4,1,1,50,0,0
76510,-133.333333333333,4,1,1,80,0,0
76874,-133.333333333333,4,1,1,50,0,0
77510,-133.333333333333,4,1,1,80,0,1
77601,-133.333333333333,4,1,1,50,0,0
78147,-133.333333333333,4,1,1,80,0,0
78329,-133.333333333333,4,1,1,50,0,0
78692,-133.333333333333,4,1,1,80,0,0
78874,-133.333333333333,4,1,1,50,0,0
79056,-133.333333333333,4,1,1,80,0,0
79420,-133.333333333333,4,1,1,50,0,0
79692,-133.333333333333,4,1,1,80,0,0
80420,-200,4,2,1,80,0,0
83329,-100,4,1,1,70,0,0
83420,-100,4,1,1,50,0,0
83601,-100,4,1,1,70,0,0
83783,-100,4,1,1,50,0,0
84147,-100,4,2,1,70,0,0
84329,-100,4,1,1,70,0,0
84510,-100,4,1,1,50,0,0
84692,-100,4,1,1,70,0,0
84874,-100,4,1,1,50,0,0
85056,-100,4,1,1,70,0,0
85601,-100,4,2,1,70,0,0
85783,-100,4,1,1,70,0,0
85965,-100,4,1,1,50,0,0
86147,-100,4,1,1,70,0,0
86329,-100,4,1,1,50,0,0
86510,-100,4,1,1,70,0,0
87056,-100,4,2,1,70,0,0
87238,-100,4,1,1,70,0,0
87420,-100,4,1,1,50,0,0
87601,-100,4,1,1,70,0,0
87783,-100,4,1,1,50,0,0
88329,-100,4,1,1,70,0,0

[Colours]
Combo1 : 1,224,152
Combo2 : 194,120,128
Combo3 : 0,128,128
Combo4 : 215,96,99

[HitObjects]
48,128,420,6,0,B|120:120|172:184,1,120.000004577637,6|0,0:0|0:0,0:0:0:0:
220,220,965,1,2,0:0:0:0:
220,220,1147,2,0,L|188:276,1,60.0000022888184
304,340,1510,2,0,L|276:280,1,60.0000022888184,2|0,0:0|0:0,0:0:0:0:
340,240,1874,6,0,L|468:224,2,120.000004577637,2|0|0,0:0|0:0|0:0,0:0:0:0:
272,204,2783,1,2,0:0:0:0:
336,160,2965,1,2,0:0:0:0:
336,160,3329,6,0,B|348:108|360:40,1,120.000004577637,4|0,0:0|0:0,0:0:0:0:
272,72,3874,2,0,B|278:46|284:12,2,60.0000022888184,2|0|0,0:0|0:0|0:0,0:0:0:0:
196,160,4420,2,0,B|228:154|254:148,1,60.0000022888184,2|0,0:0|0:0,0:0:0:0:
224,240,4783,6,0,B|156:256|116:192,1,120.000004577637,2|0,0:0|0:0,0:0:0:0:
128,124,5329,2,0,B|136:96|136:52,2,60.0000022888184,2|0|0,0:0|0:0|0:0,0:0:0:0:
56,152,5874,1,2,0:0:0:0:
300,352,6238,6,0,B|280:292|328:228,1,120.000004577637,4|0,0:0|0:0,0:0:0:0:
344,148,6783,1,2,0:0:0:0:
344,148,6965,2,0,B|357:188|325:231,1,60.0000022888184
420,344,7329,2,0,B|404:320|368:304,1,60.0000022888184,2|0,0:0|0:0,0:0:0:0:
204,296,7692,6,0,L|272:280,1,60.0000022888184,2|0,0:0|0:0,0:0:0:0:
132,364,8056,2,0,L|64:348,1,60.0000022888184,0|2,0:0|0:0,0:0:0:0:
0,324,8420,1,0,0:0:0:0:
20,248,8601,1,2,0:0:0:0:
96,272,8783,1,2,0:0:0:0:
96,272,9147,6,0,L|128:152,1,120.000004577637,4|0,0:0|0:0,0:0:0:0:
212,136,9692,1,2,0:0:0:0:
212,136,9874,2,0,L|180:256,1,120.000004577637,4|0,0:0|0:0,0:0:0:0:
280,184,10420,1,2,0:0:0:0:
280,184,10601,2,0,L|296:120,1,60.0000022888184,4|0,0:0|0:0,0:0:0:0:
248,0,10965,2,0,L|232:64,1,60.0000022888184,0|2,0:0|0:0,0:0:0:0:
104,88,11329,6,0,L|168:120,2,60.0000022888184,2|0|2,0:0|0:0|0:0,0:0:0:0:
96,8,11874,1,2,0:0:0:0:
96,172,12056,2,0,B|152:200|152:200|216:172,1,120.000004577637,4|0,0:0|0:0,0:0:0:0:
208,192,13147,5,8,0:0:0:0:
208,192,13510,6,0,B|212:152|216:96,1,80,6|0,0:0|0:0,0:0:0:0:
300,192,13874,2,2,B|296:232|292:288,1,80,10|2,0:0|0:0,0:0:0:0:
200,280,14238,2,0,L|36:292,2,160,2|10|2,0:0|0:0|0:0,0:0:0:0:
292,272,15147,1,2,0:0:0:0:
176,360,15329,1,8,0:0:0:0:
156,200,15510,1,2,0:0:0:0:
200,280,15692,5,0,0:0:0:0:
176,360,15874,1,10,0:0:0:0:
112,296,16056,1,10,0:0:0:0:
292,272,16238,1,0,0:0:0:0:
452,252,16420,6,0,B|460:224|464:160,1,80,6|0,0:0|0:0,0:0:0:0:
296,128,16783,1,8,0:0:0:0:
388,68,16965,2,2,B|376:152|368:236,1,160
196,260,17510,2,0,B|232:237|277:237,1,80,10|0,0:0|0:0,0:0:0:0:
244,360,17874,2,0,B|207:382|162:382,1,80,6|0,0:0|0:0,0:0:0:0:
32,284,18238,2,0,B|80:284|120:316,1,80,10|0,0:0|0:0,0:0:0:0:
360,304,18601,6,8,L|356:252,3,40
440,204,18965,1,10,0:0:0:0:
448,200,19056,1,8,0:0:0:0:
456,204,19147,1,10,0:0:0:0:
464,200,19238,1,8,0:0:0:0:
476,200,19329,6,0,B|476:240|468:296,1,80,4|0,0:0|0:0,0:0:0:0:
416,364,19692,1,8,0:0:0:0:
380,260,19874,2,0,B|380:184|392:80,1,160
488,100,20420,1,8,0:0:0:0:
476,200,20601,1,0,0:0:0:0:
280,124,20783,6,0,B|236:128|180:128,1,80
112,80,21147,1,8,0:0:0:0:
296,216,21329,2,0,B|376:208|464:212,1,160
455,211,22056,1,4,0:0:0:0:
424,376,22238,6,0,B|448:344|456:288,1,80,4|0,0:0|0:0,0:0:0:0:
432,56,22601,2,0,B|408:88|400:144,1,80,8|0,0:0|0:0,0:0:0:0:
455,211,22965,1,0,0:0:0:0:
500,128,23147,1,0,0:0:0:0:
360,220,23329,2,0,B|320:216|256:248,1,80,8|4,0:0|0:0,0:0:0:0:
176,356,23692,6,0,B|264:372|332:328,1,160,0|8,0:0|0:0,0:0:0:0:
200,180,24238,2,0,B|188:220|188:264,1,80
282,235,24601,1,0,0:0:0:0:
96,192,24783,2,0,B|112:116|112:32,1,160,12|4,0:0|0:0,0:0:0:0:
12,148,25329,6,0,B|20:108|20:68,2,80,0|8|0,0:0|0:0|0:0,0:0:0:0:
96,192,25874,1,0,0:0:0:0:
20,248,26056,1,0,0:0:0:0:
200,180,26238,2,0,B|240:164|288:168,1,80,8|4,0:0|0:0,0:0:0:0:
384,56,26601,2,0,B|344:72|296:68,1,80,4|0,0:0|0:0,0:0:0:0:
212,96,26965,1,8,0:0:0:0:
356,228,27147,2,0,B|448:220|520:268,1,160
372,340,27692,2,0,B|328:344|280:320,1,80,8|4,0:0|0:0,0:0:0:0:
220,384,28056,5,4,0:0:0:0:
220,384,28238,2,0,B|172:298|243:239,1,160
241,240,28692,1,0,0:0:0:0:
241,240,28783,1,0,0:0:0:0:
284,24,28965,1,0,0:0:0:0:
284,24,29147,2,0,B|335:104|256:164,1,160,8|0,0:0|0:0,0:0:0:0:
212,80,29692,1,0,0:0:0:0:
344,216,29874,6,0,B|384:224|444:228,1,80,12|0,0:0|0:0,0:0:0:0:
512,196,30238,1,0,0:0:0:0:
440,132,30420,1,0,0:0:0:0:
256,320,30601,1,8,0:0:0:0:
256,320,30965,6,0,B|216:312|156:308,1,80,4|0,0:0|0:0,0:0:0:0:
423,226,31329,1,8,0:0:0:0:
423,226,31510,2,0,B|347:214|259:210,1,160
160,192,32056,1,12,0:0:0:0:
176,92,32238,1,0,0:0:0:0:
276,104,32420,6,0,B|284:64|284:8,1,80
160,192,32783,1,8,0:0:0:0:
263,210,32965,1,0,0:0:0:0:
344,312,33147,6,0,L|264:312,1,80,4|0,0:0|0:0,0:0:0:0:
460,340,33510,1,8,0:0:0:0:
460,340,33874,5,4,0:0:0:0:
472,248,34056,1,0,0:0:0:0:
472,248,34147,1,0,0:0:0:0:
472,248,34238,1,8,0:0:0:0:
312,108,34420,5,0,0:0:0:0:
297,198,34602,1,0,0:0:0:0:
348,384,34783,5,0,0:0:0:0:
364,292,34965,2,0,L|252:284,1,80,12|0,0:0|0:0,0:0:0:0:
500,164,35329,2,0,L|380:164,1,120
348,164,35692,2,0,P|344:116|340:56,1,80,8|0,0:0|0:0,0:0:0:0:
196,192,36056,2,0,L|204:104,1,80,4|0,0:0|0:0,0:0:0:0:
44,176,36420,1,8,0:0:0:0:
44,176,36783,6,0,B|20:236|60:300,1,120,4|0,0:0|0:0,0:0:0:0:
54,291,37147,1,8,0:0:0:0:
184,356,37329,2,0,L|272:352,1,80
224,248,37692,1,0,0:0:0:0:
224,248,37874,2,0,L|344:240,1,120,12|0,0:0|0:0,0:0:0:0:
352,224,38238,5,0,0:0:0:0:
448,232,38420,1,0,0:0:0:0:
464,136,38601,1,8,0:0:0:0:
372,124,38783,2,0,L|280:132,1,80,0|4,0:0|0:0,0:0:0:0:
200,100,39147,1,0,0:0:0:0:
272,36,39329,1,8,0:0:0:0:
272,36,39692,6,0,B|268:96|256:180,1,120,4|0,0:0|0:0,0:0:0:0:
168,260,40056,2,0,B|170:226|176:180,1,80,8|0,0:0|0:0,0:0:0:0:
304,360,40420,2,0,B|300:326|298:279,1,80
400,108,40783,1,12,0:0:0:0:
352,196,40965,1,0,0:0:0:0:
352,196,41056,1,8,0:0:0:0:
352,196,41147,6,0,B|316:172|272:184,1,80,4|0,0:0|0:0,0:0:0:0:
206,296,41510,1,0,0:0:0:0:
298,280,41692,1,8,0:0:0:0:
84,120,41874,5,0,0:0:0:0:
68,212,42056,1,0,0:0:0:0:
52,304,42238,1,12,0:0:0:0:
52,304,42601,6,2,B|108:312|176:312,1,120.000004577637,6|2,0:0|0:0,0:0:0:0:
176,212,43147,1,2,0:0:0:0:
176,212,43329,2,0,B|205:213|239:210,1,60.0000022888184,8|0,0:0|0:0,0:0:0:0:
376,176,43692,1,2,0:0:0:0:
276,216,43874,1,8,0:0:0:0:
276,216,43965,1,8,0:0:0:0:
276,216,44056,6,2,L|280:280,1,60.0000022888184,4|10,0:0|0:0,0:0:0:0:
380,288,44420,2,0,B|409:289|443:286,1,60.0000022888184,0|2,0:0|0:0,0:0:0:0:
300,128,44783,1,8,0:0:0:0:
208,148,44965,1,0,0:0:0:0:
36,64,45147,1,6,0:0:0:0:
36,64,45510,6,0,B|96:88|152:56,1,120.000004577637,4|0,0:0|0:0,0:0:0:0:
151,56,46056,1,0,0:0:0:0:
80,164,46238,2,0,B|56:224|88:280,1,120.000004577637,8|4,0:0|0:0,0:0:0:0:
88,380,46783,1,8,0:0:0:0:
88,380,46874,1,8,0:0:0:0:
88,380,46965,2,0,L|164:372,1,60.0000022888184,0|8,0:0|0:0,0:0:0:0:
176,272,47329,2,0,L|280:268,1,90.0000034332277
265,268,47692,5,8,0:0:0:0:
364,284,47874,1,8,0:0:0:0:
412,380,48056,5,4,0:0:0:0:
313,364,48238,1,8,0:0:0:0:
260,232,48420,6,0,B|256:172|256:84,1,120.000004577637,4|0,0:0|0:0,0:0:0:0:
164,140,48965,1,0,0:0:0:0:
348,76,49147,2,0,B|352:136|352:224,1,120.000004577637,8|4,0:0|0:0,0:0:0:0:
260,232,49692,1,8,0:0:0:0:
248,236,49783,1,8,0:0:0:0:
236,240,49874,1,0,0:0:0:0:
140,216,50056,1,8,0:0:0:0:
48,232,50238,2,0,L|44:312,1,60.0000022888184
144,308,50601,2,0,L|148:388,1,60.0000022888184,8|0,0:0|0:0,0:0:0:0:
132,124,50965,1,4,0:0:0:0:
132,124,51329,6,0,P|184:128|272:128,1,120.000004577637,4|0,0:0|0:0,0:0:0:0:
88,120,51874,1,0,0:0:0:0:
184,244,52056,2,0,B|244:244|308:252,1,120.000004577637,12|0,0:0|0:0,0:0:0:0:
303,251,52601,1,0,0:0:0:0:
88,156,52783,5,12,0:0:0:0:
184,68,52965,1,8,0:0:0:0:
280,164,53147,1,8,0:0:0:0:
376,72,53329,1,8,0:0:0:0:
376,72,54238,6,2,B|384:160|384:256,1,176.000005371094,6|8,0:0|0:0,0:0:0:0:
496,304,54783,1,0,0:0:0:0:
296,384,54965,2,0,B|288:336|288:280,1,88.000002685547
383,247,55329,1,8,0:0:0:0:
384,344,55510,1,0,0:0:0:0:
72,320,55692,6,0,L|192:312,1,88.000002685547
304,160,56056,2,0,L|184:152,1,88.000002685547,8|0,0:0|0:0,0:0:0:0:
16,208,56420,2,0,L|168:216,1,132.00000402832,4|0,0:0|0:0,0:0:0:0:
264,264,56783,2,0,L|256:351,1,88.000002685547,8|0,0:0|0:0,0:0:0:0:
112,96,57147,5,4,0:0:0:0:
384,40,57329,2,0,L|280:48,2,88.000002685547,0|8|0,0:0|0:0|0:0,0:0:0:0:
448,104,57874,1,0,0:0:0:0:
512,48,58056,5,0,0:0:0:0:
496,136,58238,1,8,0:0:0:0:
432,56,58420,1,0,0:0:0:0:
412,144,58601,2,0,B|324:152|228:152,2,176.000005371094,4|8|0,0:0|0:0|0:0,0:0:0:0:
296,264,59510,1,4,0:0:0:0:
200,136,59692,1,8,0:0:0:0:
80,256,59874,1,8,0:0:0:0:
72,248,59965,1,8,0:0:0:0:
64,240,60056,6,2,B|-8:168|40:72,1,176.000005371094,6|10,0:0|0:0,0:0:0:0:
264,232,60601,1,2,0:0:0:0:
144,312,60783,2,0,B|184:280|168:200,1,88.000002685547,0|2,0:0|0:0,0:0:0:0:
144,72,61147,2,0,B|104:104|120:184,1,88.000002685547,10|0,0:0|0:0,0:0:0:0:
288,264,61510,6,2,L|456:280,1,132.00000402832
512,264,61874,1,10,0:0:0:0:
384,64,62056,1,2,0:0:0:0:
275,54,62237,1,0,0:0:0:0:
256,164,62420,1,2,0:0:0:0:
368,176,62601,2,0,B|416:176|472:168,1,88.000002685547,10|0,0:0|0:0,0:0:0:0:
152,136,62965,6,0,B|104:136|48:144,1,88.000002685547,6|0,0:0|0:0,0:0:0:0:
0,296,63329,1,8,0:0:0:0:
56,160,63510,1,2,0:0:0:0:
0,296,63692,2,0,B|48:296|104:288,1,88.000002685547,2|0,0:0|0:0,0:0:0:0:
200,280,64056,1,8,0:0:0:0:
312,288,64238,1,2,0:0:0:0:
408,240,64420,5,4,0:0:0:0:
416,232,64510,1,8,0:0:0:0:
416,224,64601,1,0,0:0:0:0:
424,216,64692,1,8,0:0:0:0:
424,208,64783,1,4,0:0:0:0:
488,120,64965,1,2,0:0:0:0:
376,112,65147,1,12,0:0:0:0:
344,104,65238,1,8,0:0:0:0:
312,104,65329,1,8,0:0:0:0:
280,112,65420,1,8,0:0:0:0:
248,116,65510,1,8,0:0:0:0:
216,112,65601,1,8,0:0:0:0:
184,96,65692,1,8,0:0:0:0:
152,88,65783,1,8,0:0:0:0:
120,88,65874,6,2,B|104:184|104:272,1,176.000005371094,6|8,0:0|0:0,0:0:0:0:
8,200,66420,1,0,0:0:0:0:
200,344,66601,2,0,B|206:304|206:256,1,88.000002685547
104,263,66965,1,8,0:0:0:0:
96,360,67147,1,0,0:0:0:0:
350,144,67329,5,0,0:0:0:0:
182,88,67510,1,0,0:0:0:0:
206,256,67692,1,8,0:0:0:0:
328,248,67874,5,0,0:0:0:0:
328,248,68056,2,0,L|440:256,1,88.000002685547
350,144,68420,1,8,0:0:0:0:
248,168,68601,1,0,0:0:0:0:
40,64,68783,6,0,B|88:64|144:56,1,88.000002685547,4|0,0:0|0:0,0:0:0:0:
248,168,69147,2,0,B|200:168|144:176,1,88.000002685547,8|0,0:0|0:0,0:0:0:0:
0,240,69510,1,4,0:0:0:0:
96,256,69692,1,0,0:0:0:0:
64,160,69874,2,0,B|112:160|168:152,1,88.000002685547,8|0,0:0|0:0,0:0:0:0:
424,248,70238,6,0,B|352:240|248:256,1,176.000005371094,4|8,0:0|0:0,0:0:0:0:
200,360,70783,1,0,0:0:0:0:
200,360,70874,1,8,0:0:0:0:
200,360,70965,1,12,0:0:0:0:
328,296,71147,2,0,B|336:256|336:184,1,88.000002685547,8|0,0:0|0:0,0:0:0:0:
144,88,71510,1,0,0:0:0:0:
248,56,71692,6,2,B|240:144|232:240,1,180.000006866455,6|2,0:0|0:0,0:0:0:0:
144,272,72420,2,0,B|112:280|72:280,1,60.0000022888184,10|0,0:0|0:0,0:0:0:0:
360,344,72783,1,0,0:0:0:0:
464,328,72965,1,2,0:0:0:0:
456,224,73147,1,0,0:0:0:0:
352,240,73329,2,0,L|344:312,2,60.0000022888184,10|0|2,0:0|0:0|0:0,0:0:0:0:
400,152,73874,2,2,L|392:16,1,120.000004577637,10|6,0:0|0:0,0:0:0:0:
392,32,74601,6,0,B|336:64|264:48,1,120.000004577637,6|0,0:0|0:0,0:0:0:0:
248,152,75147,1,2,0:0:0:0:
48,128,75329,2,0,B|92:100|168:112,1,120.000004577637,8|0,0:0|0:0,0:0:0:0:
368,240,75874,1,10,0:0:0:0:
368,240,76056,2,0,B|336:232|304:200,1,60.0000022888184,0|2,0:0|0:0,0:0:0:0:
188,20,76420,2,0,B|220:28|252:60,1,60.0000022888184,0|2,0:0|0:0,0:0:0:0:
496,136,76783,2,2,B|448:168|376:152,1,120.000004577637,10|10,0:0|0:0,0:0:0:0:
376,176,77238,1,8,0:0:0:0:
368,192,77329,1,10,0:0:0:0:
364,208,77420,1,8,0:0:0:0:
352,224,77510,6,0,B|296:184|232:248|168:208,1,180.000006866455,4|2,0:0|0:0,0:0:0:0:
100,320,78238,2,0,L|164:312,1,60.0000022888184,8|2,0:0|0:0,0:0:0:0:
192,120,78601,2,0,L|128:112,1,60.0000022888184,6|8,0:0|0:0,0:0:0:0:
80,224,78965,1,2,0:0:0:0:
176,212,79147,1,10,0:0:0:0:
400,368,79329,2,0,L|340:360,1,60.0000022888184,0|2,0:0|0:0,0:0:0:0:
320,352,79601,1,8,0:0:0:0:
304,348,79692,2,0,B|296:292|296:220,1,120.000004577637,8|6,0:0|0:0,0:0:0:0:
488,80,80420,5,4,0:0:0:0:
256,192,80510,12,4,82965,0:0:0:0:
387,116,83329,6,2,B|322:166|227:146,1,160,6|10,0:0|0:0,0:0:0:0:
168,200,83874,2,0,B|144:156|148:108,1,80,0|2,0:0|0:0,0:0:0:0:
172,32,84238,1,4,0:0:0:0:
264,56,84420,1,14,0:0:0:0:
236,148,84601,1,0,0:0:0:0:
147,123,84783,6,2,B|103:127|59:95,1,80,6|2,0:0|0:0,0:0:0:0:
40,16,85147,1,8,0:0:0:0:
100,204,85329,2,0,B|144:200|188:232,1,80,6|0,0:0|0:0,0:0:0:0:
212,352,85692,2,0,L|248:276,1,80,4|10,0:0|0:0,0:0:0:0:
232,108,86056,1,0,0:0:0:0:
232,108,86238,6,0,L|260:196,1,80,6|2,0:0|0:0,0:0:0:0:
464,284,86601,1,8,0:0:0:0:
464,284,86783,2,2,B|376:308|320:240,1,160,6|6,0:0|0:0,0:0:0:0:
416,200,87329,1,10,0:0:0:0:
512,196,87510,1,0,0:0:0:0:
492,356,87692,6,0,B|464:329|463:283,1,80,14|0,0:0|0:0,0:0:0:0:
324,72,88056,2,0,B|352:99|352:144,1,80,0|2,1:0|1:0,1:0:0:0:
352,144,88420,1,8,1:0:0:0:
280,276,88601,1,8,1:0:0:0:
184,152,88783,1,8,1:0:0:0:
88,276,88965,1,12,1:0:0:0:
