osu file format v14

[General]
AudioFilename: audio.mp3
AudioLeadIn: 0
PreviewTime: 53874
Countdown: 1
SampleSet: Normal
StackLeniency: 0.6
Mode: 0
LetterboxInBreaks: 0
WidescreenStoryboard: 1

[Editor]
Bookmarks: 13470
DistanceSpacing: 1
BeatDivisor: 4
GridSize: 32
TimelineZoom: 1.8

[Metadata]
Title:chAngE
TitleUnicode:chAngE
Artist:miwa
ArtistUnicode:miwa
Creator:MaridiuS
Version:hArd
Source:BLEACH
Tags:anime seni Doormat Naoki-T Sony Music Entertainment Japan γƒ–γƒͺーチ
BeatmapID:1624606
BeatmapSetID:770306

[Difficulty]
HPDrainRate:4.5
CircleSize:3.8
OverallDifficulty:6.5
ApproachRate:7.3
SliderMultiplier:1.3
SliderTickRate:1

[Events]
//Background and Video events
0,0,"Rukia-Kuchiki-HD-Background-Wallpaper-22141.jpg",0,0
//Break Periods
2,42801,44656
//Storyboard Layer 0 (Background)
//Storyboard Layer 1 (Fail)
//Storyboard Layer 2 (Pass)
//Storyboard Layer 3 (Foreground)
//Storyboard Sound Samples

[TimingPoints]
420,363.636363636364,4,2,2,40,1,0
13147,-100,4,1,2,60,0,0
13510,-90.9090909090909,4,1,2,60,0,0
30965,-100,4,1,2,60,0,0
42601,-133.333333333333,4,2,2,50,0,0
45510,-100,4,2,2,50,0,0
51329,-76.9230769230769,4,2,2,70,0,0
51510,-76.9230769230769,4,2,2,60,0,0
51783,-76.9230769230769,4,2,2,5,0,0
51874,-76.9230769230769,4,2,2,60,0,0
52056,-76.9230769230769,4,2,2,70,0,0
52238,-76.9230769230769,4,2,2,60,0,0
52510,-200,4,2,2,5,0,0
52601,-200,4,2,2,60,0,0
52783,-200,4,2,2,80,0,0
54238,-90.9090909090909,4,1,2,70,0,1
60056,-90.9090909090909,4,1,2,60,0,1
64420,-90.9090909090909,4,2,2,60,0,0
65874,-90.9090909090909,4,1,2,70,0,1
71692,-133.333333333333,4,2,2,60,0,0
74601,-133.333333333333,4,1,2,60,0,0
77510,-133.333333333333,4,2,2,60,0,0
81874,-100,4,2,2,60,0,0
83329,-100,4,1,2,60,0,0

[Colours]
Combo1 : 196,136,255
Combo2 : 30,135,240
Combo3 : 0,0,213
Combo4 : 113,12,180

[HitObjects]
117,91,420,6,0,P|177:64|252:84,1,130,4|0,0:2|0:2,0:0:0:0:
292,140,965,1,0,0:2:0:0:
359,190,1147,2,0,L|444:197,1,65,2|0,0:2|0:2,0:0:0:0:
379,281,1510,2,0,P|360:301|353:354,1,65,2|0,0:2|0:2,0:0:0:0:
277,380,1874,5,2,0:2:0:0:
277,380,2056,1,0,0:2:0:0:
237,305,2238,2,0,P|257:254|252:228,1,65,0|0,0:2|0:2,0:0:0:0:
289,152,2601,2,0,P|332:118|340:92,1,65,2|2,0:2|0:2,0:0:0:0:
345,26,2965,1,2,0:2:0:0:
181,69,3329,5,2,0:2:0:0:
181,69,3510,2,0,P|170:98|165:155,1,65,2|0,0:2|0:2,0:0:0:0:
133,210,3874,1,0,0:2:0:0:
60,254,4056,2,0,P|35:273|3:320,1,65,2|0,0:2|0:2,0:0:0:0:
93,332,4420,2,0,P|119:341|168:354,1,65,2|0,0:2|0:2,0:0:0:0:
266,324,4783,6,0,P|252:286|253:248,1,65,2|0,0:2|0:2,0:0:0:0:
322,174,5147,2,0,P|335:211|335:250,1,65,2|0,0:2|0:2,0:0:0:0:
413,305,5510,2,0,P|426:267|426:229,1,65,2|0,0:2|0:2,0:0:0:0:
468,167,5874,1,2,0:2:0:0:
295,89,6238,6,0,L|141:113,1,130,2|0,0:2|0:2,0:0:0:0:
82,95,6783,1,0,0:2:0:0:
113,173,6965,2,0,L|122:260,1,65,2|0,0:2|0:2,0:0:0:0:
85,314,7329,2,0,L|49:393,1,65,2|0,0:2|0:2,0:0:0:0:
159,355,7692,5,2,0:2:0:0:
196,282,7874,1,0,0:2:0:0:
269,322,8056,2,0,L|350:315,1,65,0|0,0:2|0:2,0:0:0:0:
405,265,8420,2,0,L|471:218,1,65,2|2,0:2|0:2,0:0:0:0:
481,149,8783,1,2,0:2:0:0:
367,1,9147,6,0,P|321:1|278:9,1,65,2|0,0:2|0:2,0:0:0:0:
409,81,9510,2,0,P|448:57|482:29,1,65,0|0,0:2|0:2,0:0:0:0:
321,88,9874,2,0,P|298:127|283:169,1,65,2|2,0:2|0:2,0:0:0:0:
317,226,10238,1,2,0:2:0:0:
317,226,10420,1,2,0:2:0:0:
229,289,10601,6,0,P|179:311|105:284,1,130,2|0,0:2|0:0,0:0:0:0:
110,119,11329,2,0,L|131:-17,1,130,0|0,0:2|0:2,0:0:0:0:
209,19,11874,1,0,0:2:0:0:
209,19,12056,6,0,B|245:56|299:5|357:54,1,130,0|0,0:2|0:0,0:0:0:0:
333,39,13147,1,12,1:2:0:0:
350,206,13510,6,0,P|290:222|215:189,1,143.000004364014,4|10,3:2|0:2,0:0:0:0:
173,109,14056,1,0,0:2:0:0:
80,100,14238,2,0,P|39:106|-22:99,1,71.5000021820069,2|0,3:2|3:2,0:0:0:0:
32,194,14601,2,0,P|36:235|59:292,1,71.5000021820069,8|0,0:2|0:0,0:0:0:0:
118,322,14965,5,2,0:2:0:0:
118,322,15147,2,0,L|205:313,1,71.5000021820069,2|8,0:2|0:2,0:0:0:0:
217,226,15510,2,0,L|363:278,1,143.000004364014,2|2,0:2|0:2,0:0:0:0:
445,270,16056,1,10,0:2:0:0:
459,178,16238,1,2,0:2:0:0:
366,174,16420,5,2,3:2:0:0:
366,174,16601,2,0,L|292:142,1,71.5000021820069,2|8,0:2|0:2,0:0:0:0:
251,61,16965,2,0,L|399:41,1,143.000004364014,2|2,0:2|0:2,0:0:0:0:
476,81,17510,1,10,0:2:0:0:
476,81,17692,1,2,0:2:0:0:
502,170,17874,5,6,0:2:0:0:
318,201,18238,1,8,0:2:0:0:
135,167,18601,2,0,L|144:211,3,35.7500010910034,0|0|0|0,0:2|0:2|0:2|0:2,0:0:0:0:
115,140,18965,2,0,L|106:96,3,35.7500010910034,8|8|8|8,0:2|0:2|0:2|0:2,0:0:0:0:
131,64,19329,6,0,P|166:57|205:75,1,71.5000021820069,4|0,3:2|3:2,0:0:0:0:
204,162,19692,1,8,0:2:0:0:
296,167,19874,2,0,P|313:232|319:317,1,143.000004364014,2|0,0:2|3:2,0:0:0:0:
226,288,20420,1,8,0:2:0:0:
163,219,20601,2,0,P|146:154|140:69,1,143.000004364014,2|0,0:2|3:2,0:0:0:0:
198,6,21147,1,8,0:2:0:0:
279,51,21329,2,0,P|317:62|376:55,1,71.5000021820069,2|0,3:2|3:2,0:0:0:0:
400,139,21692,2,0,P|361:150|303:143,1,71.5000021820069,0|8,3:2|0:2,0:0:0:0:
237,139,22056,1,0,0:2:0:0:
203,225,22238,6,0,L|214:304,1,71.5000021820069,2|0,3:2|0:2,0:0:0:0:
119,292,22601,1,10,0:2:0:0:
119,292,22783,1,0,0:2:0:0:
118,198,22965,2,0,L|68:135,1,71.5000021820069,2|0,3:2|0:2,0:0:0:0:
190,134,23329,2,0,L|263:104,1,71.5000021820069,10|0,0:2|0:2,0:0:0:0:
347,89,23692,1,2,3:2:0:0:
347,89,23874,1,0,0:2:0:0:
434,119,24056,2,0,P|466:135|506:146,1,71.5000021820069,10|0,0:2|0:2,0:0:0:0:
498,58,24420,1,2,3:2:0:0:
498,58,24601,1,2,0:2:0:0:
414,16,24783,1,10,3:2:0:0:
384,199,25147,6,0,P|332:191|301:213,1,71.5000021820069,4|0,3:2|3:2,0:0:0:0:
251,266,25510,1,8,0:2:0:0:
183,330,25692,2,0,P|108:340|19:326,1,143.000004364014,2|0,0:2|3:2,0:0:0:0:
18,241,26238,1,8,0:2:0:0:
109,224,26420,2,0,B|128:192|111:158|111:158|90:121|110:81,1,143.000004364014,2|0,0:2|3:2,0:0:0:0:
176,25,26965,1,8,0:2:0:0:
194,116,27147,2,0,P|230:128|294:133,1,71.5000021820069,2|0,0:2|3:2,0:0:0:0:
348,97,27510,2,0,P|384:85|448:80,1,71.5000021820069,2|8,3:2|0:2,0:0:0:0:
462,260,28056,5,2,0:2:0:0:
386,314,28238,2,0,L|402:416,1,71.5000021820069,2|8,0:2|0:2,0:0:0:0:
304,372,28601,1,0,0:2:0:0:
304,372,28692,1,0,0:2:0:0:
304,372,28783,1,2,0:2:0:0:
211,381,28965,1,0,0:2:0:0:
128,337,29147,2,0,P|110:293|105:238,1,71.5000021820069,10|0,0:2|0:2,0:0:0:0:
128,178,29510,5,8,0:2:0:0:
288,83,29874,1,14,0:2:0:0:
444,184,30238,1,0,3:2:0:0:
288,83,30601,1,12,0:2:0:0:
120,61,30965,6,0,P|83:60|21:149,1,130,12|10,0:2|3:2,0:0:0:0:
22,206,31510,2,0,P|58:215|115:215,1,65,2|0,0:2|0:2,0:0:0:0:
170,220,31874,1,0,3:2:0:0:
224,284,32056,2,0,P|251:310|300:338,1,65,8|0,0:2|3:2,0:0:0:0:
351,359,32420,1,2,3:2:0:0:
432,211,32783,6,0,P|437:172|426:119,1,65,10|0,0:2|0:2,0:0:0:0:
390,73,33147,1,2,3:2:0:0:
318,118,33329,1,0,0:2:0:0:
238,90,33510,1,8,0:2:0:0:
76,40,33874,5,0,0:2:0:0:
31,111,34056,1,0,0:2:0:0:
31,111,34147,1,0,0:2:0:0:
31,111,34238,2,0,P|24:151|39:195,1,65,8|0,0:2|0:2,0:0:0:0:
85,237,34601,2,0,P|98:275|133:305,1,65,0|0,3:2|0:2,0:0:0:0:
165,361,34965,2,0,L|239:382,1,65,8|0,0:2|0:2,0:0:0:0:
325,345,35329,5,2,3:2:0:0:
325,345,35510,2,0,P|332:309|328:268,1,65,0|10,0:2|0:2,0:0:0:0:
293,204,35874,1,0,0:2:0:0:
269,122,36056,2,0,L|286:29,1,65,2|2,3:2|0:2,0:0:0:0:
347,5,36420,1,10,0:2:0:0:
398,165,36783,1,4,0:2:0:0:
293,297,37147,5,10,3:2:0:0:
293,297,37329,2,0,L|202:311,1,65,2|0,0:2|0:2,0:0:0:0:
147,284,37692,1,0,3:2:0:0:
65,306,37874,2,0,L|2:282,1,65,10|0,0:2|0:2,0:0:0:0:
70,207,38238,6,0,P|75:172|69:131,1,65,2|0,3:2|0:2,0:0:0:0:
137,75,38601,2,0,P|149:42|175:9,1,65,10|2,0:2|0:2,0:0:0:0:
248,41,38965,1,0,0:2:0:0:
329,65,39147,1,2,0:2:0:0:
403,25,39329,1,8,0:2:0:0:
461,183,39692,6,0,B|478:211|462:242|462:242|443:275|461:311,1,130,4|10,0:2|0:2,0:0:0:0:
291,329,40420,2,0,B|262:346|231:330|231:330|198:311|162:329,1,130,2|8,0:2|0:2,0:0:0:0:
147,158,41147,5,12,3:2:0:0:
155,168,41329,1,0,3:2:0:0:
238,178,41510,2,0,L|312:194,1,65,0|8,3:2|0:2,0:0:0:0:
385,205,41874,1,0,3:2:0:0:
393,214,42056,1,0,3:2:0:0:
427,291,42238,6,0,L|411:365,1,65,0|8,3:2|0:2,0:0:0:0:
506,238,42601,1,4,0:2:0:0:
229,88,45510,6,0,P|238:120|243:176,1,65,6|2,3:2|0:2,0:0:0:0:
213,231,45874,1,2,0:2:0:0:
158,296,46056,1,2,3:2:0:0:
196,371,46238,1,8,0:2:0:0:
394,314,46601,5,2,0:2:0:0:
343,246,46783,1,0,1:2:0:0:
343,246,46874,1,0,1:2:0:0:
343,246,46965,2,0,P|343:212|350:170,2,65,0|8|2,1:2|0:2|0:2,0:0:0:0:
263,96,47692,5,8,0:2:0:0:
184,128,47874,1,8,0:2:0:0:
115,77,48056,1,12,0:2:0:0:
111,57,48238,1,8,0:2:0:0:
32,26,48420,6,0,L|13:166,1,130,4|2,3:2|0:2,0:0:0:0:
146,261,49147,1,8,0:2:0:0:
275,153,49510,1,0,0:2:0:0:
317,79,49692,1,0,1:2:0:0:
317,79,49783,1,0,1:2:0:0:
317,79,49874,6,0,L|401:85,2,65,0|8|2,1:2|0:2|0:2,0:0:0:0:
153,123,50601,1,8,0:2:0:0:
83,171,50783,1,0,3:2:0:0:
153,123,50965,1,0,3:2:0:0:
235,143,51147,1,0,0:0:0:0:
316,165,51329,6,0,L|397:186,1,84.4999961318971,12|2,0:2|0:2,0:0:0:0:
226,168,52056,2,0,L|146:193,1,84.4999961318971,12|2,0:2|0:2,0:0:0:0:
397,186,52783,5,8,0:2:0:0:
316,165,52965,1,8,0:2:0:0:
226,168,53147,1,8,0:2:0:0:
146,193,53329,1,8,0:2:0:0:
146,193,54238,6,0,P|127:127|143:37,1,143.000004364014,4|8,0:2|0:2,0:0:0:0:
225,27,54783,1,0,0:2:0:0:
307,69,54965,1,2,3:2:0:0:
394,36,55147,1,0,0:2:0:0:
476,78,55329,2,0,P|495:111|494:175,1,71.5000021820069,10|0,0:2|0:2,0:0:0:0:
490,236,55692,6,0,P|452:225|408:180,1,71.5000021820069,2|0,3:2|0:2,0:0:0:0:
378,126,56056,1,8,0:2:0:0:
378,126,56238,1,0,0:2:0:0:
290,156,56420,1,2,3:2:0:0:
290,156,56601,1,2,3:2:0:0:
197,145,56783,1,10,0:2:0:0:
51,261,57147,5,2,0:2:0:0:
51,261,57329,2,0,P|45:296|57:348,2,71.5000021820069,2|8|0,0:2|0:2|0:2,0:0:0:0:
132,215,57874,2,0,P|145:181|167:154,1,71.5000021820069,2|0,0:2|0:2,0:0:0:0:
256,179,58238,1,10,0:2:0:0:
256,179,58420,1,0,0:2:0:0:
327,119,58601,6,0,P|362:107|413:117,1,71.5000021820069,2|0,3:2|0:2,0:0:0:0:
484,162,58965,1,10,0:2:0:0:
401,123,59147,1,0,0:2:0:0:
401,216,59329,1,2,3:2:0:0:
401,216,59510,1,0,0:2:0:0:
310,236,59692,1,10,0:2:0:0:
149,141,60056,6,0,B|107:122|107:122|61:134|61:134|4:114,1,143.000004364014,4|8,0:2|0:2,0:0:0:0:
183,39,60783,2,0,L|257:68,1,71.5000021820069,0|0,0:2|0:2,0:0:0:0:
339,39,61147,1,8,0:2:0:0:
409,210,61510,6,0,P|341:238|262:204,1,143.000004364014,0|8,0:2|0:2,0:0:0:0:
200,166,62056,1,0,0:2:0:0:
200,166,62238,2,0,P|159:170|119:180,1,71.5000021820069,0|0,3:2|3:2,0:0:0:0:
83,277,62601,1,8,0:2:0:0:
325,348,62965,6,0,P|293:282|313:193,1,143.000004364014,4|8,0:2|0:2,0:0:0:0:
379,162,63510,1,0,0:2:0:0:
363,70,63692,1,2,3:2:0:0:
363,70,63874,1,2,0:2:0:0:
288,14,64056,2,0,L|192:7,1,71.5000021820069,10|2,0:2|0:2,0:0:0:0:
128,42,64420,6,0,L|113:96,3,35.7500010910034,0|0|0|0,1:2|1:2|1:2|1:2,0:0:0:0:
126,122,64783,1,4,0:2:0:0:
291,197,65147,2,0,L|282:146,3,35.7500010910034,8|8|8|8,0:2|0:2|0:2|0:2,0:0:0:0:
333,218,65510,2,0,L|324:167,3,35.7500010910034,8|8|8|8,0:2|0:2|0:2|0:2,0:0:0:0:
368,247,65874,6,0,P|380:274|362:383,1,143.000004364014,4|8,0:2|0:2,0:0:0:0:
277,353,66420,1,0,0:2:0:0:
210,288,66601,2,0,P|202:246|216:206,1,71.5000021820069,2|0,3:2|0:2,0:0:0:0:
256,138,66965,1,10,0:2:0:0:
238,46,67147,1,0,0:2:0:0:
145,37,67329,6,0,P|113:31|72:48,1,71.5000021820069,2|0,3:2|0:2,0:0:0:0:
26,122,67692,1,8,0:2:0:0:
66,205,67874,1,0,0:2:0:0:
24,288,68056,1,2,3:2:0:0:
66,205,68238,1,2,3:2:0:0:
152,238,68420,1,10,0:2:0:0:
337,236,68783,6,0,L|317:148,1,71.5000021820069,2|0,3:2|0:2,0:0:0:0:
322,72,69147,1,8,0:2:0:0:
322,72,69329,1,0,0:2:0:0:
229,72,69510,2,0,L|167:5,1,71.5000021820069,2|2,3:2|0:2,0:0:0:0:
86,24,69874,1,10,0:2:0:0:
86,24,70056,1,2,0:2:0:0:
27,96,70238,1,4,0:2:0:0:
196,260,70601,6,0,L|294:264,1,71.5000021820069,8|0,0:2|0:2,0:0:0:0:
267,262,70874,1,0,0:2:0:0:
267,262,70965,1,0,0:2:0:0:
354,230,71147,1,0,0:2:0:0:
172,82,71510,5,0,0:2:0:0:
105,152,71692,2,0,B|85:197|136:245|101:311,1,146.250005578995,4|0,3:2|0:2,0:0:0:0:
163,357,72420,1,8,0:2:0:0:
163,357,72783,5,0,0:2:0:0:
231,300,72965,1,8,0:2:0:0:
280,141,73329,1,8,0:2:0:0:
280,141,73692,5,0,3:2:0:0:
362,96,73874,1,8,0:2:0:0:
302,250,74238,1,0,3:2:0:0:
176,106,74601,6,0,L|111:112,1,48.750001859665,4|0,3:2|0:2,0:0:0:0:
113,206,74965,2,0,L|53:178,1,48.750001859665,0|0,0:2|0:2,0:0:0:0:
44,99,75329,1,8,0:2:0:0:
55,14,75510,1,0,0:2:0:0:
140,26,75692,1,0,3:2:0:0:
127,110,75874,1,8,3:2:0:0:
184,181,76056,1,0,3:2:0:0:
184,181,76238,6,0,L|244:200,1,48.750001859665,8|0,0:2|0:2,0:0:0:0:
325,195,76601,1,0,0:2:0:0:
325,195,76783,2,0,L|385:176,1,48.750001859665,8|0,0:2|0:2,0:0:0:0:
441,246,77147,2,0,L|447:287,3,24.3750009298325,0|0|0|0,0:2|0:2|0:2|0:2,0:0:0:0:
463,205,77510,6,0,B|483:160|432:112|467:46,1,146.250005578995,4|0,3:2|0:2,0:0:0:0:
393,10,78238,1,8,0:2:0:0:
393,10,78601,5,0,0:2:0:0:
311,27,78783,1,8,0:2:0:0:
145,12,79147,1,8,0:2:0:0:
145,12,79510,5,0,0:2:0:0:
65,36,79692,1,8,0:2:0:0:
54,201,80056,2,0,L|74:143,1,48.750001859665,0|0,3:2|3:2,0:0:0:0:
192,129,80420,6,0,B|203:195|294:214|337:156|337:156|369:209|459:212|488:138|488:138|466:192|479:233|479:233|495:285|465:344,1,585.00002231598,6|2,3:2|0:2,0:0:0:0:
200,282,82965,1,10,0:2:0:0:
99,84,83329,6,0,P|89:140|114:223,1,130,4|10,0:2|0:2,0:0:0:0:
194,184,83874,1,0,0:2:0:0:
279,215,84056,2,0,P|312:229|363:227,1,65,2|0,3:2|3:2,0:0:0:0:
417,181,84420,1,10,0:2:0:0:
309,34,84783,5,2,0:2:0:0:
256,108,84965,2,0,L|171:124,1,65,2|8,0:2|0:2,0:0:0:0:
123,66,85329,2,0,L|4:128,1,130,2|2,0:2|0:2,0:0:0:0:
7,217,85874,1,10,0:2:0:0:
49,297,86056,1,2,0:2:0:0:
19,383,86238,5,2,0:2:0:0:
19,383,86420,2,0,L|103:375,1,65,2|8,0:2|0:2,0:0:0:0:
137,303,86783,2,0,L|292:335,1,130,2|2,0:2|0:2,0:0:0:0:
354,316,87329,1,10,0:2:0:0:
433,272,87510,1,2,0:2:0:0:
414,172,87692,5,8,0:2:0:0:
414,172,88056,2,0,L|339:184,1,65,2|2,0:2|0:2,0:0:0:0:
246,180,88420,5,6,3:2:0:0:
211,96,88601,1,4,3:2:0:0:
162,215,88783,1,4,3:2:0:0:
127,131,88965,1,6,3:2:0:0:
