osu file format v14

[General]
AudioFilename: audio.mp3
AudioLeadIn: 0
PreviewTime: 196818
Countdown: 0
SampleSet: Soft
StackLeniency: 0.7
Mode: 0
LetterboxInBreaks: 0
WidescreenStoryboard: 1

[Editor]
Bookmarks: 13923,25560,37196,48833,60469,72105,86651,95378,107014,118651,130287,141923,156469,172469,184105,184287,184469,184651,184742,184833,185014,185105,185287,185378,185469,185560,185742,185833,185923,186014,186105,186196,186287,186378,186560,186651,186742,186833,186923,187105,187196,187287,187378,187469,187651,187742,187833,187923,188105,188196,188287,188378,188560,188651,188742,188833,189014,189105,189196,189378,189469,189560,189651,189833,189923,190014,190196,190287,190378,190560,190651,190742,190833,191014,191105,191196,191287,191469,191560,191651,191833,191923,192014,192105,192287,192378,192469,192651,192742,192833,192923,193105,193196,193287,193469,193560,193742,193833,193923,194014,194196,194287,197196,208833,229196
DistanceSpacing: 0.2
BeatDivisor: 4
GridSize: 32
TimelineZoom: 1.8

[Metadata]
Title:chAngE
TitleUnicode:chAngE
Artist:miwa
ArtistUnicode:miwa
Creator:Kowari
Version:collAb insAnE
Source:BLEACH
Tags:Sony Music Entertainment Japan γƒ–γƒͺーチ Opening OP Full ver version japanese anime Fixxis spoes
BeatmapID:2020129
BeatmapSetID:888949

[Difficulty]
HPDrainRate:6
CircleSize:3.7
OverallDifficulty:8
ApproachRate:8.7
SliderMultiplier:1.6
SliderTickRate:1

[Events]
//Background and Video events
0,0,"bg.jpg",0,0
//Break Periods
//Storyboard Layer 0 (Background)
//Storyboard Layer 1 (Fail)
//Storyboard Layer 2 (Pass)
//Storyboard Layer 3 (Foreground)
//Storyboard Sound Samples

[TimingPoints]
833,363.636363636364,4,2,1,75,1,0
833,-142.857142857143,4,2,1,75,0,0
13742,-100,4,2,1,75,0,0
13923,-111.111111111111,4,2,1,75,0,0
25560,-125,4,2,1,70,0,0
48833,-142.857142857143,4,2,1,63,0,0
57560,-111.111111111111,4,2,1,63,0,0
60469,-83.3333333333333,4,2,1,80,0,1
77923,-100,4,2,1,70,0,1
86651,-100,4,2,1,70,0,0
89560,-125,4,2,1,75,0,0
95378,-125,4,2,1,70,0,0
118651,-142.857142857143,4,2,1,63,0,0
127378,-111.111111111111,4,2,1,63,0,0
130287,-83.3333333333333,4,2,1,80,0,1
144560,-83.3333333333333,4,2,1,5,0,1
144651,-83.3333333333333,4,2,1,80,0,1
147560,-83.3333333333333,4,2,1,70,0,1
147742,-100,4,2,1,70,0,1
156469,-100,4,2,1,75,0,0
158651,-125,4,2,1,75,0,0
159378,-83.3333333333333,4,2,1,85,0,0
172469,-111.111111111111,4,2,1,70,0,0
177014,-111.111111111111,4,2,1,70,0,0
177105,-111.111111111111,4,2,1,70,0,0
184105,-142.857142857143,4,2,1,50,0,0
196833,-142.857142857143,4,2,1,75,0,0
197196,-76.9230769230769,4,2,1,90,0,1
214651,-90.9090909090909,4,2,1,75,0,1
229196,-100,4,2,1,75,0,0
232105,-125,4,2,1,75,0,0

[Colours]
Combo1 : 0,85,170
Combo2 : 128,255,128
Combo3 : 180,180,103
Combo4 : 150,150,203

[HitObjects]
43,278,833,6,0,P|71:300|158:282,1,111.999996582031,2|0,0:2|0:2,0:0:0:0:
184,227,1378,1,2,0:2:0:0:
184,227,1560,2,0,L|178:162,1,55.9999982910157,2|0,0:2|0:2,0:0:0:0:
268,258,1923,2,0,L|274:193,1,55.9999982910157,2|0,0:2|0:2,0:0:0:0:
337,141,2287,6,0,P|363:128|399:127,1,55.9999982910157,2|0,0:2|0:2,0:0:0:0:
432,242,2651,2,0,P|415:219|392:204,1,55.9999982910157,2|0,0:2|0:2,0:0:0:0:
385,340,3014,2,0,L|442:332,2,55.9999982910157,2|0|2,0:2|0:2|0:2,0:0:0:0:
247,359,3742,6,0,P|258:317|252:286,1,55.9999982910157,2|0,0:2|0:2,0:0:0:0:
211,236,4105,2,0,P|200:194|206:163,1,55.9999982910157,2|0,0:2|0:2,0:0:0:0:
244,104,4469,2,0,L|184:94,1,55.9999982910157,2|0,0:2|0:2,0:0:0:0:
56,56,4833,2,0,L|111:46,1,55.9999982910157,2|0,0:2|0:2,0:0:0:0:
76,201,5196,6,0,P|46:178|35:141,1,55.9999982910157,2|0,0:2|0:2,0:0:0:0:
101,279,5560,2,0,P|63:283|29:265,1,55.9999982910157,2|0,0:2|0:2,0:0:0:0:
173,315,5923,2,0,P|149:345|113:356,1,55.9999982910157,2|0,0:2|0:2,0:0:0:0:
256,344,6287,2,0,P|259:307|235:261,1,83.9999974365235,2|0,0:2|0:2,0:0:0:0:
220,240,6651,6,0,B|280:251|280:251|339:240,1,111.999996582031,2|0,0:2|0:2,0:0:0:0:
426,216,7196,1,2,0:2:0:0:
426,216,7378,2,0,L|421:273,1,55.9999982910157,2|0,0:2|0:2,0:0:0:0:
508,182,7742,2,0,L|513:239,1,55.9999982910157,2|0,0:2|0:2,0:0:0:0:
431,135,8105,6,0,P|462:108|481:103,1,55.9999982910157,2|0,0:2|0:2,0:0:0:0:
352,145,8469,2,0,P|354:103|364:87,1,55.9999982910157,2|0,0:2|0:2,0:0:0:0:
435,17,8833,2,0,L|494:17,2,55.9999982910157,2|0|2,0:2|0:2|0:2,0:0:0:0:
245,10,9560,6,0,L|251:72,1,55.9999982910157,2|0,0:2|0:2,0:0:0:0:
294,148,9923,2,0,L|288:210,1,55.9999982910157,2|0,0:2|0:2,0:0:0:0:
254,288,10287,2,0,P|224:298|194:299,1,55.9999982910157,2|0,0:2|0:2,0:0:0:0:
133,232,10651,2,0,P|103:222|73:221,1,55.9999982910157,2|0,0:2|0:2,0:0:0:0:
5,275,11014,1,2,0:2:0:0:
5,275,11560,5,2,0:2:0:0:
80,220,11742,2,0,P|102:180|89:117,1,111.999996582031,2|2,0:2|0:2,0:0:0:0:
35,44,12287,1,2,0:2:0:0:
35,44,12469,2,0,B|96:16|149:47|149:47|180:23|180:23|241:55|308:28,1,279.999991455078,0|0,0:2|0:0,0:0:0:0:
470,7,13560,1,8,0:0:0:0:
402,161,13742,1,0,1:2:0:0:
402,161,13833,1,0,1:2:0:0:
402,161,13923,6,0,P|389:117|397:70,1,71.9999978027344,6|0,1:2|0:0,0:0:0:0:
482,118,14287,1,8,0:2:0:0:
325,206,14469,1,0,0:2:0:0:
491,270,14651,2,0,P|502:236|502:200,1,71.9999978027344,2|0,1:2|1:2,0:0:0:0:
309,122,15014,2,0,L|168:107,1,107.999996704102,10|0,0:2|0:0,0:0:0:0:
181,115,15378,5,2,1:2:0:0:
10,219,15560,2,0,L|104:201,1,71.9999978027344,2|8,0:2|0:2,0:0:0:0:
231,295,15923,2,0,L|137:277,1,71.9999978027344,2|0,1:2|1:2,0:0:0:0:
81,206,16287,1,2,1:2:0:0:
113,355,16469,1,10,0:2:0:0:
195,204,16651,1,2,0:2:0:0:
28,294,16833,5,2,1:2:0:0:
210,382,17014,2,0,L|296:367,1,71.9999978027344,0|8,0:2|0:2,0:0:0:0:
420,276,17378,2,0,L|334:261,1,71.9999978027344,2|0,1:2|1:2,0:0:0:0:
372,358,17742,1,2,1:2:0:0:
295,193,17923,1,10,0:2:0:0:
280,369,18105,1,2,0:2:0:0:
384,185,18287,6,0,L|397:101,1,71.9999978027344,2|0,1:2|0:2,0:0:0:0:
295,193,18651,1,10,0:2:0:0:
420,276,18833,1,0,1:2:0:0:
212,274,19014,2,0,L|120:255,1,71.9999978027344,10|0,0:2|0:2,0:0:0:0:
280,369,19378,1,8,0:2:0:0:
280,369,19469,1,8,0:2:0:0:
280,369,19560,1,8,0:2:0:0:
210,154,19742,6,0,L|198:65,1,71.9999978027344,6|0,1:2|0:0,0:0:0:0:
120,81,20105,1,8,0:2:0:0:
299,140,20287,1,0,0:2:0:0:
151,219,20469,2,0,P|110:221|69:193,1,71.9999978027344,2|0,1:2|1:2,0:0:0:0:
210,154,20833,2,0,P|238:198|234:257,1,107.999996704102,10|0,0:2|0:0,0:0:0:0:
231,269,21196,5,2,1:2:0:0:
338,310,21378,2,0,L|430:301,1,71.9999978027344,2|8,0:2|0:2,0:0:0:0:
497,194,21742,2,0,L|405:185,1,71.9999978027344,2|0,1:2|1:2,0:0:0:0:
348,225,22105,1,2,1:2:0:0:
496,286,22287,1,10,0:2:0:0:
440,102,22469,1,0,0:2:0:0:
409,302,22651,5,2,1:2:0:0:
275,168,22833,2,0,P|307:141|353:137,1,71.9999978027344,0|8,0:2|0:2,0:0:0:0:
267,282,23196,2,0,L|179:259,1,71.9999978027344,2|0,0:2|1:2,0:0:0:0:
140,191,23560,5,2,1:2:0:0:
182,349,23742,1,10,0:2:0:0:
275,168,23923,1,2,0:2:0:0:
103,284,24105,6,0,L|11:293,1,71.9999978027344,6|0,1:2|0:2,0:0:0:0:
140,191,24469,1,10,0:2:0:0:
95,371,24651,1,0,0:2:0:0:
48,203,24833,1,10,0:2:0:0:
50,177,24923,1,8,0:2:0:0:
56,152,25014,1,8,0:2:0:0:
72,133,25105,1,8,0:2:0:0:
89,114,25196,2,0,L|126:95,3,35.9999989013672,10|8|10|8,0:2|0:2|0:2|0:2,0:0:0:0:
151,95,25560,6,0,L|300:99,1,128,4|10,1:2|0:2,0:0:0:0:
365,152,26105,2,0,P|373:186|365:221,1,64,2|0,0:2|1:2,0:0:0:0:
295,328,26469,2,0,P|290:296|297:265,1,64,2|10,1:2|0:2,0:0:0:0:
441,296,26833,2,0,L|365:299,1,64,2|0,0:2|1:2,0:0:0:0:
501,235,27196,5,2,0:2:0:0:
449,377,27378,1,10,0:2:0:0:
356,221,27560,2,0,L|433:218,1,64,2|0,0:2|1:2,0:0:0:0:
351,370,27923,2,0,L|271:368,2,64,2|8|2,1:2|0:0|0:2,0:0:0:0:
230,302,28469,6,0,P|207:332|201:362,1,64,2|2,1:2|0:2,0:0:0:0:
233,221,28833,2,0,P|195:225|170:242,1,64,10|2,0:2|0:2,0:0:0:0:
238,141,29196,2,0,P|269:149|294:170,1,64,2|2,1:2|1:2,0:0:0:0:
173,90,29560,2,0,P|197:69|228:61,1,64,10|2,0:2|0:2,0:0:0:0:
350,86,29923,6,0,L|343:13,1,64,2|2,1:2|0:2,0:0:0:0:
483,72,30287,2,0,L|476:135,1,64,10|2,0:2|0:2,0:0:0:0:
368,218,30651,1,0,1:2:0:0:
400,147,30833,1,2,1:2:0:0:
421,275,31014,2,0,P|381:292|315:273,1,96,10|0,0:2|0:0,0:0:0:0:
311,264,31378,6,0,P|267:246|189:266,1,128,4|10,1:2|0:2,0:0:0:0:
76,373,31923,2,0,P|115:380|146:369,1,64,2|0,0:2|1:2,0:0:0:0:
105,231,32287,2,0,P|98:270|109:301,1,64,2|10,1:2|0:2,0:0:0:0:
179,182,32651,2,0,P|127:150|58:160,1,128,2|2,0:2|0:2,0:0:0:0:
62,157,33196,1,10,0:2:0:0:
142,56,33378,6,0,L|133:119,1,64,2|0,0:2|1:2,0:0:0:0:
43,17,33742,2,0,L|54:86,2,64,2|8|0,1:2|0:0|0:2,0:0:0:0:
237,16,34287,5,2,1:2:0:0:
237,16,34469,2,0,L|220:151,1,128,2|2,0:2|0:2,0:0:0:0:
218,167,34923,1,2,0:2:0:0:
218,167,35014,2,0,L|223:248,1,64,2|2,1:2|1:2,0:0:0:0:
340,274,35378,2,0,L|343:210,1,64,10|2,0:2|0:2,0:0:0:0:
344,191,35651,5,0,0:0:0:0:
344,191,35742,1,8,0:2:0:0:
263,321,35923,1,0,1:2:0:0:
423,352,36105,2,0,L|427:240,1,96,6|0,0:2|0:0,0:0:0:0:
427,229,36469,2,0,L|427:184,3,32,0|0|2|0,1:2|1:2|1:2|1:2,0:0:0:0:
461,126,36833,2,0,P|416:120|391:126,1,64,12|0,0:2|0:0,0:0:0:0:
195,199,37196,6,0,P|240:205|265:199,1,64,4|0,1:2|0:0,0:0:0:0:
312,138,37560,1,10,0:2:0:0:
148,117,37742,2,0,P|109:164|116:249,1,128,2|2,0:2|1:2,0:0:0:0:
152,361,38287,2,0,L|165:289,1,64,10|2,0:2|0:2,0:0:0:0:
323,188,38651,6,0,L|332:269,1,64,2|0,1:2|0:2,0:0:0:0:
243,326,39014,2,0,L|252:245,1,64,10|2,0:2|0:2,0:0:0:0:
278,111,39378,1,2,1:2:0:0:
183,197,39560,1,2,1:2:0:0:
323,188,39742,2,0,P|350:166|364:120,1,64,10|0,0:2|0:0,0:0:0:0:
233,36,40105,6,0,P|207:55|193:83,1,64,0|2,1:2|0:2,0:0:0:0:
196,104,40378,1,2,0:2:0:0:
196,104,40469,2,0,L|106:99,1,64,10|2,0:2|0:2,0:0:0:0:
30,212,40833,2,0,L|120:207,1,64,2|2,1:2|1:2,0:0:0:0:
55,127,41196,1,10,0:2:0:0:
65,291,41378,1,2,0:2:0:0:
176,170,41560,5,2,1:2:0:0:
30,212,41742,1,2,0:2:0:0:
207,251,41923,1,10,0:2:0:0:
65,291,42105,1,2,0:2:0:0:
227,97,42287,6,0,L|300:104,1,64,2|2,1:2|1:2,0:0:0:0:
113,26,42651,2,0,L|40:33,1,64,10|2,0:2|0:2,0:0:0:0:
227,97,43014,6,0,P|234:57|217:19,1,64,4|0,1:2|0:0,0:0:0:0:
122,132,43378,1,10,0:2:0:0:
275,177,43560,2,0,P|310:122|308:35,1,128,2|2,0:2|1:2,0:0:0:0:
186,199,44105,2,0,L|199:279,1,64,10|2,0:2|0:2,0:0:0:0:
39,118,44469,6,0,L|52:38,1,64,2|2,1:2|0:2,0:0:0:0:
122,132,44833,1,10,0:2:0:0:
0,195,45014,1,2,0:2:0:0:
112,268,45196,2,0,L|119:347,1,64,0|2,1:2|1:2,0:0:0:0:
206,145,45560,2,0,L|219:65,1,64,8|0,0:0|0:2,0:0:0:0:
276,5,45923,5,0,1:2:0:0:
140,45,46105,1,0,0:0:0:0:
324,90,46287,2,0,P|350:59|365:16,1,64,10|0,0:2|0:2,0:0:0:0:
299,202,46651,2,0,P|339:204|380:184,1,64,2|0,1:2|1:2,0:0:0:0:
207,272,47014,2,0,P|234:302|277:317,1,64,10|0,0:2|0:2,0:0:0:0:
280,330,47287,1,0,0:0:0:0:
280,330,47378,5,14,0:2:0:0:
219,185,47560,1,0,1:2:0:0:
157,341,47742,1,2,1:2:0:0:
138,151,47923,1,8,0:2:0:0:
207,272,48105,1,2,1:2:0:0:
192,83,48287,1,0,1:2:0:0:
124,234,48469,1,14,0:2:0:0:
287,238,48651,1,0,0:0:0:0:
58,185,48833,6,0,P|44:211|62:292,1,111.999996582031,6|0,1:2|0:2,0:0:0:0:
146,288,49378,1,0,1:2:0:0:
146,288,49560,2,0,L|208:283,1,55.9999982910157,8|0,0:2|0:2,0:0:0:0:
272,339,49923,1,2,0:2:0:0:
339,277,50105,5,8,0:2:0:0:
347,285,50196,1,8,0:2:0:0:
347,285,50287,2,0,P|349:247|342:227,1,55.9999982910157,10|8,0:2|0:2,0:0:0:0:
279,164,50651,2,0,P|277:126|284:106,1,55.9999982910157,0|2,1:2|0:2,0:0:0:0:
364,62,51014,2,0,L|430:68,2,55.9999982910157,8|0|2,0:2|0:2|0:2,0:0:0:0:
271,21,51560,1,2,0:2:0:0:
190,128,51742,6,0,L|119:130,1,55.9999982910157,6|0,1:2|0:0,0:0:0:0:
64,25,52105,2,0,L|135:27,1,55.9999982910157,2|2,0:2|1:2,0:0:0:0:
101,210,52469,2,0,P|63:180|56:113,1,111.999996582031,10|2,0:2|0:2,0:0:0:0:
206,97,53014,5,2,1:2:0:0:
206,97,53105,1,8,0:2:0:0:
206,97,53196,2,0,L|191:164,1,55.9999982910157,10|8,0:2|0:2,0:0:0:0:
305,201,53560,2,0,L|292:146,1,55.9999982910157,2|0,1:2|0:0,0:0:0:0:
219,267,53923,5,10,0:2:0:0:
370,243,54105,1,10,0:2:0:0:
201,179,54287,1,6,0:2:0:0:
305,298,54469,1,2,0:2:0:0:
416,150,54651,6,0,P|379:123|311:131,1,111.999996582031,6|2,1:2|0:2,0:0:0:0:
354,198,55196,1,0,1:2:0:0:
376,79,55378,2,0,P|339:56|258:72,1,111.999996582031,10|0,0:2|0:2,0:0:0:0:
225,149,55923,5,10,0:2:0:0:
225,149,56014,1,8,0:0:0:0:
225,149,56105,2,0,L|159:136,1,55.9999982910157,14|0,0:2|0:0,0:0:0:0:
239,256,56469,2,0,L|305:243,1,55.9999982910157,2|0,0:2|0:0,0:0:0:0:
397,225,56833,5,8,0:2:0:0:
382,320,57014,1,0,1:2:0:0:
331,173,57196,1,0,1:2:0:0:
458,283,57378,1,6,1:2:0:0:
475,95,57560,5,10,0:2:0:0:
475,95,57742,2,0,P|426:67|332:88,1,143.999995605469,2|2,1:2|1:2,0:0:0:0:
172,212,58287,1,14,0:2:0:0:
172,212,58469,2,0,P|241:228|305:198,1,143.999995605469,2|2,0:2|1:2,0:0:0:0:
265,0,59014,5,14,0:2:0:0:
232,145,59196,1,8,0:2:0:0:
363,7,59378,1,8,0:2:0:0:
388,234,59560,1,8,0:2:0:0:
37,327,60469,6,0,B|86:309|127:334|127:334|172:363|245:341,1,191.999994140625,6|8,1:2|0:2,0:0:0:0:
311,323,61014,1,2,0:2:0:0:
184,264,61196,1,2,1:2:0:0:
222,346,61378,1,2,1:2:0:0:
269,233,61560,1,10,0:2:0:0:
137,336,61742,1,2,0:2:0:0:
359,252,61923,5,2,1:2:0:0:
118,210,62105,1,2,0:2:0:0:
222,346,62287,5,10,0:2:0:0:
253,126,62469,1,2,0:2:0:0:
419,338,62651,2,0,L|524:325,1,95.9999970703126,2|2,1:2|1:2,0:0:0:0:
348,137,63014,2,0,L|243:124,1,95.9999970703126,8|0,0:2|0:0,0:0:0:0:
292,300,63378,5,2,1:2:0:0:
441,190,63560,2,0,P|454:141|439:92,1,95.9999970703126,2|10,0:2|0:2,0:0:0:0:
262,207,63923,1,2,0:2:0:0:
308,34,64105,1,2,1:2:0:0:
170,147,64287,1,2,1:2:0:0:
348,137,64469,1,10,0:2:0:0:
199,41,64651,1,2,0:2:0:0:
262,207,64833,5,2,1:2:0:0:
308,34,65014,1,2,0:2:0:0:
158,278,65196,5,10,0:2:0:0:
121,75,65378,1,2,1:2:0:0:
36,291,65560,2,0,L|21:388,1,95.9999970703126,2|2,0:2|1:2,0:0:0:0:
135,169,65923,2,0,L|120:72,1,95.9999970703126,10|0,0:2|0:0,0:0:0:0:
118,55,66196,1,8,0:2:0:0:
116,37,66287,6,0,P|65:44|3:171,1,191.999994140625,12|8,1:2|0:2,0:0:0:0:
36,291,66833,1,0,1:2:0:0:
178,241,67014,2,0,P|231:237|293:256,1,95.9999970703126,2|0,0:2|0:0,0:0:0:0:
428,343,67378,2,0,P|375:339|313:358,1,95.9999970703126,10|0,0:2|0:0,0:0:0:0:
330,81,67742,6,0,B|326:152|326:152|354:200|354:200|353:278,1,191.999994140625,2|8,1:2|0:2,0:0:0:0:
220,131,68287,2,0,L|107:104,1,95.9999970703126,0|0,1:2|0:0,0:0:0:0:
249,38,68651,1,2,1:2:0:0:
246,239,68833,1,10,0:2:0:0:
408,135,69014,1,0,0:0:0:0:
123,216,69196,6,0,L|101:14,1,191.999994140625,2|10,1:2|0:2,0:0:0:0:
249,38,69742,1,2,1:2:0:0:
34,157,69923,2,0,L|20:43,1,95.9999970703126,2|2,0:2|1:2,0:0:0:0:
203,145,70287,1,10,0:2:0:0:
29,273,70469,1,2,0:2:0:0:
208,333,70651,6,0,L|211:277,3,47.9999985351563,10|8|10|8,0:2|0:2|0:2|0:2,0:0:0:0:
185,274,71014,2,0,L|178:398,1,95.9999970703126,4|0,1:2|0:0,0:0:0:0:
305,295,71378,1,8,0:2:0:0:
316,263,71469,1,8,0:2:0:0:
317,229,71560,1,10,0:2:0:0:
303,197,71651,1,8,0:2:0:0:
279,172,71742,6,0,L|206:158,1,47.9999985351563,10|8,0:2|0:2,0:0:0:0:
400,281,71923,2,0,L|473:267,1,47.9999985351563,10|8,0:2|0:2,0:0:0:0:
480,51,72105,6,0,P|423:65|417:195,1,191.999994140625,6|8,1:2|0:2,0:0:0:0:
469,134,72651,1,2,0:2:0:0:
339,97,72833,1,2,1:2:0:0:
404,181,73014,1,2,1:2:0:0:
370,12,73196,1,10,0:2:0:0:
277,162,73378,1,2,0:2:0:0:
421,73,73560,5,2,1:2:0:0:
206,34,73742,1,2,0:2:0:0:
310,236,73923,5,10,0:2:0:0:
291,23,74105,1,2,0:2:0:0:
194,205,74287,2,0,P|140:223|75:195,1,95.9999970703126,2|2,1:2|1:2,0:0:0:0:
0,86,74651,2,0,P|46:78|90:96,1,95.9999970703126,10|2,0:2|0:2,0:0:0:0:
93,292,75014,5,2,1:2:0:0:
266,163,75196,2,0,L|273:279,1,95.9999970703126,2|8,0:2|0:0,0:0:0:0:
288,374,75560,1,2,0:2:0:0:
174,253,75742,1,2,1:2:0:0:
347,295,75923,1,2,1:2:0:0:
194,351,76105,1,10,0:2:0:0:
369,288,76287,1,2,0:2:0:0:
221,133,76469,5,2,1:2:0:0:
269,302,76651,1,0,0:0:0:0:
350,129,76833,2,0,P|401:110|452:117,1,95.9999970703126,8|2,0:2|1:2,0:0:0:0:
460,129,77105,1,8,0:2:0:0:
460,129,77196,1,10,0:2:0:0:
490,274,77378,1,8,0:2:0:0:
408,211,77560,1,10,0:2:0:0:
417,336,77742,1,2,1:2:0:0:
324,248,77923,6,0,B|242:223|256:283|165:256,1,160,4|0,1:2|0:2,0:0:0:0:
78,245,78469,1,2,0:2:0:0:
145,182,78651,2,0,P|169:241|126:323,1,160,8|8,0:2|0:2,0:0:0:0:
78,245,79196,1,8,0:2:0:0:
78,245,79378,2,0,L|-13:249,1,80,0|8,1:2|0:2,0:0:0:0:
0,141,79742,2,0,L|91:145,1,80,0|2,1:2|0:2,0:0:0:0:
168,154,80105,1,8,0:2:0:0:
391,161,80469,1,8,0:2:0:0:
349,96,80651,1,2,0:2:0:0:
344,228,80833,6,0,P|400:243|426:235,2,80,6|2|2,1:2|0:2|0:2,0:0:0:0:
260,165,81378,1,2,0:2:0:0:
260,165,81560,2,0,L|252:252,1,80,10|2,0:2|0:2,0:0:0:0:
153,198,81923,2,0,L|160:277,1,80,2|10,1:2|0:2,0:0:0:0:
309,365,82287,6,0,P|280:344|221:340,1,80,2|10,1:2|0:2,0:0:0:0:
78,384,82651,2,0,P|117:378|149:355,1,80,2|2,1:2|0:2,0:0:0:0:
153,198,83014,1,10,0:2:0:0:
50,47,83378,1,10,0:2:0:0:
50,47,83469,1,8,0:2:0:0:
50,47,83560,1,10,0:2:0:0:
50,47,83651,1,8,0:2:0:0:
50,47,83742,6,0,L|222:54,1,160,4|0,1:2|0:2,0:0:0:0:
364,69,84287,1,2,0:2:0:0:
316,0,84469,2,0,P|283:58|338:157,1,160,8|2,0:2|0:2,0:0:0:0:
408,152,85014,1,8,0:2:0:0:
408,152,85196,2,0,L|396:251,1,80,0|8,1:2|0:2,0:0:0:0:
498,296,85560,2,0,L|488:216,1,80,0|2,1:2|0:2,0:0:0:0:
404,316,85923,1,8,0:2:0:0:
207,203,86287,1,2,1:2:0:0:
222,278,86469,1,2,0:2:0:0:
264,117,86651,5,6,1:2:0:0:
166,30,89196,5,8,0:2:0:0:
166,30,89560,2,0,P|199:83|172:165,1,128,6|8,1:2|0:2,0:0:0:0:
115,238,90105,1,0,0:2:0:0:
30,113,90287,2,0,L|123:98,1,64,2|0,1:2|1:2,0:0:0:0:
211,249,90651,2,0,L|93:236,1,96,10|0,0:2|0:0,0:0:0:0:
99,245,91014,5,2,1:2:0:0:
25,359,91196,2,0,L|12:291,1,64,2|8,0:2|0:2,0:0:0:0:
111,182,91560,2,0,L|98:250,1,64,2|0,1:2|1:2,0:0:0:0:
28,191,91923,1,2,1:2:0:0:
203,145,92105,1,10,0:2:0:0:
93,98,92287,1,2,0:2:0:0:
190,248,92469,6,0,P|228:248|268:222,1,64,2|0,0:2|1:2,0:0:0:0:
331,184,92833,1,8,0:2:0:0:
277,317,93014,2,0,P|309:298|331:255,1,64,2|0,0:2|1:2,0:0:0:0:
331,184,93378,1,2,1:2:0:0:
410,244,93560,1,10,0:2:0:0:
251,237,93742,1,2,0:2:0:0:
329,92,93923,6,0,L|437:66,1,96,2|0,1:2|0:0,0:0:0:0:
439,66,94287,2,0,P|443:103|429:142,1,64,10|0,0:2|1:2,0:0:0:0:
350,310,94651,5,10,0:2:0:0:
329,186,94833,1,0,1:2:0:0:
294,382,95014,5,10,0:2:0:0:
329,161,95196,1,8,0:2:0:0:
377,318,95378,6,0,P|418:325|453:318,2,64,4|0|10,1:2|0:0|0:2,0:0:0:0:
300,255,95923,2,0,P|251:239|202:252,1,96,2|0,0:2|0:0,0:0:0:0:
183,268,96287,2,0,P|150:283|118:282,1,64,2|10,1:2|0:2,0:0:0:0:
54,212,96651,2,0,L|51:140,1,64,2|0,0:2|1:2,0:0:0:0:
152,105,97014,2,0,L|149:168,1,64,2|10,0:2|0:2,0:0:0:0:
80,40,97378,2,0,P|49:31|16:32,1,64,2|0,0:2|1:2,0:0:0:0:
152,105,97742,2,0,P|183:105|214:96,1,64,2|8,1:2|0:0,0:0:0:0:
282,22,98105,1,2,0:2:0:0:
301,141,98287,6,0,L|306:217,1,64,2|2,1:2|0:2,0:0:0:0:
410,91,98651,2,0,L|405:167,1,64,10|2,0:2|0:2,0:0:0:0:
391,299,99014,1,2,1:2:0:0:
391,299,99196,1,2,1:2:0:0:
316,219,99378,1,10,0:2:0:0:
459,245,99560,1,2,0:2:0:0:
351,373,99742,6,0,B|271:364,1,64,0|2,1:2|0:2,0:0:0:0:
396,224,100105,2,0,B|476:215,1,64,10|2,0:2|0:2,0:0:0:0:
350,298,100469,1,2,1:2:0:0:
318,167,100651,1,2,1:2:0:0:
231,289,100833,2,0,L|130:288,1,96,10|0,0:2|0:2,0:0:0:0:
110,292,101196,6,0,P|127:250|92:176,1,128,4|10,1:2|0:2,0:0:0:0:
22,349,101742,2,0,L|91:381,1,64,2|0,0:2|1:2,0:0:0:0:
171,287,102105,2,0,P|131:283|99:298,1,64,2|10,1:2|0:2,0:0:0:0:
260,349,102469,2,0,L|277:279,1,64,2|0,0:2|1:2,0:0:0:0:
165,197,102833,1,2,0:2:0:0:
171,287,103014,1,10,0:2:0:0:
271,167,103196,2,0,L|343:158,1,64,2|0,0:2|1:2,0:0:0:0:
196,82,103560,2,0,L|124:73,1,64,2|8,1:2|0:0,0:0:0:0:
265,19,103923,1,2,0:2:0:0:
265,19,104105,1,6,1:2:0:0:
271,167,104287,6,0,L|418:148,1,128,2|2,0:2|0:2,0:0:0:0:
422,143,104742,1,2,0:2:0:0:
422,143,104833,2,0,P|444:187|444:209,1,64,2|0,1:2|1:2,0:0:0:0:
338,348,105196,2,0,P|343:316|360:290,1,64,10|0,0:2|0:2,0:0:0:0:
372,282,105469,1,8,0:2:0:0:
372,282,105560,2,0,L|446:283,1,64,8|0,0:2|1:2,0:0:0:0:
311,185,105923,6,0,P|270:169|197:194,1,96,14|0,0:2|0:0,0:0:0:0:
193,205,106287,2,0,L|185:250,3,32,0|0|2|0,1:2|1:2|1:2|1:2,0:0:0:0:
183,275,106651,2,0,L|185:348,1,64,12|0,0:2|0:0,0:0:0:0:
54,227,107014,6,0,L|68:101,1,96,4|0,1:2|0:0,0:0:0:0:
71,98,107378,2,0,P|134:82|209:113,1,128,10|0,0:2|1:2,0:0:0:0:
273,137,107923,1,2,1:2:0:0:
261,49,108105,1,10,0:2:0:0:
203,185,108287,1,2,0:2:0:0:
356,148,108469,6,0,L|423:137,1,64,2|2,1:2|0:2,0:0:0:0:
317,273,108833,2,0,L|250:262,1,64,10|2,0:2|0:2,0:0:0:0:
415,221,109196,1,2,1:2:0:0:
381,346,109378,1,2,1:2:0:0:
282,187,109560,2,0,P|273:149|284:106,1,64,10|0,0:2|0:0,0:0:0:0:
161,19,109923,6,0,L|165:103,1,64,0|2,1:2|0:2,0:0:0:0:
163,108,110196,1,2,0:2:0:0:
162,108,110287,2,0,P|104:117|80:109,1,64,10|2,0:2|0:2,0:0:0:0:
22,108,110651,1,0,1:2:0:0:
67,41,110833,1,2,1:2:0:0:
60,184,111014,6,0,L|53:249,1,64,10|2,0:2|0:2,0:0:0:0:
161,377,111378,2,0,L|154:313,1,64,2|2,1:2|0:2,0:0:0:0:
245,336,111742,2,0,L|238:272,1,64,10|2,0:2|0:2,0:0:0:0:
296,208,112105,1,2,1:2:0:0:
206,191,112287,1,2,1:2:0:0:
336,132,112469,2,0,P|377:136|414:137,1,64,10|2,0:2|0:2,0:0:0:0:
498,72,112833,6,0,P|491:126|491:173,1,96,4|0,1:2|0:0,0:0:0:0:
491,184,113196,1,10,0:2:0:0:
390,302,113378,2,0,L|383:226,1,64,2|0,0:2|1:2,0:0:0:0:
286,200,113742,1,2,1:2:0:0:
190,297,113923,2,0,L|260:291,1,64,10|2,0:2|0:2,0:0:0:0:
180,206,114287,5,2,1:2:0:0:
125,357,114469,1,2,0:2:0:0:
66,232,114651,1,10,0:2:0:0:
263,346,114833,2,0,L|272:202,1,128,2|2,0:2|1:2,0:0:0:0:
331,56,115378,2,0,L|337:133,1,64,8|0,0:0|0:2,0:0:0:0:
184,269,115742,2,0,L|178:192,1,64,0|0,1:2|0:0,0:0:0:0:
21,39,116105,6,0,P|51:68|66:101,1,64,10|0,0:2|0:2,0:0:0:0:
134,43,116469,2,0,P|145:83|141:119,1,64,2|0,1:2|1:2,0:0:0:0:
230,107,116833,2,0,P|219:147|198:176,1,64,10|0,0:2|0:2,0:0:0:0:
48,246,117196,5,10,0:2:0:0:
185,299,117378,1,0,1:2:0:0:
78,353,117560,1,6,1:2:0:0:
78,353,117742,1,8,0:2:0:0:
147,201,117923,5,2,1:2:0:0:
249,375,118105,1,0,1:2:0:0:
306,225,118287,1,14,0:2:0:0:
306,225,118469,1,2,1:2:0:0:
368,317,118651,6,0,P|407:328|478:288,1,111.999996582031,6|0,1:2|0:2,0:0:0:0:
474,211,119196,1,2,1:2:0:0:
474,211,119378,2,0,L|463:137,1,55.9999982910157,8|0,0:2|0:2,0:0:0:0:
404,89,119742,1,2,0:2:0:0:
449,13,119923,5,8,0:2:0:0:
449,13,120014,1,8,0:2:0:0:
449,13,120105,2,0,P|406:4|390:7,1,55.9999982910157,8|8,0:2|0:2,0:0:0:0:
318,58,120469,2,0,P|275:67|259:64,1,55.9999982910157,0|0,1:2|0:2,0:0:0:0:
163,34,120833,2,0,L|166:96,2,55.9999982910157,8|0|8,0:2|0:2|0:2,0:0:0:0:
85,2,121378,1,2,0:2:0:0:
107,165,121560,6,0,L|170:176,1,55.9999982910157,6|0,1:2|0:0,0:0:0:0:
65,87,121923,2,0,L|2:98,1,55.9999982910157,2|2,0:2|1:2,0:0:0:0:
68,242,122287,2,0,L|194:261,1,111.999996582031,10|2,0:2|0:2,0:0:0:0:
302,272,122833,5,2,1:2:0:0:
302,272,122923,1,8,0:2:0:0:
302,272,123014,2,0,L|314:207,1,55.9999982910157,10|8,0:2|0:2,0:0:0:0:
211,119,123378,2,0,L|221:174,1,55.9999982910157,2|0,1:2|0:0,0:0:0:0:
304,66,123742,5,10,0:2:0:0:
199,38,123923,1,10,0:2:0:0:
320,70,124105,1,6,0:2:0:0:
132,145,124287,1,10,0:2:0:0:
379,148,124469,6,0,L|395:75,1,55.9999982910157,6|0,1:2|0:0,0:0:0:0:
280,210,124833,2,0,L|291:264,1,55.9999982910157,2|0,0:2|1:2,0:0:0:0:
371,371,125196,2,0,P|326:344|255:362,1,111.999996582031,10|2,0:2|0:2,0:0:0:0:
184,382,125742,5,10,1:2:0:0:
184,382,125833,1,8,0:0:0:0:
184,382,125923,2,0,L|193:309,1,55.9999982910157,6|0,0:2|0:0,0:0:0:0:
128,253,126287,2,0,L|119:180,1,55.9999982910157,2|0,1:2|0:2,0:0:0:0:
238,129,126651,1,8,0:2:0:0:
213,227,126833,1,0,1:2:0:0:
147,94,127014,1,0,1:2:0:0:
147,94,127196,1,6,1:2:0:0:
307,189,127378,5,14,0:2:0:0:
307,189,127560,2,0,P|329:148|281:59,1,143.999995605469,2|2,1:2|1:2,0:0:0:0:
208,232,128105,1,14,0:2:0:0:
208,232,128287,2,0,P|232:271|333:274,1,143.999995605469,2|2,1:2|1:2,0:0:0:0:
435,114,128833,5,14,0:2:0:0:
292,200,129014,1,8,0:2:0:0:
496,249,129196,1,8,0:2:0:0:
340,122,129378,1,8,0:2:0:0:
498,340,130287,6,0,B|428:336|428:336|370:365|370:365|291:361,1,191.999994140625,6|8,1:2|0:2,0:0:0:0:
107,229,130833,1,2,0:2:0:0:
303,195,131014,1,2,1:2:0:0:
165,342,131196,1,2,1:2:0:0:
185,132,131378,1,10,0:2:0:0:
209,232,131560,1,2,0:2:0:0:
66,76,131742,5,2,1:2:0:0:
296,74,131923,1,2,0:2:0:0:
95,169,132105,1,10,0:2:0:0:
227,4,132287,1,2,0:2:0:0:
209,232,132469,6,0,L|218:342,1,95.9999970703126,2|2,1:2|1:2,0:0:0:0:
390,137,132833,2,0,L|381:27,1,95.9999970703126,10|2,0:2|0:2,0:0:0:0:
309,215,133196,1,2,1:2:0:0:
445,298,133378,2,0,P|488:264|494:199,1,95.9999970703126,2|10,0:2|0:2,0:0:0:0:
301,126,133742,5,0,0:2:0:0:
266,334,133923,1,2,1:2:0:0:
152,143,134105,1,2,1:2:0:0:
376,232,134287,5,10,0:2:0:0:
150,271,134469,1,2,0:2:0:0:
150,271,134560,1,2,0:2:0:0:
150,271,134651,6,0,L|40:263,1,95.9999970703126,2|2,1:2|0:2,0:0:0:0:
232,102,135014,2,0,L|342:94,1,95.9999970703126,10|2,0:2|1:2,0:0:0:0:
164,187,135378,1,2,0:2:0:0:
136,33,135560,1,2,1:2:0:0:
53,200,135742,2,0,L|57:311,1,95.9999970703126,10|0,0:2|0:0,0:0:0:0:
58,317,136014,1,8,0:2:0:0:
60,335,136105,6,0,B|147:307|168:383|265:368,1,191.999994140625,4|8,1:2|0:2,0:0:0:0:
378,222,136651,5,0,1:2:0:0:
487,326,136833,2,0,L|379:343,1,95.9999970703126,0|0,0:2|0:0,0:0:0:0:
188,187,137196,2,0,L|296:204,1,95.9999970703126,10|0,0:2|0:0,0:0:0:0:
494,136,137560,6,0,P|445:79|322:104,1,191.999994140625,2|8,1:2|0:2,0:0:0:0:
216,19,138105,2,0,L|222:224,1,191.999994140625,2|2,1:2|1:2,0:0:0:0:
158,294,138651,2,0,P|94:291|61:306,1,95.9999970703126,10|0,0:2|0:0,0:0:0:0:
226,371,139014,6,0,P|268:295|205:203,1,191.999994140625,2|10,1:2|0:2,0:0:0:0:
74,176,139560,1,2,1:2:0:0:
182,29,139742,2,0,L|169:131,1,95.9999970703126,2|2,0:2|1:2,0:0:0:0:
255,121,140105,1,10,0:2:0:0:
73,65,140287,1,2,0:2:0:0:
172,223,140469,6,0,L|235:229,3,47.9999985351563,10|8|10|8,0:2|0:2|0:2|0:2,0:0:0:0:
176,243,140833,2,8,L|283:252,1,95.9999970703126,4|0,1:2|0:0,0:0:0:0:
431,169,141196,1,8,0:2:0:0:
417,209,141287,1,8,0:2:0:0:
418,252,141378,1,10,0:2:0:0:
432,292,141469,1,8,0:2:0:0:
463,320,141560,6,0,L|513:310,1,47.9999985351563,10|8,0:2|0:2,0:0:0:0:
328,249,141742,2,0,L|278:239,1,47.9999985351563,10|8,0:2|0:2,0:0:0:0:
422,68,141923,6,0,B|448:138|448:138|413:266,1,191.999994140625,6|8,1:2|0:2,0:0:0:0:
207,275,142469,1,2,0:2:0:0:
326,168,142651,1,2,1:2:0:0:
382,361,142833,1,2,1:2:0:0:
398,228,143014,1,10,0:2:0:0:
241,347,143196,1,2,0:2:0:0:
193,147,143378,5,2,1:2:0:0:
314,260,143560,1,2,0:2:0:0:
353,67,143742,1,10,0:2:0:0:
318,285,143923,1,2,0:2:0:0:
258,70,144105,5,2,1:2:0:0:
226,235,144287,2,0,P|173:250|132:242,1,95.9999970703126,2|8,1:2|0:0,0:0:0:0:
60,183,144651,1,0,0:0:0:0:
164,66,144833,6,0,L|173:173,1,95.9999970703126,2|2,1:2|0:2,0:0:0:0:
42,8,145196,2,0,L|33:115,1,95.9999970703126,10|2,0:2|0:2,0:0:0:0:
249,40,145560,1,2,1:2:0:0:
127,0,145742,1,2,1:2:0:0:
241,129,145923,1,10,0:2:0:0:
140,92,146105,1,2,0:2:0:0:
337,28,146287,5,2,1:2:0:0:
273,215,146469,1,0,0:0:0:0:
221,121,146651,2,0,P|272:112|351:170,1,143.999995605469,8|8,0:2|0:2,0:0:0:0:
361,194,147014,2,0,L|353:298,1,95.9999970703126,10|8,0:2|0:2,0:0:0:0:
468,147,147378,2,0,L|476:251,1,95.9999970703126,10|10,0:2|0:2,0:0:0:0:
395,88,147742,6,0,P|340:75|254:143,1,160,4|0,1:2|0:2,0:0:0:0:
248,231,148287,1,2,0:2:0:0:
362,243,148469,2,0,L|345:147,1,80,8|0,0:2|0:2,0:0:0:0:
234,309,148833,2,0,L|251:213,1,80,8|8,0:2|0:2,0:0:0:0:
302,362,149196,1,0,1:2:0:0:
302,362,149378,1,8,0:2:0:0:
140,331,149560,2,0,L|157:235,1,80,0|2,1:2|0:2,0:0:0:0:
171,151,149923,1,8,0:2:0:0:
402,223,150286,1,8,0:2:0:0:
331,164,150468,1,2,0:2:0:0:
479,167,150651,6,0,P|491:217|430:313,1,160,6|2,1:2|0:2,0:0:0:0:
327,287,151196,1,2,0:2:0:0:
327,287,151378,2,0,L|342:199,1,80,10|2,0:2|0:2,0:0:0:0:
219,298,151742,2,0,L|232:376,1,80,10|10,0:2|0:2,0:0:0:0:
133,266,152105,1,2,1:2:0:0:
222,195,152287,1,10,0:2:0:0:
128,276,152469,2,0,P|76:288|38:275,1,80,2|2,1:2|0:2,0:0:0:0:
11,192,152833,1,10,0:2:0:0:
146,83,153196,1,10,0:2:0:0:
143,102,153286,1,8,0:2:0:0:
140,122,153377,1,10,0:2:0:0:
137,142,153468,1,8,0:2:0:0:
134,163,153560,6,0,B|199:166|199:166|230:182|230:182|300:184,1,160,4|0,1:2|0:2,0:0:0:0:
383,185,154105,1,2,0:2:0:0:
383,185,154287,2,0,L|371:90,1,80,8|0,0:2|0:2,0:0:0:0:
279,263,154651,2,0,L|291:168,1,80,8|8,0:2|0:2,0:0:0:0:
313,344,155014,1,0,1:2:0:0:
193,258,155196,1,8,0:2:0:0:
397,299,155378,2,0,P|407:346|400:383,1,80,0|2,1:2|0:2,0:0:0:0:
286,217,155742,6,0,L|370:198,1,80,8|0,0:2|0:2,0:0:0:0:
228,338,156105,2,0,L|144:319,1,80,0|2,1:2|0:2,0:0:0:0:
251,126,156469,5,6,1:2:0:0:
72,177,158651,6,0,L|59:326,1,128,2|2,0:2|0:2,0:0:0:0:
60,304,159378,6,0,B|168:313|139:238|275:263,2,191.999994140625,6|8|0,1:2|0:2|1:2,0:0:0:0:
94,218,160287,1,0,1:2:0:0:
211,345,160469,2,0,P|271:365|316:366,1,95.9999970703126,8|0,0:2|0:2,0:0:0:0:
394,195,160833,6,0,P|333:183|274:286,1,191.999994140625,2|8,1:2|0:2,0:0:0:0:
120,178,161378,1,2,0:2:0:0:
120,178,161469,1,2,0:2:0:0:
120,178,161560,2,0,P|172:173|216:165,1,95.9999970703126,0|0,1:2|0:2,0:0:0:0:
302,44,161923,1,8,0:2:0:0:
275,19,162013,1,2,0:2:0:0:
241,9,162104,1,2,0:2:0:0:
206,16,162195,1,0,0:2:0:0:
178,37,162287,6,0,B|101:45|101:45|62:26|62:26|-18:33,1,191.999994140625,2|8,1:2|0:2,0:0:0:0:
22,203,162833,1,2,0:2:0:0:
22,203,163014,2,0,L|47:100,1,95.9999970703126,2|0,1:2|1:2,0:0:0:0:
170,260,163378,2,0,L|159:66,1,191.999994140625,10|0,0:2|1:2,0:0:0:0:
159,68,163923,5,2,0:2:0:0:
266,151,164105,1,10,0:2:0:0:
162,180,164287,1,2,0:2:0:0:
278,65,164469,5,2,1:2:0:0:
305,250,164651,1,0,1:2:0:0:
382,157,164833,2,0,L|277:146,1,95.9999970703126,10|0,0:2|0:2,0:0:0:0:
374,310,165196,6,0,L|424:303,3,47.9999985351563,6|0|0|0,1:2|0:0|0:0|0:0,0:0:0:0:
297,260,165560,2,0,L|247:253,3,47.9999985351563,8|0|2|2,0:2|0:0|0:2|0:2,0:0:0:0:
192,334,165923,1,2,1:2:0:0:
192,334,166014,1,0,0:0:0:0:
192,334,166105,2,0,L|121:341,1,47.9999985351563,0|2,1:2|0:2,0:0:0:0:
45,258,166287,2,0,L|116:265,1,47.9999985351563,10|0,0:2|0:0,0:0:0:0:
194,192,166469,5,0,0:2:0:0:
194,192,166560,1,2,0:2:0:0:
194,192,166651,2,0,P|220:138|129:40,1,191.999994140625,2|10,1:2|0:2,0:0:0:0:
140,124,167196,1,0,0:2:0:0:
282,59,167378,2,0,L|390:51,1,95.9999970703126,2|0,1:2|1:2,0:0:0:0:
289,199,167742,2,0,L|181:191,1,95.9999970703126,10|0,0:2|0:2,0:0:0:0:
380,144,168105,5,2,1:2:0:0:
322,305,168287,1,0,0:2:0:0:
292,119,168469,5,10,0:2:0:0:
376,236,168651,1,0,0:0:0:0:
215,281,168833,2,0,L|112:273,1,95.9999970703126,0|2,1:2|1:2,0:0:0:0:
272,384,169196,2,0,L|375:376,1,95.9999970703126,10|0,0:2|0:2,0:0:0:0:
373,197,169560,5,2,1:2:0:0:
331,273,169742,1,2,0:2:0:0:
459,206,169923,1,10,0:2:0:0:
483,295,170105,1,2,0:2:0:0:
382,154,170287,5,2,1:2:0:0:
322,292,170469,1,2,1:2:0:0:
317,89,170651,1,10,0:2:0:0:
387,238,170833,1,2,0:2:0:0:
409,47,171014,6,0,L|508:31,1,95.9999970703126,10|0,0:2|1:2,0:0:0:0:
372,219,171378,2,0,L|273:203,1,95.9999970703126,2|0,1:2|1:2,0:0:0:0:
183,69,171742,5,10,0:2:0:0:
249,294,171923,1,8,0:2:0:0:
276,60,172105,1,8,0:2:0:0:
144,313,172287,1,8,0:2:0:0:
99,26,172469,6,0,P|45:65|38:153,1,143.999995605469,4|2,1:2|0:2,0:0:0:0:
65,219,173014,1,2,0:2:0:0:
214,195,173196,2,0,L|225:96,1,71.9999978027344,10|2,0:2|0:2,0:0:0:0:
149,266,173560,2,0,L|160:365,1,71.9999978027344,2|2,0:2|0:2,0:0:0:0:
327,204,173923,6,0,L|322:359,1,143.999995605469,2|2,1:2|0:2,0:0:0:0:
419,279,174469,1,2,0:2:0:0:
275,129,174651,2,0,L|190:123,1,71.9999978027344,10|2,0:2|0:2,0:0:0:0:
354,79,175014,2,0,L|439:73,1,71.9999978027344,2|2,0:2|0:2,0:0:0:0:
450,71,175287,1,0,0:2:0:0:
450,71,175378,6,0,P|469:150|419:204,1,143.999995605469,2|0,1:2|0:2,0:0:0:0:
434,196,175923,1,2,0:2:0:0:
433,319,176105,2,0,P|355:295|333:225,1,143.999995605469,10|0,0:2|0:2,0:0:0:0:
240,182,176651,1,2,0:2:0:0:
240,182,176742,1,0,0:2:0:0:
240,182,176833,6,0,L|86:212,1,143.999995605469,2|0,0:2|1:2,0:0:0:0:
22,228,177378,1,2,0:2:0:0:
152,119,177560,2,0,L|-2:149,1,143.999995605469,10|2,0:2|0:2,0:0:0:0:
5,60,178105,1,0,0:2:0:0:
223,49,178287,6,0,P|288:89|367:77,1,143.999995605469,4|2,1:2|0:2,0:0:0:0:
429,45,178833,1,2,0:2:0:0:
507,183,179014,2,0,L|418:172,1,71.9999978027344,10|2,0:2|0:2,0:0:0:0:
344,285,179378,2,0,L|433:274,1,71.9999978027344,2|2,0:2|0:2,0:0:0:0:
272,187,179742,6,0,P|212:239|212:313,1,143.999995605469,2|2,1:2|1:2,0:0:0:0:
235,375,180287,1,2,0:2:0:0:
125,287,180469,2,0,P|73:347|-1:347,1,143.999995605469,10|2,0:2|1:2,0:0:0:0:
0,221,181014,1,2,0:2:0:0:
0,221,181105,1,2,0:2:0:0:
0,221,181196,6,0,L|83:210,1,71.9999978027344,6|0,1:2|0:2,0:0:0:0:
238,134,181560,2,0,L|155:123,1,71.9999978027344,2|0,0:2|0:2,0:0:0:0:
1,240,181923,2,0,L|157:221,1,143.999995605469,10|2,0:2|0:2,0:0:0:0:
276,260,182469,1,2,0:2:0:0:
276,260,182560,1,0,0:2:0:0:
276,260,182651,6,0,P|282:314|277:348,1,71.9999978027344,0|8,1:2|0:2,0:0:0:0:
139,151,183014,6,0,P|137:186|143:222,1,71.9999978027344,0|0,1:2|0:2,0:0:0:0:
230,67,183378,1,10,0:2:0:0:
192,292,183560,1,8,0:2:0:0:
215,50,183742,1,8,0:2:0:0:
284,259,183923,1,8,0:2:0:0:
381,162,184105,6,0,L|501:165,1,111.999996582031,6|0,1:2|0:2,0:0:0:0:
332,347,184833,2,0,L|452:350,1,111.999996582031,8|0,0:2|1:2,0:0:0:0:
191,248,185560,1,0,1:2:0:0:
7,20,186287,5,8,0:2:0:0:
27,156,186651,1,0,0:2:0:0:
162,87,187014,2,0,P|243:88|298:172,1,167.999994873047,2|0,1:2|0:0,0:0:0:0:
317,241,187742,2,0,L|429:252,1,111.999996582031,8|2,0:2|1:2,0:0:0:0:
486,32,188469,5,0,1:2:0:0:
489,346,189196,1,8,0:2:0:0:
425,193,189560,1,2,0:2:0:0:
336,343,189923,6,0,P|278:332|204:354,1,111.999996582031,2|2,1:2|0:2,0:0:0:0:
140,208,190651,2,0,P|82:219|8:197,1,111.999996582031,8|0,0:2|1:2,0:0:0:0:
13,119,191196,2,0,L|86:107,1,55.9999982910157,0|0,0:0|1:2,0:0:0:0:
137,39,191560,2,0,L|306:52,1,167.999994873047,0|8,0:0|0:2,0:0:0:0:
455,24,192287,5,0,0:0:0:0:
455,24,192378,1,0,0:0:0:0:
455,24,192469,2,0,P|457:63|456:91,1,55.9999982910157,2|0,0:2|0:0,0:0:0:0:
460,176,192833,5,0,1:2:0:0:
292,274,193196,1,2,0:2:0:0:
379,305,193378,1,0,0:0:0:0:
360,215,193560,1,8,0:2:0:0:
305,362,193742,1,0,0:0:0:0:
305,362,193833,1,0,0:0:0:0:
305,362,193923,2,0,P|246:362|227:363,1,55.9999982910157,2|0,0:2|0:0,0:0:0:0:
173,314,194287,6,0,L|80:317,1,83.9999974365235,0|0,1:2|0:0,0:0:0:0:
89,316,194651,1,0,0:0:0:0:
16,335,194833,1,0,0:0:0:0:
26,187,195014,2,0,P|67:197|95:237,1,83.9999974365235,0|0,0:0|0:0,0:0:0:0:
92,228,195378,1,0,0:0:0:0:
141,150,195560,2,0,L|153:27,1,111.999996582031,0|0,0:0|0:0,0:0:0:0:
256,192,196105,12,0,196742,0:0:0:0:
251,192,196833,5,10,0:2:0:0:
451,49,197196,6,0,L|429:279,1,207.999990478516,6|8,1:2|0:2,0:0:0:0:
244,375,197742,1,2,0:2:0:0:
413,346,197923,1,2,1:2:0:0:
201,253,198105,1,2,1:2:0:0:
429,351,198287,1,10,0:2:0:0:
226,381,198469,1,2,0:2:0:0:
287,190,198651,6,0,P|264:166|183:158,1,103.999995239258,2|2,1:2|0:2,0:0:0:0:
53,268,199014,1,10,0:2:0:0:
111,105,199196,1,2,0:2:0:0:
220,328,199378,1,2,1:2:0:0:
206,130,199560,1,0,1:2:0:0:
103,350,199742,2,0,L|-18:356,1,103.999995239258,10|0,0:2|0:2,0:0:0:0:
195,153,200105,6,0,L|316:159,1,103.999995239258,2|2,1:2|0:2,0:0:0:0:
447,302,200469,1,10,0:2:0:0:
376,167,200651,1,2,0:2:0:0:
304,351,200833,1,2,1:2:0:0:
475,179,201014,1,2,1:2:0:0:
506,361,201196,2,0,P|454:384|379:359,1,103.999995239258,10|2,0:2|0:2,0:0:0:0:
278,180,201560,5,2,1:2:0:0:
447,298,201742,1,2,0:2:0:0:
250,322,201923,1,10,0:2:0:0:
475,179,202105,1,0,1:2:0:0:
171,215,202287,1,2,1:2:0:0:
371,269,202469,1,2,1:2:0:0:
420,54,202651,2,0,L|249:46,1,155.999992858887,10|8,0:2|0:2,0:0:0:0:
239,52,203014,6,0,P|211:95|220:161,1,103.999995239258,4|0,1:2|0:2,0:0:0:0:
333,319,203378,2,0,P|334:267|306:224,1,103.999995239258,8|0,0:2|1:2,0:0:0:0:
146,275,203742,2,0,L|253:281,1,103.999995239258,2|0,0:2|1:2,0:0:0:0:
316,140,204105,2,0,L|209:146,1,103.999995239258,10|0,0:2|0:2,0:0:0:0:
393,219,204469,6,0,P|424:153|351:31,1,207.999990478516,2|8,1:2|0:2,0:0:0:0:
160,43,205014,2,0,P|104:126|135:222,1,207.999990478516,2|2,1:2|1:2,0:0:0:0:
256,256,205560,2,0,L|256:128,1,103.999995239258,10|0,0:2|0:2,0:0:0:0:
167,326,205923,6,0,B|229:355|229:355|390:332,1,207.999990478516,2|10,1:2|0:2,0:0:0:0:
486,217,206469,1,2,1:2:0:0:
462,341,206651,1,2,0:2:0:0:
361,169,206833,1,2,1:2:0:0:
371,347,207014,1,10,0:2:0:0:
444,118,207196,1,2,0:2:0:0:
290,238,207378,5,10,0:2:0:0:
290,238,207469,1,8,0:2:0:0:
290,238,207560,2,0,L|349:246,1,51.999997619629,10|8,0:2|0:2,0:0:0:0:
444,118,207742,2,0,L|321:132,1,103.999995239258,4|0,1:2|0:2,0:0:0:0:
185,119,208105,5,8,0:2:0:0:
146,115,208195,1,8,0:2:0:0:
111,132,208286,1,10,0:2:0:0:
90,164,208377,1,8,0:2:0:0:
88,202,208469,6,0,L|97:260,1,51.999997619629,10|8,0:2|0:2,0:0:0:0:
14,106,208651,2,0,L|21:54,1,51.999997619629,10|8,0:2|0:2,0:0:0:0:
181,212,208833,6,0,B|302:186|281:279|399:258,1,207.999990478516,6|8,1:2|0:2,0:0:0:0:
490,51,209378,1,2,0:2:0:0:
480,249,209560,1,2,1:2:0:0:
416,11,209742,1,2,1:2:0:0:
363,171,209923,1,10,0:2:0:0:
512,138,210105,1,2,0:2:0:0:
274,48,210287,5,2,1:2:0:0:
225,291,210469,1,2,0:2:0:0:
187,87,210651,5,10,0:2:0:0:
227,325,210833,1,2,0:2:0:0:
102,173,211014,6,0,L|-6:148,1,103.999995239258,2|2,1:2|1:2,0:0:0:0:
332,233,211378,2,0,L|433:209,1,103.999995239258,10|2,0:2|0:2,0:0:0:0:
475,137,211742,5,2,1:2:0:0:
367,0,211923,2,0,P|382:52|369:114,1,103.999995239258,2|10,0:2|0:2,0:0:0:0:
332,233,212287,1,2,0:2:0:0:
132,168,212469,1,2,1:2:0:0:
256,339,212651,1,2,1:2:0:0:
256,128,212833,1,10,0:2:0:0:
132,298,213014,1,2,0:2:0:0:
21,58,213196,6,0,B|89:84|89:84|235:47,1,207.999990478516,6|8,1:2|0:2,0:0:0:0:
424,99,213742,1,10,0:2:0:0:
422,109,213833,1,8,0:0:0:0:
418,118,213923,2,0,P|361:109|314:116,1,103.999995239258,10|8,0:2|0:2,0:0:0:0:
315,269,214287,2,0,P|366:277|417:271,1,103.999995239258,10|10,0:2|0:2,0:0:0:0:
225,181,214651,6,0,P|179:250|18:213,1,264.000008056641,4|0,1:2|0:2,0:0:0:0:
128,74,215378,2,0,L|118:182,1,88.000002685547,8|0,0:2|0:2,0:0:0:0:
225,181,215742,1,8,0:2:0:0:
225,181,215923,1,8,0:2:0:0:
311,50,216105,6,0,P|359:45|401:55,1,88.000002685547,0|8,1:2|0:2,0:0:0:0:
475,87,216469,1,0,1:2:0:0:
368,307,216833,2,0,L|349:192,1,88.000002685547,8|0,0:2|0:2,0:0:0:0:
439,178,217196,2,0,L|458:293,1,88.000002685547,0|2,1:2|0:2,0:0:0:0:
306,126,217560,5,6,1:2:0:0:
265,257,217742,1,0,0:0:0:0:
201,130,217923,2,0,P|213:70|243:41,1,88.000002685547,2|2,0:2|0:2,0:0:0:0:
355,213,218287,5,10,0:2:0:0:
169,227,218469,1,2,0:2:0:0:
306,126,218651,2,0,P|356:92|398:92,1,88.000002685547,2|10,1:2|0:2,0:0:0:0:
265,265,219014,5,2,1:2:0:0:
198,98,219196,1,10,0:2:0:0:
119,298,219378,1,2,1:2:0:0:
50,133,219560,1,2,0:2:0:0:
169,227,219742,6,0,L|288:238,1,88.000002685547,10|0,0:2|0:0,0:0:0:0:
394,182,220105,1,10,0:2:0:0:
394,182,220196,1,8,0:2:0:0:
394,182,220287,1,10,0:2:0:0:
394,182,220378,1,8,0:2:0:0:
394,182,220469,6,0,P|441:228|358:376,1,264.000008056641,4|0,1:2|0:2,0:0:0:0:
206,325,221196,2,0,L|302:312,1,88.000002685547,8|0,0:2|0:2,0:0:0:0:
148,248,221560,1,0,1:2:0:0:
148,248,221742,1,8,0:2:0:0:
28,359,221923,6,0,L|23:243,1,88.000002685547,0|8,1:2|0:2,0:0:0:0:
88,162,222287,2,0,B|289:144,2,176.000005371094,0|8|8,1:2|0:2|0:2,0:0:0:0:
382,81,223378,5,6,1:2:0:0:
354,261,223560,1,0,0:0:0:0:
471,170,223742,2,0,L|351:178,1,88.000002685547,2|2,0:2|0:2,0:0:0:0:
161,83,224105,5,10,0:2:0:0:
300,39,224287,1,2,0:2:0:0:
246,217,224469,2,0,L|246:111,1,88.000002685547,2|10,1:2|0:2,0:0:0:0:
156,281,224833,5,2,1:2:0:0:
156,281,225014,1,10,0:2:0:0:
111,354,225196,2,0,P|49:341|1:347,1,88.000002685547,2|2,1:2|0:2,0:0:0:0:
7,147,225560,2,0,P|69:160|117:154,1,88.000002685547,10|0,0:2|0:0,0:0:0:0:
200,78,225923,1,10,0:2:0:0:
200,78,226014,1,8,0:2:0:0:
200,78,226105,1,10,0:2:0:0:
200,78,226196,1,8,0:2:0:0:
200,78,226287,6,0,B|222:134|209:210|209:210|202:207|202:207|186:275|220:356,1,264.000008056641,4|0,1:2|0:2,0:0:0:0:
324,361,227014,2,0,L|422:348,1,88.000002685547,8|0,0:2|0:2,0:0:0:0:
487,255,227378,1,8,0:2:0:0:
356,234,227560,1,8,0:2:0:0:
415,77,227742,2,0,L|431:196,1,88.000002685547,0|8,1:2|0:2,0:0:0:0:
303,48,228105,2,0,P|228:29|132:86,2,176.000005371094,0|8|2,1:2|0:2|1:2,0:0:0:0:
357,127,229014,1,2,0:2:0:0:
321,215,229196,5,6,1:2:0:0:
98,174,231742,5,8,0:2:0:0:
98,174,232105,2,0,L|246:165,1,128,4|8,1:2|0:2,0:0:0:0:
362,164,232651,1,0,0:2:0:0:
304,299,232833,2,0,P|268:266|261:241,1,64,0|0,1:2|1:2,0:0:0:0:
388,159,233196,2,0,L|394:269,1,96,8|0,0:2|0:0,0:0:0:0:
397,282,233560,5,0,1:2:0:0:
496,157,233742,2,0,L|491:237,1,64,0|8,0:2|0:2,0:0:0:0:
425,68,234105,2,0,P|380:52|342:62,1,64,0|0,1:2|1:2,0:0:0:0:
275,164,234469,1,0,1:2:0:0:
375,136,234651,1,8,0:2:0:0:
224,90,234833,1,0,0:2:0:0:
287,250,235014,6,0,L|293:168,1,64,0|0,1:2|0:2,0:0:0:0:
230,308,235378,1,8,0:2:0:0:
145,156,235560,2,0,L|151:291,1,128,0|0,1:2|1:2,0:0:0:0:
51,164,236105,2,0,L|45:243,1,64,8|0,0:2|0:2,0:0:0:0:
107,73,236469,6,0,P|158:63|211:96,1,96,0|0,1:2|0:0,0:0:0:0:
206,98,236833,2,0,L|220:179,1,64,8|0,0:2|0:2,0:0:0:0:
346,273,237196,1,0,1:2:0:0:
236,247,237378,1,0,1:2:0:0:
373,154,237560,1,8,0:2:0:0:
357,288,237742,1,0,0:2:0:0:
303,112,237923,6,0,P|337:78|431:98,1,128,4|8,1:2|0:2,0:0:0:0:
510,164,238469,1,0,1:2:0:0:
369,217,238651,2,0,L|373:140,1,64,0|0,1:2|1:2,0:0:0:0:
434,312,239014,2,0,P|392:331|334:323,1,96,8|0,0:2|0:0,0:0:0:0:
324,315,239378,5,0,1:2:0:0:
252,215,239560,2,0,L|173:210,1,64,0|8,0:2|0:2,0:0:0:0:
123,332,239923,2,0,L|202:327,1,64,0|0,1:2|1:2,0:0:0:0:
31,274,240287,1,0,1:2:0:0:
63,384,240469,1,8,0:2:0:0:
122,253,240651,1,0,0:2:0:0:
0,188,240833,6,0,L|75:190,1,64,0|0,1:2|0:2,0:0:0:0:
187,194,241196,1,8,0:2:0:0:
35,93,241378,2,0,L|110:95,1,64,0|0,1:2|1:2,0:0:0:0:
244,99,241742,2,0,P|289:83|323:3,1,128,0|0,1:2|1:2,0:0:0:0:
162,0,242287,6,0,L|173:90,1,64,8|0,0:2|0:2,0:0:0:0:
215,223,242651,5,0,1:2:0:0:
349,161,242833,1,0,1:2:0:0:
121,161,243014,1,8,0:2:0:0:
317,293,243196,1,8,0:2:0:0:
243,92,243378,1,8,0:2:0:0:
152,298,243560,1,8,0:2:0:0:
