osu file format v14

[General]
AudioFilename: audio.mp3
AudioLeadIn: 0
PreviewTime: 62284
Countdown: 0
SampleSet: Normal
StackLeniency: 0.7
Mode: 0
LetterboxInBreaks: 0
WidescreenStoryboard: 1

[Editor]
DistanceSpacing: 1
BeatDivisor: 2
GridSize: 8
TimelineZoom: 1

[Metadata]
Title:Update
TitleUnicode:アップデート
Artist:miwa
ArtistUnicode:miwa
Creator:NotABox
Version:Normal
Source:僕のヒーローアカデミア
Tags:boku no my hero academia heroaca ヒロアカ ending theme ed plus ultra season 3
BeatmapID:1683083
BeatmapSetID:770579

[Difficulty]
HPDrainRate:5
CircleSize:3.7
OverallDifficulty:5
ApproachRate:6
SliderMultiplier:1
SliderTickRate:1

[Events]
//Background and Video events
0,0,"mha.png",0,0
Video,0,"video.mp4"
//Break Periods
2,57190,61587
//Storyboard Layer 0 (Background)
//Storyboard Layer 1 (Fail)
//Storyboard Layer 2 (Pass)
//Storyboard Layer 3 (Foreground)
//Storyboard Sound Samples

[TimingPoints]
520,352.941176470588,4,1,0,40,1,0
520,-100,4,1,0,40,0,0
62637,-100,4,1,0,65,0,1
85225,-83.3333333333333,4,1,0,60,0,0
85931,-83.3333333333333,4,1,1,50,0,0
86637,-83.3333333333333,4,1,0,40,0,0
87343,-83.3333333333333,4,1,1,30,0,0
88049,-83.3333333333333,4,1,0,20,0,0
88577,-83.3333333333333,4,1,1,10,0,0
88755,-100,4,1,1,10,0,0

[Colours]
Combo1 : 40,222,14
Combo2 : 251,136,21
Combo3 : 48,185,231
Combo4 : 163,92,209

[HitObjects]
461,174,520,6,0,P|464:235|436:276,1,100,2|0,2:0|2:0,2:0:0:0:
383,345,1225,2,0,L|356:244,1,100,0|0,2:0|2:0,2:0:0:0:
342,200,1755,1,0,2:0:0:0:
321,154,1931,2,0,P|283:121|226:123,1,100,0|0,2:0|2:0,2:0:0:0:
187,136,2461,2,0,P|149:169|92:167,1,100,0|0,2:0|2:0,2:0:0:0:
58,144,2990,2,0,P|59:110|42:84,1,50,0|0,2:3|2:3,2:0:0:0:
42,47,3343,6,0,P|91:66|145:62,1,100,2|0,2:0|2:0,2:0:0:0:
187,59,3872,2,0,P|249:85|267:134,1,100,0|0,2:0|2:0,2:0:0:0:
275,160,4402,1,0,2:0:0:0:
290,207,4578,2,0,L|315:303,2,100,0|0|0,2:0|2:0|2:0,2:0:0:0:
231,68,5814,2,0,L|214:130,1,50,0|0,2:3|2:3,2:0:0:0:
205,164,6167,6,0,P|252:209|292:204,1,100,6|0,2:0|2:0,2:0:0:0:
377,176,6872,2,0,L|351:272,1,100,0|0,2:0|2:0,2:0:0:0:
270,332,7578,2,0,P|215:321|189:286,1,100,0|0,2:0|2:0,2:0:0:0:
173,240,8108,1,0,2:0:0:0:
143,144,8461,2,0,L|126:81,2,50,0|0|0,2:0|2:0|2:0,2:0:0:0:
157,192,8990,6,0,P|116:236|56:237,1,100,6|0,2:0|2:0,2:0:0:0:
39,210,9519,2,0,L|65:114,1,100,2|0,2:0|2:0,2:0:0:0:
106,84,10049,2,0,P|134:87|158:80,1,50,0|0,2:0|2:0,2:0:0:0:
201,64,10402,6,0,P|263:62|311:89,1,100,0|0,2:0|2:0,2:0:0:0:
328,116,10931,2,0,P|349:134|372:142,1,50,0|0,2:0|2:0,2:0:0:0:
469,129,11461,1,4,2:0:0:0:
401,55,11814,6,0,L|305:29,1,100,4|0,1:0|1:0,0:0:0:0:
208,57,12519,2,0,P|194:120|220:167,1,100,0|0,1:0|1:0,0:0:0:0:
275,224,13225,2,0,L|301:128,1,100,0|0,1:0|1:0,0:0:0:0:
333,89,13755,2,0,P|393:88|448:58,2,100,0|0|0,1:0|1:0|1:0,0:0:0:0:
284,77,14637,5,4,3:0:0:0:
184,90,14990,2,0,B|155:133|155:133|160:181,1,100,0|4,3:0|3:0,0:0:0:0:
222,260,15696,2,0,B|249:217|249:217|244:167,1,100,0|0,3:0|3:0,0:0:0:0:
238,118,16225,1,0,3:0:0:0:
173,41,16578,2,0,P|267:21|334:89,1,200,0|0,0:0|1:0,0:0:0:0:
340,139,17461,5,4,1:0:0:0:
340,139,17990,2,0,P|367:212|444:217,1,150,0|0,0:0|3:0,0:0:0:0:
465,128,18872,1,4,3:0:0:0:
465,128,19402,2,0,L|368:103,1,100,4|0,1:0|3:0,0:0:0:0:
318,102,19931,2,0,P|301:124|298:159,1,50,0|0,3:0|3:0,0:0:0:0:
299,195,20284,5,4,3:0:0:0:
299,195,20814,2,0,P|211:229|151:207,1,150,4|0,1:0|1:0,0:0:0:0:
97,136,21696,1,0,0:0:0:0:
97,136,21872,2,0,P|107:204|92:247,1,100,0|0,1:0|1:0,0:0:0:0:
79,279,22402,1,0,1:0:0:0:
169,321,22755,2,0,L|217:308,1,50,0|0,3:0|3:0,0:0:0:0:
264,292,23108,6,0,P|307:257|310:215,1,100,4|0,3:0|1:0,0:0:0:0:
297,166,23637,2,0,L|263:42,1,100,0|0,1:0|1:0,0:0:0:0:
257,20,24167,1,0,1:0:0:0:
167,63,24519,2,0,P|167:132|193:173,1,100,0|0,1:0|1:0,0:0:0:0:
213,196,25049,2,0,P|228:252|192:304,1,100,0|0,1:0|1:0,0:0:0:0:
168,314,25578,1,0,1:0:0:0:
72,342,25931,6,0,L|102:230,1,100,4|0,1:0|0:0,0:0:0:0:
130,206,26461,2,0,P|184:231|227:218,1,100,0|0,1:0|1:0,0:0:0:0:
262,193,26990,1,0,1:0:0:0:
350,146,27343,2,0,P|377:205|363:264,1,100,0|0,1:0|1:0,0:0:0:0:
344,278,27872,1,0,3:0:0:0:
344,278,28049,2,0,P|318:270|290:274,1,50,0|0,3:0|3:0,0:0:0:0:
247,287,28402,2,0,P|222:288|198:281,1,50,0|0,3:0|3:0,0:0:0:0:
165,243,28755,6,0,P|193:165|176:101,1,150,4|0,1:0|1:0,0:0:0:0:
52,17,29814,2,0,L|91:161,1,150,0|0,1:0|1:0,0:0:0:0:
202,262,30872,2,0,L|250:274,1,50,0|0,3:0|3:0,0:0:0:0:
300,270,31225,2,0,L|372:250,1,50,0|0,3:0|3:0,0:0:0:0:
394,236,31578,6,0,P|419:179|366:104,1,150,4|0,3:0|1:0,0:0:0:0:
279,83,32461,2,0,L|259:11,2,50,0|0|0,3:0|3:0|1:0,0:0:0:0:
193,135,33167,2,0,L|135:87,2,50,0|0|0,3:0|3:0|1:0,0:0:0:0:
239,154,33696,2,0,P|297:160|337:140,1,100,0|0,1:0|1:0,0:0:0:0:
431,122,34402,6,0,P|455:167|451:235,1,100,4|0,1:0|1:0,0:0:0:0:
447,264,34931,1,0,1:0:0:0:
306,318,35461,2,0,L|257:330,1,50,0|0,1:0|1:0,0:0:0:0:
210,312,35814,2,0,P|205:250|168:210,1,100,4|0,1:0|1:0,0:0:0:0:
149,184,36343,1,0,1:0:0:0:
30,92,36872,2,0,L|79:79,1,50,0|0,1:0|1:0,0:0:0:0:
127,67,37225,6,0,P|192:85|213:117,1,100,4|0,1:0|1:0,0:0:0:0:
227,156,37755,2,0,P|216:230|239:268,1,100,0|0,1:0|1:0,0:0:0:0:
253,292,38284,1,0,1:0:0:0:
349,319,38637,2,0,L|337:271,1,50,0|0,3:0|3:0,0:0:0:0:
323,223,38990,1,0,3:0:0:0:
423,235,39343,2,0,L|411:187,1,50,0|0,3:0|3:0,0:0:0:0:
397,139,39696,1,0,1:0:0:0:
396,38,40049,6,0,P|326:60|289:133,2,150,4|0|0,1:0|3:0|3:0,0:0:0:0:
465,147,41637,1,4,1:0:0:0:
347,240,42167,2,0,P|312:257|284:258,1,50,0|0,1:0|1:0,0:0:0:0:
252,248,42519,2,0,P|227:254|206:267,1,50,0|0,1:0|1:0,0:0:0:0:
167,298,42872,6,0,P|110:291|111:191,1,150,0|0,1:0|0:0,0:0:0:0:
124,115,43755,2,0,L|104:43,2,50,0|0|4,1:0|1:0|1:0,0:0:0:0:
161,148,44284,2,0,B|205:170|205:170|253:162,1,100,0|0,1:0|1:0,0:0:0:0:
355,168,44990,2,0,B|403:181|403:181|434:220,1,100,0|0,1:0|1:0,0:0:0:0:
443,320,45696,6,0,L|272:273,1,150,0|0,1:0|1:0,0:0:0:0:
251,262,46402,1,0,0:0:0:0:
215,168,46755,1,0,1:0:0:0:
276,89,47108,2,0,P|326:158|309:235,1,150,0|0,1:0|1:0,0:0:0:0:
302,266,47814,2,0,L|282:338,2,50,0|0|0,0:0|0:0|1:0,0:0:0:0:
249,180,48519,6,0,P|177:163|112:196,2,150,0|0|0,1:0|1:0|1:0,0:0:0:0:
289,210,49755,2,0,L|440:170,1,150,0|0,1:0|3:0,0:0:0:0:
472,139,50461,1,0,3:0:0:0:
472,139,50637,2,0,L|450:76,1,50,0|0,3:0|3:0,0:0:0:0:
433,46,50990,2,0,P|379:23|333:47,1,100,0|2,3:0|2:0,0:0:0:0:
222,126,51872,6,0,L|269:142,1,50,0|2,2:0|2:0,0:0:0:0:
459,206,52755,2,0,P|444:264|352:305,1,150,0|0,2:0|2:0,0:0:0:0:
320,302,53461,1,2,2:0:0:0:
171,281,53990,1,0,2:0:0:0:
171,281,54167,6,0,L|315:242,1,150,0|0,2:0|2:0,0:0:0:0:
364,229,54872,2,0,P|316:135|327:93,1,150,2|0,2:0|2:0,0:0:0:0:
353,55,55578,2,0,P|257:18|172:58,1,200,0|2,2:0|2:0,0:0:0:0:
162,60,56990,5,8,2:0:0:0:
88,303,62637,5,4,1:0:0:0:
186,277,62990,1,4,1:0:0:0:
279,250,63343,2,0,P|340:221|354:170,1,100,0|0,1:0|1:0,0:0:0:0:
359,144,63872,1,0,1:0:0:0:
359,144,64049,2,0,L|243:115,1,100,0|0,1:0|1:0,0:0:0:0:
219,146,64578,2,0,L|121:170,1,100,0|0,1:0|1:0,0:0:0:0:
88,264,65284,1,0,1:0:0:0:
88,264,65461,6,0,P|134:303|187:301,1,100,4|0,1:0|1:0,0:0:0:0:
221,297,65990,2,0,P|291:281|345:302,1,100,0|0,1:0|0:0,0:0:0:0:
409,325,66696,6,0,L|393:278,1,50,4|0,1:0|1:0,0:0:0:0:
384,228,67049,2,0,L|400:181,1,50,4|0,1:0|1:0,0:0:0:0:
420,134,67402,2,0,P|415:78|371:56,1,100,4|0,1:0|1:0,0:0:0:0:
334,67,67931,2,0,L|287:83,1,50,0|0,3:0|3:0,0:0:0:0:
240,102,68284,5,4,3:0:0:0:
240,102,68637,2,0,L|211:218,1,100,0|0,1:0|1:0,0:0:0:0:
187,295,69343,1,0,1:0:0:0:
123,218,69696,2,0,P|211:197|232:207,1,100,0|0,1:0|1:0,0:0:0:0:
261,219,70225,1,0,1:0:0:0:
355,250,70578,2,0,L|403:263,2,50,0|0|0,1:3|1:3|1:3,0:0:0:0:
308,230,71108,6,0,P|292:213|279:180,1,50,4|0,1:0|0:3,0:0:0:0:
250,149,71461,1,0,0:0:0:0:
195,64,71814,2,0,P|153:106|153:166,1,100,0|0,0:0|1:0,0:0:0:0:
119,240,72519,2,0,L|216:215,1,100,0|0,1:0|1:0,0:0:0:0:
263,197,73049,2,0,L|276:149,1,50,0|0,1:0|1:0,0:0:0:0:
291,100,73402,1,0,1:0:0:0:
435,61,73931,6,0,L|410:158,1,100,4|4,1:0|1:0,0:0:0:0:
346,235,74637,1,4,1:0:0:0:
249,259,74990,1,4,1:0:0:0:
152,234,75343,2,0,P|108:190|110:149,1,100,0|4,1:0|1:0,0:0:0:0:
123,107,75872,2,0,L|26:82,2,100,4|4|0,1:0|1:0|1:0,0:0:0:0:
171,121,76755,5,4,1:0:0:0:
268,145,77108,1,4,1:0:0:0:
305,237,77461,1,4,1:0:0:0:
208,213,77814,1,4,1:0:0:0:
111,189,78167,2,0,P|78:219|72:239,1,50,4|0,1:0|1:0,0:0:0:0:
63,270,78519,1,0,1:0:0:0:
63,270,78696,2,0,L|160:245,1,100,4|0,1:0|1:0,0:0:0:0:
209,246,79225,2,0,L|257:259,1,50,0|0,3:0|3:0,0:0:0:0:
307,263,79578,6,0,L|355:250,1,50,4|0,3:0|1:0,0:0:0:0:
401,231,79931,1,0,1:0:0:0:
401,231,80108,2,0,P|440:170|429:128,1,100,0|0,1:0|1:0,0:0:0:0:
420,98,80637,1,0,1:0:0:0:
387,59,80814,2,0,L|339:46,1,50,0|0,1:0|1:0,0:0:0:0:
288,50,81167,2,0,L|240:63,2,50,0|0|0,1:0|1:0|1:0,0:0:0:0:
359,120,81872,2,0,L|407:133,2,50,0|0|0,3:0|3:0|3:0,0:0:0:0:
308,116,82402,6,8,P|248:122|209:158,1,100,4|0,3:0|1:0,0:0:0:0:
195,191,82931,2,8,P|154:219|105:221,1,100,0|0,1:0|1:0,0:0:0:0:
58,203,83461,1,0,1:0:0:0:
58,102,83814,6,0,L|45:54,2,50,0|0|0,1:0|1:0|1:0,0:0:0:0:
98,182,84519,1,0,1:0:0:0:
184,218,84872,2,0,P|220:218|248:203,1,50,0|0,1:0|1:0,0:0:0:0:
284,183,85225,5,4,2:0:0:0:
256,192,85402,12,0,88931,0:0:0:0:
