osu file format v14

[General]
AudioFilename: audio.mp3
AudioLeadIn: 0
PreviewTime: 62284
Countdown: 0
SampleSet: Normal
StackLeniency: 0.7
Mode: 0
LetterboxInBreaks: 0
WidescreenStoryboard: 1

[Editor]
DistanceSpacing: 1.5
BeatDivisor: 4
GridSize: 8
TimelineZoom: 1

[Metadata]
Title:Update
TitleUnicode:アップデート
Artist:miwa
ArtistUnicode:miwa
Creator:NotABox
Version:Hard
Source:僕のヒーローアカデミア
Tags:boku no my hero academia heroaca ヒロアカ ending theme ed plus ultra season 3
BeatmapID:1640820
BeatmapSetID:770579

[Difficulty]
HPDrainRate:6
CircleSize:4
OverallDifficulty:6
ApproachRate:8
SliderMultiplier:1
SliderTickRate:1

[Events]
//Background and Video events
0,0,"mha.png",0,0
Video,0,"video.mp4"
//Break Periods
2,57190,61887
//Storyboard Layer 0 (Background)
//Storyboard Layer 1 (Fail)
//Storyboard Layer 2 (Pass)
//Storyboard Layer 3 (Foreground)
//Storyboard Sound Samples

[TimingPoints]
520,352.941176470588,4,1,0,40,1,0
520,-125,4,1,0,40,0,0
11814,-100,4,1,0,40,0,0
16755,-83.3333333333333,4,1,0,40,0,0
44990,-100,4,1,0,40,0,0
54784,-142.857142857143,4,1,0,40,0,0
55490,-200,4,1,0,40,0,0
56990,-100,4,1,0,40,0,0
62637,-83.3333333333333,4,1,0,65,0,1
85225,-83.3333333333333,4,1,0,60,0,0
85931,-83.3333333333333,4,1,1,50,0,0
86637,-83.3333333333333,4,1,0,40,0,0
87343,-83.3333333333333,4,1,1,30,0,0
88049,-83.3333333333333,4,1,0,20,0,0
88577,-100,4,1,1,10,0,0

[Colours]
Combo1 : 40,222,14
Combo2 : 251,136,21
Combo3 : 48,185,231
Combo4 : 163,92,209

[HitObjects]
93,145,520,6,0,P|130:132|174:139,1,80,2|0,2:0|2:0,0:0:0:0:
284,180,1225,2,0,P|258:139|260:107,1,80,0|0,3:0|3:0,0:0:0:0:
374,47,1755,1,0,2:0:0:0:
374,47,1931,2,0,P|359:91|327:117,1,80,0|0,2:0|2:0,0:0:0:0:
228,86,2461,2,0,L|248:165,1,80,0|0,2:0|2:0,0:0:0:0:
194,250,2990,2,0,L|180:201,1,40,0|0,2:3|2:3,0:0:0:0:
161,130,3343,5,2,2:0:0:0:
81,102,3696,1,0,2:0:0:0:
81,102,3872,2,0,P|77:149|102:190,1,80,0|0,2:0|2:0,0:0:0:0:
227,157,4578,2,0,L|150:134,2,80,0|0|0,2:0|2:0|2:0,0:0:0:0:
212,241,5814,1,0,2:3:0:0:
127,296,5990,1,0,2:3:0:0:
121,197,6167,6,0,P|146:149|179:129,1,80,6|0,2:0|2:0,0:0:0:0:
216,210,6872,2,0,P|259:177|298:172,1,80,0|0,2:0|2:0,0:0:0:0:
290,257,7578,2,0,P|341:246|379:258,1,80,0|0,2:0|2:0,0:0:0:0:
422,313,8108,1,0,2:0:0:0:
422,313,8284,2,0,P|366:330|334:317,1,80,0|0,2:0|2:0,0:0:0:0:
270,260,8990,6,0,L|290:179,1,80,6|0,2:0|2:0,0:0:0:0:
238,81,9519,2,0,L|216:161,1,80,2|0,2:0|2:0,0:0:0:0:
166,264,10049,2,0,L|155:223,1,40,0|0,2:0|2:0,0:0:0:0:
79,186,10402,2,0,P|112:153|162:148,1,80,0|0,2:0|2:0,0:0:0:0:
221,109,10931,2,0,L|231:148,1,40,0|0,2:0|2:0,0:0:0:0:
299,200,11284,6,0,L|307:166,2,20,4|4|4,2:0|2:0|2:0,0:0:0:0:
230,300,11814,6,0,P|197:240|206:195,1,100,4|0,1:0|1:0,0:0:0:0:
364,261,12519,2,0,P|295:253|264:220,1,100,0|0,1:0|1:0,0:0:0:0:
412,127,13225,2,0,P|366:178|321:185,1,100,0|0,1:0|1:0,0:0:0:0:
273,234,13755,2,0,L|244:121,2,100,0|0|0,1:0|1:0|1:0,0:0:0:0:
300,328,14637,5,4,3:0:0:0:
322,201,14990,6,0,L|334:154,2,25,0|0|0,3:0|3:0|3:0,0:0:0:0:
314,240,15343,1,4,3:0:0:0:
407,238,15696,6,0,L|441:208,2,25,0|0|0,3:0|3:0|3:0,0:0:0:0:
375,262,16049,2,0,L|326:273,1,50,0|0,3:0|3:0,0:0:0:0:
245,266,16402,2,0,P|216:255|194:233,1,50,0|0,3:0|0:0,0:0:0:0:
171,127,16931,2,0,P|128:156|115:185,1,59.9999981689454,0|0,1:0|1:0,0:0:0:0:
102,243,17284,1,0,1:0:0:0:
173,293,17461,5,4,1:0:0:0:
250,260,17637,2,0,L|235:200,1,59.9999981689454,0|0,1:0|1:0,0:0:0:0:
157,172,17990,2,0,P|198:130|269:128,1,119.999996337891,0|0,0:0|0:0,0:0:0:0:
334,127,18519,2,0,P|321:160|296:185,1,59.9999981689454,0|0,3:0|3:0,0:0:0:0:
234,203,18872,1,4,3:0:0:0:
234,203,19049,2,0,P|255:232|284:249,1,59.9999981689454,0|0,1:0|1:0,0:0:0:0:
366,295,19402,2,0,L|337:178,1,119.999996337891,4|0,1:0|3:0,0:0:0:0:
344,99,19931,2,0,P|314:104|287:116,1,59.9999981689454,0|0,3:0|3:0,0:0:0:0:
232,191,20284,6,0,P|203:200|173:199,1,59.9999981689454,4|0,3:0|1:0,0:0:0:0:
81,154,20637,1,0,1:0:0:0:
81,154,20814,2,0,P|133:121|199:131,1,119.999996337891,4|0,1:0|1:0,0:0:0:0:
261,166,21343,2,0,P|294:177|355:119,1,119.999996337891,0|0,1:0|0:0,0:0:0:0:
411,53,21872,2,0,L|440:170,1,119.999996337891,0|0,1:0|1:0,0:0:0:0:
448,216,22402,1,0,1:0:0:0:
440,303,22755,5,0,3:0:0:0:
413,319,22843,1,0,3:0:0:0:
382,322,22931,1,0,3:0:0:0:
352,313,23019,1,0,3:0:0:0:
324,297,23108,6,0,P|263:273|204:288,1,119.999996337891,4|0,3:0|1:0,0:0:0:0:
119,330,23637,2,0,P|130:280|112:208,1,119.999996337891,0|0,1:0|1:0,0:0:0:0:
49,168,24167,2,0,P|46:138|50:108,1,59.9999981689454,0|0,1:0|1:0,0:0:0:0:
120,44,24519,1,0,1:0:0:0:
219,27,24696,1,0,1:0:0:0:
182,121,24872,1,0,1:0:0:0:
281,104,25049,2,0,L|310:221,1,119.999996337891,0|0,1:0|1:0,0:0:0:0:
316,321,25578,1,0,1:0:0:0:
227,277,25754,1,0,1:0:0:0:
309,220,25931,6,0,L|354:231,2,29.9999990844727,4|0|0,1:0|1:0|1:0,0:0:0:0:
150,177,26461,2,0,L|272:145,1,119.999996337891,0|0,1:0|1:0,0:0:0:0:
339,174,26990,2,0,P|341:126|331:101,1,59.9999981689454,0|0,1:0|1:0,0:0:0:0:
328,42,27343,2,0,P|291:58|274:80,1,59.9999981689454,0|0,1:0|1:0,0:0:0:0:
266,146,27696,2,0,P|217:151|182:168,1,59.9999981689454,0|0,1:0|3:0,0:0:0:0:
170,174,27961,1,0,3:0:0:0:
138,192,28049,1,0,3:0:0:0:
91,278,28225,2,0,P|60:277|31:266,2,59.9999981689454,0|0|0,3:0|3:0|3:0,0:0:0:0:
205,277,28755,6,0,P|274:238|257:125,2,179.999994506836,4|0|0,1:0|1:0|1:0,0:0:0:0:
117,256,30343,2,0,P|179:195|225:202,1,119.999996337891,0|0,1:0|1:0,0:0:0:0:
291,212,30872,2,0,L|307:273,2,59.9999981689454,0|0|0,3:0|3:0|3:0,0:0:0:0:
221,137,31402,2,0,L|205:198,1,59.9999981689454,0|4,3:0|3:0,0:0:0:0:
197,224,31755,6,0,L|189:253,2,29.9999990844727,0|0|0,3:0|3:0|3:0,0:0:0:0:
221,137,32108,1,0,1:0:0:0:
275,272,32461,6,0,L|252:291,2,29.9999990844727,0|0|0,3:0|3:0|3:0,0:0:0:0:
344,214,32814,1,0,1:0:0:0:
330,351,33167,6,0,L|300:353,2,29.9999990844727,0|0|0,3:0|3:0|3:0,0:0:0:0:
419,343,33520,1,0,1:0:0:0:
462,252,33696,2,0,P|452:222|431:197,1,59.9999981689454,0|0,1:0|1:0,0:0:0:0:
352,180,34049,2,0,P|329:150|319:116,1,59.9999981689454,0|0,1:0|1:0,0:0:0:0:
316,47,34402,6,0,P|257:80|241:134,1,119.999996337891,4|0,1:0|1:0,0:0:0:0:
268,197,34931,2,0,L|146:229,1,119.999996337891,0|0,1:0|1:0,0:0:0:0:
73,233,35461,2,0,P|84:271|114:299,1,59.9999981689454,0|0,1:0|1:0,0:0:0:0:
161,351,35814,2,0,L|193:230,1,119.999996337891,4|0,1:0|1:0,0:0:0:0:
153,159,36343,2,0,P|215:155|266:190,1,119.999996337891,0|0,1:0|1:0,0:0:0:0:
319,258,36872,1,0,1:0:0:0:
226,271,37049,1,0,1:0:0:0:
261,185,37225,6,0,L|293:63,1,119.999996337891,4|0,1:0|1:0,0:0:0:0:
353,0,37755,2,0,L|395:112,1,119.999996337891,0|0,1:0|1:0,0:0:0:0:
412,192,38284,2,0,P|354:181|319:132,1,119.999996337891,0|0,1:0|3:0,0:0:0:0:
277,54,38814,1,0,3:0:0:0:
202,101,38990,2,0,P|162:114|139:113,1,59.9999981689454,0|0,3:0|3:0,0:0:0:0:
49,74,39343,1,0,3:0:0:0:
55,168,39519,1,0,3:0:0:0:
130,238,39696,2,0,P|214:241|252:211,1,119.999996337891,0|4,1:0|1:0,0:0:0:0:
288,130,40225,6,0,L|299:92,2,29.9999990844727,0|0|0,3:0|3:0|3:0,0:0:0:0:
279,158,40578,1,0,3:0:0:0:
425,229,40931,1,0,3:0:0:0:
425,229,41019,1,0,3:0:0:0:
425,229,41108,2,0,P|352:244|309:214,1,119.999996337891,0|0,3:0|1:0,0:0:0:0:
316,223,41637,1,4,1:0:0:0:
279,158,42167,1,0,1:0:0:0:
218,237,42343,1,0,1:0:0:0:
132,272,42519,2,0,P|106:289|85:313,2,59.9999981689454,0|0|0,1:0|1:0|1:0,0:0:0:0:
218,237,43049,5,4,1:0:0:0:
304,202,43225,1,0,1:0:0:0:
304,202,43402,2,0,P|329:188|349:157,1,59.9999981689454,0|0,0:0|0:0,0:0:0:0:
276,131,43755,1,0,1:0:0:0:
276,131,43931,2,0,L|247:58,1,59.9999981689454,0|4,1:0|1:0,0:0:0:0:
208,10,44284,2,0,P|175:58|185:116,1,119.999996337891,0|0,1:0|1:0,0:0:0:0:
252,202,44990,2,0,P|262:260|241:305,1,100,0|0,1:0|1:0,0:0:0:0:
186,247,45696,6,0,L|40:299,2,150,0|0|0,1:0|1:0|1:0,0:0:0:0:
249,190,47108,2,0,P|269:260|222:318,2,150,0|0|0,1:0|1:0|1:0,0:0:0:0:
161,125,48519,6,0,L|264:87,1,100,0|0,1:0|1:0,0:0:0:0:
334,141,49049,2,0,L|286:158,1,50,0|0,1:0|0:0,0:0:0:0:
205,188,49402,1,0,1:0:0:0:
178,277,49579,1,0,1:0:0:0:
269,256,49755,2,0,P|295:240|311:219,1,50,0|0,1:0|1:0,0:0:0:0:
375,161,50108,6,0,L|374:121,2,25,0|0|0,3:0|3:0|3:0,0:0:0:0:
396,254,50461,2,0,L|428:277,2,25,0|0|0,3:0|3:0|3:0,0:0:0:0:
308,226,50814,1,0,3:0:0:0:
228,210,50990,1,0,3:0:0:0:
145,228,51167,1,0,3:0:0:0:
77,275,51343,5,2,2:0:0:0:
77,275,51872,2,0,L|111:214,1,50,0|2,2:0|2:0,0:0:0:0:
301,187,52755,5,0,2:0:0:0:
302,187,53284,2,0,P|268:168|247:165,1,50,0|2,2:0|2:0,0:0:0:0:
118,122,53990,5,0,2:0:0:0:
118,122,54167,2,0,L|264:67,1,150,0|0,2:0|2:0,0:0:0:0:
339,123,54872,6,0,L|229:163,1,104.999996795654,2|0,2:0|2:0,0:0:0:0:
210,231,55578,6,0,P|167:176|165:141,1,100,0|2,2:0|2:0,0:0:0:0:
164,147,56990,5,8,2:0:0:0:
372,155,62637,5,4,1:0:0:0:
188,97,62990,1,4,1:0:0:0:
188,97,63343,2,0,P|211:149|206:228,1,119.999996337891,0|0,1:0|1:0,0:0:0:0:
194,293,63872,1,0,1:0:0:0:
194,293,64049,2,0,P|136:253|137:187,1,119.999996337891,0|0,1:0|1:0,0:0:0:0:
64,145,64578,2,0,L|184:113,1,119.999996337891,0|0,1:0|1:0,0:0:0:0:
262,241,65284,1,0,1:0:0:0:
186,222,65461,6,0,P|161:171|194:100,1,119.999996337891,4|0,1:0|1:0,0:0:0:0:
251,71,65990,1,0,1:0:0:0:
251,71,66167,2,0,L|372:105,1,119.999996337891,0|0,1:0|1:0,0:0:0:0:
433,140,66696,2,0,P|399:173|367:177,1,59.9999981689454,4|0,1:0|1:0,0:0:0:0:
287,241,67049,2,0,P|242:219|228:192,1,59.9999981689454,4|0,1:0|1:0,0:0:0:0:
122,197,67402,2,0,P|126:148|149:125,2,59.9999981689454,4|0|0,1:0|1:0|1:0,0:0:0:0:
184,271,67931,1,0,3:0:0:0:
210,286,68019,1,0,3:0:0:0:
241,289,68107,1,0,3:0:0:0:
271,280,68195,1,0,3:0:0:0:
299,266,68284,6,0,P|337:258|375:266,1,59.9999981689454,4|0,3:0|1:0,0:0:0:0:
447,281,68637,2,0,L|414:165,1,119.999996337891,0|0,1:0|1:0,0:0:0:0:
409,80,69167,1,0,1:0:0:0:
409,80,69343,2,0,P|350:112|331:168,1,119.999996337891,0|0,1:0|1:0,0:0:0:0:
338,280,69872,1,0,1:0:0:0:
422,321,70049,1,0,1:0:0:0:
427,223,70225,1,0,1:0:0:0:
260,124,70578,1,0,1:3:0:0:
182,175,70755,1,0,1:3:0:0:
265,216,70931,2,0,P|296:216|329:207,1,59.9999981689454,0|4,1:3|1:0,0:0:0:0:
375,147,71284,6,0,P|400:204|373:267,1,119.999996337891,0|0,0:3|1:0,0:0:0:0:
295,332,71814,2,0,L|263:211,1,119.999996337891,0|0,0:0|1:0,0:0:0:0:
309,147,72343,1,0,1:0:0:0:
309,147,72519,2,0,B|245:140|245:140|187:174,1,119.999996337891,0|0,1:0|1:0,0:0:0:0:
121,254,73049,1,0,1:0:0:0:
121,254,73225,2,0,P|91:219|83:190,1,59.9999981689454,0|0,1:0|1:0,0:0:0:0:
30,148,73578,1,0,3:0:0:0:
56,133,73666,1,0,3:0:0:0:
86,128,73754,1,0,3:0:0:0:
116,136,73842,1,0,3:0:0:0:
140,153,73931,6,0,P|183:167|223:161,1,59.9999981689454,4|0,1:0|1:0,0:0:0:0:
297,118,74284,1,4,1:0:0:0:
323,28,74461,1,0,1:0:0:0:
233,51,74637,6,0,P|208:71|189:99,1,59.9999981689454,4|0,1:0|1:0,0:0:0:0:
181,187,74990,1,4,1:0:0:0:
268,149,75167,1,0,1:0:0:0:
192,94,75343,6,0,P|107:132|91:172,1,119.999996337891,0|4,1:0|1:0,1:0:0:0:
150,302,75872,2,0,L|180:186,2,119.999996337891,4|4|0,1:0|1:0|1:0,0:0:0:0:
238,351,76755,5,4,1:0:0:0:
318,305,76932,1,0,1:0:0:0:
239,258,77108,2,0,P|255:234|283:218,1,59.9999981689454,0|0,1:0|1:0,0:0:0:0:
383,202,77461,5,4,1:0:0:0:
385,102,77637,1,0,1:0:0:0:
297,54,77814,1,0,1:0:0:0:
204,91,77990,1,0,1:0:0:0:
146,172,78167,6,0,P|157:200|183:227,1,59.9999981689454,4|0,1:0|1:0,0:0:0:0:
261,285,78519,1,0,1:0:0:0:
261,285,78696,2,0,L|141:316,1,119.999996337891,4|0,1:0|1:0,0:0:0:0:
66,343,79225,1,0,3:0:0:0:
61,306,79314,1,0,3:0:0:0:
74,272,79402,1,0,3:0:0:0:
99,247,79490,1,0,3:0:0:0:
134,236,79578,6,0,P|168:228|202:208,1,59.9999981689454,4|0,3:0|1:0,0:0:0:0:
213,139,79931,1,0,1:0:0:0:
213,139,80108,2,0,P|259:175|267:234,1,119.999996337891,0|0,1:0|1:0,0:0:0:0:
221,304,80637,1,0,1:0:0:0:
148,262,80814,2,0,P|164:237|187:218,1,59.9999981689454,0|0,1:0|1:0,0:0:0:0:
267,233,81167,5,0,1:0:0:0:
340,188,81343,1,0,1:0:0:0:
340,188,81519,2,0,P|344:155|334:127,1,59.9999981689454,0|0,1:0|0:0,0:0:0:0:
360,57,81872,1,0,3:0:0:0:
323,52,81961,1,0,3:0:0:0:
289,65,82049,1,0,3:0:0:0:
264,90,82137,1,0,3:0:0:0:
253,125,82225,2,0,P|237:155|199:175,1,59.9999981689454,0|4,3:0|3:0,0:0:0:0:
100,156,82578,5,0,1:0:0:0:
86,55,82755,1,0,1:0:0:0:
86,55,82931,2,0,P|144:59|181:116,1,119.999996337891,0|0,1:0|1:0,0:0:0:0:
241,193,83461,2,0,L|262:114,1,59.9999981689454,0|0,1:0|1:0,0:0:0:0:
381,73,83814,2,0,P|413:86|443:118,1,59.9999981689454,0|0,1:0|1:0,0:0:0:0:
282,151,84167,2,0,P|255:171|234:209,1,59.9999981689454,0|0,1:0|1:0,0:0:0:0:
391,249,84519,1,0,1:0:0:0:
284,311,84872,6,0,L|268:368,2,59.9999981689454,0|0|4,1:0|1:0|2:0,1:0:0:0:
256,192,85402,12,0,88931,0:0:0:0:
