osu file format v14

[General]
AudioFilename: audio.mp3
AudioLeadIn: 0
PreviewTime: 62284
Countdown: 0
SampleSet: Normal
StackLeniency: 0.7
Mode: 0
LetterboxInBreaks: 0
WidescreenStoryboard: 1

[Editor]
DistanceSpacing: 1
BeatDivisor: 1
GridSize: 8
TimelineZoom: 1

[Metadata]
Title:Update
TitleUnicode:アップデート
Artist:miwa
ArtistUnicode:miwa
Creator:NotABox
Version:Easy
Source:僕のヒーローアカデミア
Tags:boku no my hero academia heroaca ヒロアカ ending theme ed plus ultra season 3
BeatmapID:1656175
BeatmapSetID:770579

[Difficulty]
HPDrainRate:2
CircleSize:3.4
OverallDifficulty:2
ApproachRate:3
SliderMultiplier:1
SliderTickRate:1

[Events]
//Background and Video events
0,0,"mha.png",0,0
Video,0,"video.mp4"
//Break Periods
2,57190,61197
//Storyboard Layer 0 (Background)
//Storyboard Layer 1 (Fail)
//Storyboard Layer 2 (Pass)
//Storyboard Layer 3 (Foreground)
//Storyboard Sound Samples

[TimingPoints]
520,352.941176470588,4,1,0,40,1,0
520,-133.333333333333,4,1,0,40,0,0
62637,-133.333333333333,4,1,0,65,0,1
85225,-83.3333333333333,4,1,0,60,0,0
85931,-83.3333333333333,4,1,1,50,0,0
86637,-83.3333333333333,4,1,0,40,0,0
87343,-83.3333333333333,4,1,1,30,0,0
88049,-83.3333333333333,4,1,0,20,0,0
88577,-100,4,1,1,10,0,0

[Colours]
Combo1 : 40,222,14
Combo2 : 251,136,21
Combo3 : 48,185,231
Combo4 : 163,92,209

[HitObjects]
55,243,520,6,0,L|199:281,1,150.000005722046,2|0,2:0|2:0,2:0:0:0:
335,345,1931,2,0,B|378:308|371:265|356:235|356:235|342:206|335:163|378:126,1,225.000008583069,0|0,2:0|2:3,0:0:0:0:
392,68,3343,6,0,P|439:117|421:194,1,150.000005722046,2|0,2:0|2:0,0:0:0:0:
304,284,4755,2,0,L|159:322,1,150.000005722046,0|0,2:0|2:0,2:0:0:0:
93,284,5814,1,0,2:3:0:0:
93,284,6167,6,0,P|123:223|105:140,1,150.000005722046,6|0,2:0|2:0,0:0:0:0:
26,23,7578,2,0,L|170:61,1,150.000005722046,0|0,2:0|2:0,0:0:0:0:
240,89,8637,1,0,2:0:0:0:
240,89,8990,6,0,P|228:163|258:203,1,112.500004291535,6|2,2:0|2:0,0:0:0:0:
335,259,10049,1,0,2:0:0:0:
335,259,10402,2,0,P|244:239|191:274,1,150.000005722046,0|0,2:0|2:0,0:0:0:0:
64,333,11814,6,0,L|102:188,1,150.000005722046,4|0,1:0|1:0,0:0:0:0:
123,115,12872,1,0,1:0:0:0:
123,115,13225,2,0,P|190:149|271:136,1,150.000005722046,0|0,1:0|0:0,0:0:0:0:
323,97,14284,1,0,0:0:0:0:
323,97,14637,6,0,L|361:241,1,150.000005722046,4|4,3:0|3:0,0:0:0:0:
240,331,16049,2,0,B|179:326|179:326|134:297,2,112.500004291535,0|0|0,3:0|3:0|3:0,3:0:0:0:
315,336,17461,5,4,1:0:0:0:
315,336,17990,2,0,P|375:274|368:177,1,187.500007152558,0|4,0:0|3:0,0:0:0:0:
385,67,19402,2,0,L|185:120,1,187.500007152558,4|4,1:0|3:0,0:0:0:0:
98,75,20814,6,0,P|128:143|121:182,1,112.500004291535,4|0,1:0|1:0,0:0:0:0:
104,251,21696,2,0,P|166:326|279:284,1,225.000008583069,0|0,0:0|3:0,0:0:0:0:
307,223,23108,6,0,L|339:102,2,112.500004291535,4|0|0,3:0|1:0|1:0,0:0:0:0:
256,278,24519,2,0,P|198:254|141:264,2,112.500004291535,0|0|0,1:0|1:0|1:0,0:0:0:0:
320,328,25931,5,4,1:0:0:0:
414,239,26461,2,0,B|408:177|408:177|362:119,1,112.500004291535,0|0,1:0|1:0,0:0:0:0:
316,93,27343,2,0,P|273:100|226:91,1,75.0000028610231,0|0,1:0|1:0,0:0:0:0:
179,54,28049,2,0,P|141:50|105:57,1,75.0000028610231,0|0,3:0|3:0,0:0:0:0:
45,103,28755,6,0,L|74:211,2,112.500004291535,4|0|0,1:0|1:0|1:0,0:0:0:0:
137,39,30343,1,0,1:0:0:0:
221,113,30872,2,0,P|257:143|304:152,2,75.0000028610231,0|0|4,3:0|3:0|3:0,0:0:0:0:
191,89,31755,6,0,L|118:108,1,75.0000028610231,0|0,3:0|1:0,0:0:0:0:
60,156,32461,2,0,P|61:200|87:238,1,75.0000028610231,0|0,3:0|1:0,0:0:0:0:
146,250,33167,2,0,P|186:243|227:251,1,75.0000028610231,0|0,3:0|1:0,0:0:0:0:
254,261,33696,2,0,P|290:266|327:259,2,75.0000028610231,0|0|4,1:0|1:0|1:0,0:0:0:0:
179,176,34931,5,0,1:0:0:0:
253,91,35461,1,0,1:0:0:0:
253,91,35814,2,0,P|316:90|364:127,1,112.500004291535,4|0,1:0|1:0,0:0:0:0:
425,204,36872,1,0,1:0:0:0:
425,204,37225,2,0,P|363:225|333:281,1,112.500004291535,4|0,1:0|1:0,0:0:0:0:
289,363,38284,1,0,1:0:0:0:
289,363,38637,6,0,P|253:350|225:326,1,75.0000028610231,0|0,3:0|3:0,0:0:0:0:
205,293,39167,1,0,3:0:0:0:
177,267,39343,2,0,P|148:242|113:230,1,75.0000028610231,0|0,3:0|1:0,0:0:0:0:
64,173,40049,6,0,P|88:120|153:79,2,112.500004291535,4|0|0,1:0|3:0|3:0,0:0:0:0:
46,284,41637,6,0,L|159:253,1,112.500004291535,4|0,1:0|1:0,0:0:0:0:
229,247,42519,1,0,1:0:0:0:
336,278,43049,6,0,L|413:298,1,75.0000028610231,4|0,1:0|0:0,0:0:0:0:
474,260,43755,2,0,P|485:202|475:158,1,75.0000028610231,0|4,1:0|1:0,0:0:0:0:
467,152,44284,2,0,B|429:143|429:143|382:154,1,75.0000028610231,0|0,1:0|1:0,0:0:0:0:
337,200,44990,2,0,B|301:208|301:208|263:199,1,75.0000028610231,0|0,1:0|1:0,0:0:0:0:
210,146,45696,6,0,P|227:87|289:51,2,112.500004291535,0|0|0,1:0|1:0|1:0,0:0:0:0:
161,203,47108,2,0,L|53:174,2,112.500004291535,0|0|0,1:0|1:0|1:0,0:0:0:0:
234,216,48519,6,0,P|288:216|340:168,2,112.500004291535,0|0|0,1:0|1:0|1:0,0:0:0:0:
201,197,49755,6,0,P|135:162|90:165,1,112.500004291535,0|0,1:0|3:0,0:0:0:0:
64,180,50461,2,0,L|93:288,1,112.500004291535,0|0,3:0|3:0,0:0:0:0:
154,332,51343,6,0,P|230:337|303:286,1,150.000005722046,2|2,2:0|2:0,0:0:0:0:
418,219,52755,2,0,L|267:178,1,150.000005722046,0|2,2:0|2:0,0:0:0:0:
124,158,54167,6,0,P|131:220|166:261,1,112.500004291535,0|0,2:0|2:0,0:0:0:0:
196,271,54872,2,0,P|257:269|319:300,1,112.500004291535,2|0,2:0|2:0,0:0:0:0:
335,308,55578,2,0,L|375:157,1,150.000005722046,0|2,2:0|2:0,0:0:0:0:
373,163,56990,5,8,2:0:0:0:
448,328,62637,6,0,L|424:240,1,75.0000028610231,4|4,1:0|1:0,0:0:0:0:
409,182,63343,2,0,P|363:194|313:186,1,75.0000028610231,0|0,1:0|1:0,0:0:0:0:
299,184,63872,1,0,1:0:0:0:
261,179,64049,2,0,P|223:178|187:189,1,75.0000028610231,0|0,1:0|1:0,0:0:0:0:
152,202,64578,2,0,B|108:195|108:195|79:154,1,75.0000028610231,0|0,1:0|1:0,0:0:0:0:
57,62,65461,6,0,P|100:65|142:84,1,75.0000028610231,4|0,1:0|1:0,0:0:0:0:
163,92,65990,2,0,B|200:109|200:109|239:105,1,75.0000028610231,0|0,1:0|0:0,0:0:0:0:
308,113,66696,2,0,P|345:123|383:163,2,75.0000028610231,4|4|4,1:0|1:0|1:0,0:0:0:0:
198,84,67931,2,0,L|209:125,1,37.5000014305115,0|0,3:0|3:0,0:0:0:0:
218,156,68284,5,4,3:0:0:0:
283,191,68637,2,0,B|333:194|365:163,1,75.0000028610231,0|0,1:0|1:0,0:0:0:0:
408,120,69343,1,0,1:0:0:0:
442,53,69696,2,0,P|375:53|335:95,1,112.500004291535,0|0,1:0|1:0,0:0:0:0:
283,126,70578,2,0,B|246:132|246:132|202:112,1,75.0000028610231,0|0,1:3|1:3,0:0:0:0:
174,110,71108,6,0,L|132:121,1,37.5000014305115,4|0,1:0|0:3,0:0:0:0:
55,196,71814,2,0,L|79:288,1,75.0000028610231,0|0,0:0|1:0,0:0:0:0:
122,325,72519,2,0,P|174:310|239:316,1,112.500004291535,0|0,1:0|1:0,0:0:0:0:
268,322,73225,2,0,L|309:333,1,37.5000014305115,0|0,1:0|1:0,0:0:0:0:
416,324,73931,6,0,P|433:271|424:238,1,75.0000028610231,4|4,1:0|1:0,0:0:0:0:
390,189,74637,2,0,P|373:136|382:103,1,75.0000028610231,4|4,1:0|1:0,0:0:0:0:
408,50,75343,2,0,L|289:81,1,112.500004291535,0|4,1:0|1:0,0:0:0:0:
230,108,76225,2,0,B|214:144|214:144|223:181,1,75.0000028610231,4|0,1:0|1:0,0:0:0:0:
233,214,76755,5,4,1:0:0:0:
251,286,77108,1,4,1:0:0:0:
318,253,77461,1,4,1:0:0:0:
336,325,77814,1,4,1:0:0:0:
403,292,78167,2,0,P|443:252|442:187,1,112.500004291535,4|4,1:0|1:0,0:0:0:0:
431,124,79049,6,0,B|395:108|395:108|358:117,1,75.0000028610231,0|0,1:0|3:0,0:0:0:0:
289,142,79755,2,0,B|254:150|254:150|218:134,1,75.0000028610231,0|0,1:0|1:0,0:0:0:0:
180,69,80461,2,0,P|146:110|142:147,1,75.0000028610231,0|0,1:0|1:0,0:0:0:0:
161,202,81167,2,0,L|185:294,1,75.0000028610231,0|0,1:0|1:0,0:0:0:0:
180,349,81872,2,0,P|217:340|257:287,1,75.0000028610231,0|0,3:0|3:0,0:0:0:0:
264,284,82402,6,0,L|296:162,2,112.500004291535,4|0|0,3:0|1:0|1:0,0:0:0:0:
209,335,83814,2,0,P|165:336|136:317,1,75.0000028610231,0|0,1:0|1:0,0:0:0:0:
94,260,84519,1,0,1:0:0:0:
138,199,84872,2,0,B|176:191|176:191|208:206,1,75.0000028610231,0|4,1:0|2:0,0:0:0:0:
256,192,85402,12,0,88931,0:0:0:0:
