osu file format v14

[General]
AudioFilename: audio.mp3
AudioLeadIn: 0
PreviewTime: 184089
Countdown: 0
SampleSet: Soft
StackLeniency: 0.5
Mode: 0
LetterboxInBreaks: 0
WidescreenStoryboard: 0

[Editor]
Bookmarks: 2059,24648,30295,52883,58530,64177,86765,92412,115001,120648,126295,148883,171471,184177,195471,218059,240648,246295,253354
DistanceSpacing: 1.4
BeatDivisor: 4
GridSize: 32
TimelineZoom: 2

[Metadata]
Title:Update
TitleUnicode:アップデート
Artist:miwa
ArtistUnicode:miwa
Creator:Kowari
Version:Insane
Source:僕のヒーローアカデミア
Tags:my hero academia boku no hero academia season 3 ed ending japanese anime full ver version
BeatmapID:1969288
BeatmapSetID:943002

[Difficulty]
HPDrainRate:6
CircleSize:4
OverallDifficulty:8
ApproachRate:9
SliderMultiplier:1.7
SliderTickRate:1

[Events]
//Background and Video events
0,0,"urararka.jpg",0,0
//Break Periods
2,58697,61956
2,120815,124074
2,184344,193426
//Storyboard Layer 0 (Background)
//Storyboard Layer 1 (Fail)
//Storyboard Layer 2 (Pass)
//Storyboard Layer 3 (Foreground)
//Storyboard Sound Samples

[TimingPoints]
2027,352.941176470588,4,2,1,50,1,0
2027,-133.333333333333,4,2,1,40,0,0
2732,-133.333333333333,4,2,1,40,0,0
12968,-200,4,2,1,40,0,0
13321,-125,4,2,1,60,0,0
16850,-111.111111111111,4,2,1,60,0,0
17556,-125,4,2,1,60,0,0
24615,-125,4,2,1,60,0,0
30262,-125,4,2,1,50,0,0
33085,-125,4,2,1,50,0,0
45791,-166.666666666667,4,2,1,45,0,0
47203,-125,4,2,1,45,0,0
52850,-166.666666666667,4,2,1,35,0,0
62556,-250.000000000001,4,2,1,35,0,0
64144,-100,4,1,2,70,0,1
64232,-100,4,2,1,70,0,1
75438,-100,4,2,1,70,0,1
75791,-83.3333333333333,4,2,1,70,0,1
76144,-100,4,2,1,70,0,1
76497,-83.3333333333333,4,2,1,70,0,1
76850,-100,4,2,1,70,0,1
86732,-100,4,2,1,70,0,0
94497,-125,4,2,1,60,0,0
107909,-166.666666666667,4,2,1,45,0,0
109321,-125,4,2,1,45,0,0
114615,-100,4,2,1,45,0,0
114968,-166.666666666667,4,2,1,35,0,0
124674,-250.000000000001,4,2,1,35,0,0
126262,-100,4,1,2,70,0,1
126350,-100,4,2,1,70,0,1
137556,-100,4,2,1,70,0,1
137909,-83.3333333333333,4,2,1,70,0,1
138262,-100,4,2,1,70,0,1
138615,-83.3333333333333,4,2,1,70,0,1
138968,-100,4,2,1,70,0,1
148850,-100,4,2,1,65,0,0
171438,-100,4,2,1,55,0,0
171968,-125,4,2,1,55,0,0
182732,-125,4,2,1,65,0,0
194909,-83.3333333333333,4,2,2,60,0,0
194997,-83.3333333333333,4,2,1,60,0,0
195438,-90.9090909090909,4,1,2,80,0,1
195526,-90.9090909090909,4,2,1,80,0,1
206732,-90.9090909090909,4,2,1,80,0,1
207085,-76.9230769230769,4,2,1,80,0,1
207438,-90.9090909090909,4,2,1,80,0,1
207791,-76.9230769230769,4,2,1,80,0,1
208144,-90.9090909090909,4,2,1,80,0,1
218026,-100,4,2,1,70,0,0
229321,-100,4,2,1,70,0,0
229674,-83.3333333333333,4,2,1,70,0,0
230026,-100,4,2,1,70,0,0
230379,-83.3333333333333,4,2,1,70,0,0
230732,-100,4,2,1,70,0,0
240615,-125,4,2,1,60,0,0
246262,-125,4,1,2,60,0,0
246350,-125,4,2,1,50,0,0
253321,-125,4,2,1,5,0,0

[Colours]
Combo1 : 138,138,198
Combo2 : 198,162,147
Combo3 : 130,65,0
Combo4 : 255,70,255

[HitObjects]
116,160,2027,6,0,P|178:141|243:177,1,127.5,2|2,0:2|0:2,0:2:0:0:
233,166,2732,2,0,L|220:316,1,127.500004863739,2|2,0:2|0:2,0:2:0:0:
288,340,3262,1,2,0:2:0:0:
142,212,3438,2,0,L|137:345,1,127.500004863739,2|2,0:2|0:2,0:2:0:0:
41,264,3968,2,0,L|44:333,1,63.7500024318696,2|0,0:2|0:2,0:2:0:0:
1,179,4321,2,0,L|3:115,1,63.7500024318696,2|0,0:2|0:2,0:2:0:0:
123,63,4674,1,2,0:2:0:0:
80,134,4850,6,0,P|142:145|194:111,1,127.500004863739,2|2,0:2|0:2,0:2:0:0:
132,244,5379,2,0,L|143:173,1,63.7500024318696,2|0,0:2|0:2,0:2:0:0:
234,284,5732,2,0,L|226:220,1,63.7500024318696,2|0,0:2|0:2,0:2:0:0:
323,330,6085,1,2,0:2:0:0:
323,330,6174,1,0,0:2:0:0:
323,330,6262,6,0,L|333:191,1,127.500004863739,0|0,0:2|0:2,0:2:0:0:
395,108,6791,2,0,B|356:127|356:127|264:116,1,127.500004863739,2|0,0:2|0:2,0:2:0:0:
231,38,7321,1,2,0:2:0:0:
324,23,7497,1,2,0:2:0:0:
266,207,7674,6,0,P|210:180|181:105,1,127.500004863739,0|2,0:2|0:2,0:2:0:0:
343,252,8379,2,0,P|291:286|212:274,1,127.500004863739,2|2,0:2|0:2,0:2:0:0:
417,212,9085,2,0,P|421:273|371:336,1,127.500004863739,2|2,0:2|0:2,0:2:0:0:
417,126,9791,2,0,P|473:153|502:228,1,127.500004863739,0|2,0:2|0:2,0:2:0:0:
344,78,10497,6,0,P|381:48|464:46,1,127.500004863739,2|2,0:2|0:2,0:2:0:0:
375,192,11026,2,0,L|240:171,1,127.500004863739,2|0,0:2|0:2,0:2:0:0:
181,111,11556,2,0,P|163:137|154:184,1,63.7500024318696,0|0,0:2|0:2,0:2:0:0:
196,235,11909,2,0,P|153:208|65:223,1,127.500004863739,2|2,0:2|0:2,0:2:0:0:
36,297,12438,1,2,0:2:0:0:
124,352,12615,2,0,L|128:274,1,63.7500024318696,2|0,0:2|0:2,0:2:0:0:
81,216,12879,1,0,3:2:0:0:
81,216,12968,2,0,L|86:138,1,63.75,0|0,3:2|0:2,0:2:0:0:
93,113,13321,6,0,P|127:133|174:130,1,68,6|0,3:2|0:2,0:2:0:0:
273,54,13674,2,0,P|239:57|211:75,1,68,10|0,0:2|0:2,0:2:0:0:
222,181,14026,2,0,P|256:201|303:198,1,68,2|0,3:2|0:2,0:2:0:0:
402,122,14379,2,0,P|368:125|340:143,1,68,10|0,0:2|0:2,0:2:0:0:
399,322,14732,6,0,P|425:278|389:196,1,136,6|10,3:2|0:2,0:2:0:0:
280,253,15262,2,0,L|352:261,1,68,2|0,0:2|3:2,0:2:0:0:
247,176,15615,2,0,L|175:184,1,68,2|8,0:2|0:2,0:2:0:0:
113,241,15968,1,2,0:2:0:0:
113,241,16056,1,2,0:2:0:0:
113,241,16144,6,0,P|88:176|101:132,1,102,6|0,3:2|0:2,0:2:0:0:
114,119,16497,2,0,L|158:113,3,34,8|8|8|8,0:2|0:2|0:2|0:2,0:2:0:0:
78,143,16850,2,0,P|67:198|91:249,1,114.749996498108,6|0,3:2|0:2,0:2:0:0:
122,262,17203,2,0,L|167:255,3,38.2499988327027,8|8|8|8,0:3|0:3|0:3|0:3,0:2:0:0:
192,249,17556,6,0,P|211:278|218:311,1,68,6|2,0:2|0:2,0:2:0:0:
184,384,17909,1,8,0:2:0:0:
154,180,18085,2,0,P|196:169|274:221,1,136,2|2,3:2|0:2,0:2:0:0:
289,314,18615,2,0,L|280:389,1,68,10|2,0:2|0:2,0:2:0:0:
391,249,18968,6,0,L|404:390,1,136,4|10,3:2|0:2,0:2:0:0:
470,196,19497,2,0,P|423:162|326:185,1,136,6|2,3:2|3:2,0:2:0:0:
301,266,20026,1,10,0:2:0:0:
391,249,20203,1,10,0:2:0:0:
224,191,20379,6,0,B|218:264,1,68,4|2,3:2|3:2,0:2:0:0:
204,356,20732,1,10,0:2:0:0:
146,162,20909,2,0,P|175:125|275:125,1,136,6|8,3:2|0:2,0:2:0:0:
317,193,21350,1,8,0:0:0:0:
317,193,21438,2,0,L|307:253,1,34,8|8,0:2|0:2,0:2:0:0:
376,121,21615,2,0,L|370:87,1,34,10|8,0:2|0:2,0:2:0:0:
452,196,21791,6,0,B|438:248|438:248|462:336,1,136,6|8,3:2|0:2,0:2:0:0:
317,193,22321,2,0,P|273:176|180:202,1,136,2|0,3:2|0:2,0:2:0:0:
160,290,22850,2,0,L|165:381,1,68,2|0,0:2|0:2,0:2:0:0:
70,237,23203,1,2,3:2:0:0:
70,237,23379,2,0,L|52:383,1,136,0|0,3:2|3:2,0:2:0:0:
148,189,23909,2,0,P|119:164|83:154,1,68,8|2,0:2|0:2,0:2:0:0:
87,8,24262,1,10,0:2:0:0:
84,22,24350,1,8,0:2:0:0:
82,36,24438,1,10,0:2:0:0:
80,50,24526,1,8,0:2:0:0:
78,64,24615,6,0,B|131:63|131:63|156:82|156:82|220:82,1,136,6|0,3:2|3:2,0:2:0:0:
354,21,25144,2,0,P|313:41|289:128,1,136,8|0,0:2|3:2,0:2:0:0:
360,198,25674,2,0,L|432:202,1,68,8|0,0:2|0:2,0:2:0:0:
337,298,26026,1,0,3:2:0:0:
337,298,26203,2,0,L|412:295,1,68,0|0,3:2|0:2,0:2:0:0:
258,230,26556,2,0,B|247:318|247:318|269:366,1,136,8|0,0:2|3:2,0:2:0:0:
172,247,27085,2,0,B|163:318,1,68,8|0,0:2|0:2,0:2:0:0:
92,195,27438,6,0,L|72:339,1,136,0|0,3:2|3:2,0:2:0:0:
175,168,27968,2,0,P|139:125|43:125,1,136,8|0,0:2|0:2,0:2:0:0:
10,211,28497,2,0,L|89:210,1,68,12|0,0:2|0:2,0:2:0:0:
162,326,28850,5,0,3:2:0:0:
74,292,29026,1,0,3:2:0:0:
230,268,29203,2,8,P|246:312|243:351,1,68,8|8,3:2|0:2,0:2:0:0:
241,359,29468,1,8,0:2:0:0:
241,359,29556,5,8,0:2:0:0:
363,224,29732,1,8,0:2:0:0:
379,384,29909,1,8,0:2:0:0:
271,201,30085,1,8,0:2:0:0:
432,160,30262,6,0,P|456:205|424:300,1,136,6|0,3:2|0:2,0:2:0:0:
350,111,30791,2,0,B|385:82|385:82|485:75,1,136,2|0,3:2|0:2,0:2:0:0:
266,186,31321,2,0,L|242:47,1,136,2|0,3:2|0:2,0:2:0:0:
149,233,31850,2,0,B|170:186|170:186|157:89,1,136,2|0,3:2|0:2,0:2:0:0:
69,65,32379,2,0,L|80:137,1,68,10|2,0:2|3:2,0:2:0:0:
40,220,32732,1,10,0:3:0:0:
40,220,32909,1,10,0:3:0:0:
154,257,33085,6,0,P|161:311|151:345,1,68,6|10,3:2|0:2,0:2:0:0:
149,346,33350,1,8,0:2:0:0:
149,346,33438,1,10,0:2:0:0:
294,221,33615,2,0,P|267:259|263:349,1,136,2|10,0:2|0:2,0:2:0:0:
280,366,34056,1,8,0:2:0:0:
280,366,34144,1,10,0:2:0:0:
416,306,34321,6,0,L|334:300,1,68,2|0,0:2|3:2,0:2:0:0:
226,229,34674,1,10,0:2:0:0:
226,229,34762,1,8,0:2:0:0:
226,229,34850,2,0,L|299:220,1,68,10|2,0:2|0:2,0:2:0:0:
387,208,35203,1,2,3:2:0:0:
335,140,35379,1,0,3:2:0:0:
506,127,35556,1,10,0:3:0:0:
473,206,35732,1,8,0:3:0:0:
391,68,35909,6,0,P|352:53|259:80,1,136,6|10,3:2|0:2,0:2:0:0:
166,90,36438,2,0,P|228:108|268:185,1,136,2|0,3:2|3:2,0:2:0:0:
171,246,36968,2,0,L|185:157,1,68,10|0,0:2|0:2,0:2:0:0:
235,310,37321,2,0,B|197:333|197:333|94:322,1,136,2|10,3:2|0:2,0:2:0:0:
35,229,37850,2,0,L|178:246,1,136,2|0,3:2|3:2,0:2:0:0:
298,319,38379,1,10,0:2:0:0:
200,350,38556,1,2,3:2:0:0:
355,244,38732,6,0,P|383:284|371:374,1,136,2|8,3:2|0:2,0:2:0:0:
279,187,39262,2,0,B|315:158|315:158|418:152,1,136,2|0,3:2|3:2,0:2:0:0:
470,220,39791,1,10,0:2:0:0:
470,220,40144,5,10,0:2:0:0:
421,78,40321,1,8,0:2:0:0:
405,273,40497,1,8,0:2:0:0:
482,135,40674,1,8,0:2:0:0:
332,240,40850,5,8,0:2:0:0:
483,300,41026,1,8,0:2:0:0:
299,357,41203,2,0,L|221:352,1,68,8|0,0:2|3:2,0:2:0:0:
124,226,41556,6,0,P|150:267|149:305,1,68,6|0,3:2|0:2,0:2:0:0:
146,313,41821,1,8,0:2:0:0:
146,313,41909,2,0,L|109:334,1,34,8|8,0:2|0:2,0:2:0:0:
46,191,42085,2,0,P|83:155|172:159,1,136,6|0,3:2|0:2,0:2:0:0:
276,234,42615,2,0,B|247:194|247:194|249:97,1,136,2|0,3:2|0:2,0:2:0:0:
336,29,43144,2,0,L|334:169,1,136,6|0,3:2|3:2,0:2:0:0:
438,72,43674,2,0,L|444:151,1,68,2|2,3:2|3:2,0:2:0:0:
467,230,44026,1,10,0:3:0:0:
467,230,44203,1,10,0:3:0:0:
389,314,44379,5,6,3:2:0:0:
329,228,44556,2,0,P|286:211|221:239,1,102,2|0,0:2|0:2,0:2:0:0:
213,253,44909,2,0,L|207:340,1,68,10|0,0:2|3:2,0:2:0:0:
131,367,45262,2,0,P|88:384|23:356,1,102,2|0,0:2|0:2,0:2:0:0:
15,335,45615,1,10,0:2:0:0:
13,215,45791,6,0,B|131:185|101:254|227:226,1,203.999993774414,4|2,3:2|3:2,0:2:0:0:
290,153,46850,1,2,3:2:0:0:
386,223,47203,6,0,L|399:367,1,136,2|0,3:2|0:2,0:2:0:0:
289,261,47732,1,2,3:2:0:0:
289,261,47909,2,0,L|284:329,1,68,8|0,0:2|0:2,0:2:0:0:
199,203,48262,2,0,L|194:135,1,68,2|0,0:2|0:2,0:2:0:0:
259,58,48615,2,0,P|223:90|127:74,1,136,2|0,3:2|3:2,0:2:0:0:
29,19,49321,6,0,L|34:93,1,68,8|0,0:2|3:2,0:2:0:0:
91,157,49674,2,0,L|86:231,1,68,2|0,0:2|0:2,0:2:0:0:
17,296,50026,2,0,P|67:269|158:279,1,136,2|0,3:2|0:2,0:2:0:0:
196,351,50556,2,0,P|232:366|274:361,1,68,0|8,0:2|0:2,0:2:0:0:
335,309,50909,2,0,L|339:240,1,68,2|2,0:2|0:2,0:2:0:0:
286,166,51262,1,2,0:2:0:0:
286,166,51438,6,0,P|320:150|369:156,1,68,4|0,3:2|0:2,0:2:0:0:
378,164,51703,1,8,0:2:0:0:
378,164,51791,1,10,0:2:0:0:
453,217,51968,1,10,0:2:0:0:
447,229,52056,1,8,0:2:0:0:
442,241,52144,1,8,0:2:0:0:
402,321,52321,1,8,0:3:0:0:
320,281,52497,2,0,L|316:247,1,34,4|4,0:3|0:3,0:2:0:0:
243,335,52674,2,0,L|235:368,1,34,4|4,0:3|0:3,0:2:0:0:
198,252,52850,6,0,P|147:220|43:239,1,152.999995330811,6|0,3:2|0:2,0:2:0:0:
4,281,53556,1,8,0:0:0:0:
59,54,54085,1,0,3:2:0:0:
59,54,54262,2,0,L|167:63,1,101.999996887207,2|0,3:2|3:2,0:2:0:0:
295,85,54968,2,0,P|258:117|254:177,1,101.999996887207,10|0,0:2|0:2,0:2:0:0:
319,251,55497,5,0,0:0:0:0:
319,251,55674,2,0,L|489:244,1,152.999995330811,2|2,3:2|0:2,0:2:0:0:
288,367,56379,2,0,L|164:360,1,101.999996887207,10|0,0:2|0:2,0:2:0:0:
134,248,56909,1,2,3:2:0:0:
134,248,57085,2,0,P|179:240|234:277,1,101.999996887207,2|0,3:2|3:2,0:2:0:0:
280,139,57791,6,0,L|175:150,1,101.999996887207,8|4,0:2|2:3,0:2:0:0:
422,119,58497,5,8,3:3:0:0:
123,36,62556,6,0,P|175:40|147:159,1,204,2|0,0:2|0:2,0:2:0:0:
345,69,64144,6,0,L|447:63,1,85,4|0,2:1|0:2,0:2:0:0:
278,214,64497,2,0,L|176:208,1,85,10|0,0:2|0:2,0:2:0:0:
332,306,64850,2,0,P|372:255|346:144,1,170,2|8,3:2|0:2,0:2:0:0:
278,214,65379,1,2,0:2:0:0:
199,71,65556,6,0,L|377:59,1,170,2|10,3:2|0:2,0:2:0:0:
166,187,66085,2,0,L|258:200,1,85,2|0,0:2|3:2,0:2:0:0:
139,331,66438,2,0,L|223:319,1,85,2|8,0:2|0:2,0:2:0:0:
62,256,66791,1,2,0:2:0:0:
263,121,66968,6,0,P|315:150|302:266,1,170,2|10,3:2|0:2,0:2:0:0:
418,126,67497,2,0,P|381:155|365:205,1,85,2|0,0:2|3:2,0:2:0:0:
452,40,67850,2,0,P|489:69|505:119,1,85,2|8,0:2|0:2,0:2:0:0:
464,288,68203,5,2,0:2:0:0:
464,288,68291,1,2,0:2:0:0:
464,288,68379,2,0,L|448:193,1,85,0|2,3:2|0:2,0:2:0:0:
325,202,68732,1,8,0:0:0:0:
322,338,68909,2,0,B|385:341|385:341|419:368|419:368|495:371,1,170,2|0,0:2|0:2,0:2:0:0:
449,204,69438,1,2,3:2:0:0:
253,279,69615,5,10,0:2:0:0:
253,279,69703,1,8,0:2:0:0:
253,279,69791,2,0,P|228:323|228:375,1,85,4|0,3:2|0:2,0:2:0:0:
359,238,70144,2,0,L|345:141,1,85,10|0,0:2|0:2,0:2:0:0:
171,185,70497,2,0,L|185:88,1,85,2|0,3:2|0:2,0:2:0:0:
219,261,70850,2,0,P|173:277|121:264,1,85,10|0,0:2|0:2,0:2:0:0:
100,58,71203,6,0,P|141:22|256:44,1,170,2|10,3:2|0:2,0:2:0:0:
316,149,71732,2,0,L|308:251,1,85,2|0,0:2|0:2,0:2:0:0:
402,116,72085,1,10,0:2:0:0:
218,162,72262,1,10,0:2:0:0:
347,333,72438,5,2,0:2:0:0:
347,333,72526,1,2,0:2:0:0:
347,333,72615,2,0,B|304:315|265:331|265:331|224:350|161:326,1,170,4|10,3:2|0:2,0:2:0:0:
133,148,73144,2,0,P|210:175|218:273,1,170,2|0,0:2|0:2,0:2:0:0:
92,355,73674,2,0,P|103:307|108:253,1,85,8|0,0:2|0:2,0:2:0:0:
9,148,74026,6,0,B|89:133|89:133|142:151,1,127.5,2|0,3:2|0:2,0:2:0:0:
132,147,74379,2,0,B|125:49,1,85,10|2,0:2|0:2,0:2:0:0:
124,37,74644,1,8,0:2:0:0:
124,37,74732,2,0,L|182:42,1,42.5,10|0,0:2|0:2,0:2:0:0:
240,87,74909,2,0,L|282:83,1,42.5,8|0,0:2|0:2,0:2:0:0:
393,7,75085,1,8,0:2:0:0:
374,32,75173,1,8,0:2:0:0:
365,63,75261,1,8,0:2:0:0:
365,94,75349,1,8,0:2:0:0:
375,125,75438,6,0,P|389:196|371:254,1,127.5,6|0,3:2|0:2,0:2:0:0:
349,248,75791,2,0,P|367:196|362:138,1,101.999996887207,10|0,2:1|2:1,2:1:0:0:
233,196,76144,2,0,P|219:267|237:325,1,127.5,2|0,3:2|0:2,0:2:0:0:
259,319,76497,2,0,P|241:267|246:209,1,101.999996887207,10|0,2:1|2:1,2:1:0:0:
219,89,76850,6,0,P|166:114|149:236,1,170,2|10,3:2|0:2,0:2:0:0:
190,349,77379,2,0,L|105:346,1,85,2|0,0:2|3:2,0:2:0:0:
238,231,77732,1,2,0:2:0:0:
238,231,77909,2,0,L|332:228,1,85,8|2,0:2|0:2,0:2:0:0:
395,325,78262,6,0,P|357:269|378:184,1,127.5,4|0,3:2|0:2,0:2:0:0:
361,211,78615,2,0,P|381:163|376:119,1,85,8|0,0:2|0:2,0:2:0:0:
266,98,78968,2,0,P|315:134|395:122,1,127.5,2|0,3:2|0:2,0:2:0:0:
379,130,79321,2,0,P|426:111|466:112,1,85,8|0,0:2|0:2,0:2:0:0:
341,54,79674,5,2,3:2:0:0:
441,187,79850,1,2,3:2:0:0:
419,3,80026,1,8,0:2:0:0:
361,211,80203,2,0,B|266:240|282:175|166:213,1,170,6|2,3:2|0:2,0:2:0:0:
105,270,80732,2,0,L|93:372,1,85,10|2,0:2|0:2,0:2:0:0:
40,185,81085,6,0,P|99:164|196:207,1,170,4|10,3:2|0:2,0:2:0:0:
315,355,81615,2,0,B|282:310|282:310|291:181,1,170,6|2,3:2|0:2,0:2:0:0:
300,47,82144,1,10,0:2:0:0:
417,201,82321,5,2,0:2:0:0:
417,201,82409,1,2,0:2:0:0:
417,201,82497,2,0,P|463:212|510:203,1,85,6|2,3:2|3:2,0:2:0:0:
459,64,82850,1,10,0:2:0:0:
331,143,83026,2,0,P|323:211|394:296,1,170,2|8,0:2|3:2,0:2:0:0:
407,296,83468,1,8,3:2:0:0:
407,296,83556,1,8,3:2:0:0:
417,201,83732,1,2,3:2:0:0:
251,235,83909,6,0,L|254:323,1,85,6|0,3:2|3:2,0:2:0:0:
195,381,84262,1,8,0:2:0:0:
125,168,84438,2,0,B|144:225|144:225|126:336,1,170,2|0,3:2|3:2,0:2:0:0:
51,239,84968,2,0,L|36:327,1,85,10|0,0:2|3:2,0:2:0:0:
10,157,85321,5,14,0:2:0:0:
170,246,85497,2,0,P|209:170|160:88,1,170,0|0,3:2|3:2,0:2:0:0:
326,43,86026,2,0,L|314:135,1,85,8|2,0:2|0:2,0:2:0:0:
456,219,86379,1,2,3:2:0:0:
421,70,86556,1,2,3:2:0:0:
357,257,86732,6,0,B|295:255|295:255|261:277|261:277|183:271,1,170,6|0,3:2|3:2,0:2:0:0:
130,84,87262,2,0,P|203:104|228:199,1,170,8|0,0:2|3:2,0:2:0:0:
100,292,87791,1,8,0:2:0:0:
148,174,87968,1,8,0:2:0:0:
190,350,88144,6,0,B|245:373|245:373|366:362,1,170,0|0,3:2|3:2,0:2:0:0:
434,261,88674,2,0,L|258:276,1,170,8|0,0:2|3:2,0:2:0:0:
172,190,89203,1,10,0:2:0:0:
287,96,89379,5,2,0:2:0:0:
287,96,89468,1,2,0:2:0:0:
287,96,89556,2,0,P|314:135|316:187,2,85,0|0|0,3:2|0:2|3:2,0:2:0:0:
457,29,90085,2,0,P|427:66|422:201,1,170,10|0,0:2|3:2,0:2:0:0:
476,330,90615,2,0,L|366:319,1,85,10|8,0:2|0:2,0:2:0:0:
263,270,90968,5,2,3:2:0:0:
297,384,91144,2,0,L|306:333,1,42.5,8|8,0:2|0:2,0:2:0:0:
330,224,91321,2,0,P|263:192|197:222,1,127.5,2|0,3:2|0:2,0:2:0:0:
194,232,91674,2,0,L|189:296,3,42.5,10|8|0|0,0:2|0:2|3:2|3:2,0:2:0:0:
104,285,92026,1,10,0:2:0:0:
106,263,92114,1,8,0:2:0:0:
108,242,92202,1,8,0:2:0:0:
110,221,92290,1,8,0:2:0:0:
113,200,92378,5,4,0:2:0:0:
359,59,94497,2,0,L|405:44,1,34,10|8,0:2|0:2,0:2:0:0:
278,108,94674,2,0,L|232:93,1,34,10|8,0:2|0:2,0:2:0:0:
361,157,94850,2,0,P|380:203|371:245,1,68,2|2,3:2|0:2,0:2:0:0:
293,309,95203,6,0,L|197:302,1,68,6|10,3:2|0:2,0:2:0:0:
190,304,95468,1,8,0:2:0:0:
190,304,95556,1,10,0:2:0:0:
77,177,95732,2,0,B|106:203|106:203|226:213,1,136,2|10,3:2|0:2,0:2:0:0:
239,219,96174,1,8,0:2:0:0:
239,219,96262,1,10,0:2:0:0:
245,64,96438,6,0,P|204:97|191:133,1,68,2|0,3:2|3:2,0:2:0:0:
410,65,96791,1,10,0:2:0:0:
410,65,96879,1,8,0:2:0:0:
410,65,96968,2,0,P|360:45|321:48,1,68,10|2,0:2|0:2,0:2:0:0:
344,222,97321,5,2,3:2:0:0:
345,133,97497,1,2,3:2:0:0:
433,223,97674,1,10,0:3:0:0:
434,134,97850,1,10,0:3:0:0:
269,220,98026,6,0,P|284:269|379:290,1,136,6|8,3:2|0:2,0:2:0:0:
332,156,98556,1,2,3:2:0:0:
240,147,98732,2,0,P|198:186|191:210,1,68,0|0,0:2|3:2,0:2:0:0:
206,287,99085,1,10,0:2:0:0:
269,220,99262,1,0,3:2:0:0:
114,167,99438,6,0,L|109:312,1,136,2|10,3:2|0:2,0:2:0:0:
30,138,99968,2,0,P|62:103|164:96,1,136,2|0,3:2|3:2,0:2:0:0:
233,185,100497,1,10,0:2:0:0:
114,167,100674,1,2,0:2:0:0:
301,107,100850,2,0,B|322:153|322:153|309:244,1,136,2|8,3:2|0:2,0:2:0:0:
209,318,101379,2,0,L|235:169,1,136,2|0,3:2|3:2,0:2:0:0:
235,42,101909,2,0,P|199:24|159:27,1,68,10|0,0:2|0:2,0:2:0:0:
94,123,102262,5,2,3:2:0:0:
232,184,102438,1,0,3:2:0:0:
144,187,102615,1,12,0:2:0:0:
285,117,102791,1,8,0:2:0:0:
222,269,102968,5,8,0:2:0:0:
179,98,103144,1,8,0:2:0:0:
313,210,103320,1,8,0:2:0:0:
138,198,103497,1,8,0:2:0:0:
287,105,103673,5,4,0:2:0:0:
313,210,104203,1,0,0:2:0:0:
222,269,104732,1,0,0:2:0:0:
138,198,105262,1,2,3:2:0:0:
138,198,105438,2,0,P|96:184|64:181,1,68,0|0,0:2|0:2,0:2:0:0:
126,56,105791,2,0,P|92:61|60:72,1,68,2|0,0:2|3:2,0:2:0:0:
213,126,106144,6,0,B|268:130|268:130|286:145|286:145|356:148,1,136,10|2,0:2|3:2,0:2:0:0:
494,76,106674,2,0,P|455:91|425:156,1,102,2|0,3:2|0:2,0:2:0:0:
424,168,107026,2,0,L|428:243,1,68,10|0,0:2|0:2,0:2:0:0:
430,331,107379,2,0,P|384:354|324:333,1,102,2|0,3:2|0:2,0:2:0:0:
319,322,107732,1,10,0:2:0:0:
288,188,107909,6,0,L|126:210,1,152.999995330811,6|8,3:2|0:2,0:2:0:0:
64,276,108615,1,2,3:2:0:0:
21,183,108791,1,8,0:2:0:0:
21,183,108879,1,8,0:2:0:0:
21,183,108968,2,0,L|16:122,1,50.9999984436036,10|0,0:2|0:2,0:2:0:0:
35,27,109321,6,0,P|77:7|162:30,1,136,6|0,3:2|0:2,0:2:0:0:
192,126,109850,1,2,3:2:0:0:
192,126,110026,2,0,L|259:133,1,68,8|0,0:2|0:2,0:2:0:0:
306,36,110379,2,0,L|239:43,1,68,0|0,0:2|0:2,0:2:0:0:
349,119,110732,6,0,P|385:86|389:-5,1,136,2|0,3:2|0:2,0:2:0:0:
494,90,111262,1,2,3:2:0:0:
494,90,111438,2,0,P|472:124|471:167,1,68,10|0,0:2|0:2,0:2:0:0:
512,301,111791,2,0,P|513:267|502:235,1,68,2|0,0:2|0:2,0:2:0:0:
309,303,112144,6,0,P|348:338|444:323,1,136,2|0,3:2|0:2,0:2:0:0:
281,225,112674,2,0,P|248:242|227:272,1,68,0|8,3:2|0:2,0:2:0:0:
228,367,113026,2,0,L|145:372,1,68,2|2,0:2|0:2,0:2:0:0:
74,327,113379,1,2,0:2:0:0:
74,327,113556,6,0,P|58:286|62:239,1,68,0|8,0:2|0:2,0:2:0:0:
107,183,113909,2,0,P|123:142|119:95,1,68,2|10,3:2|0:2,0:2:0:0:
17,3,114262,1,8,0:2:0:0:
44,128,114438,1,8,0:2:0:0:
157,24,114615,2,0,P|199:50|222:126,1,127.5,0|0,3:2|0:2,0:2:0:0:
212,148,114968,6,0,B|287:127|287:127|378:147,1,152.999995330811,6|2,3:2|0:2,0:2:0:0:
434,172,115674,1,8,0:0:0:0:
424,308,116203,1,0,3:2:0:0:
424,308,116379,2,0,P|386:329|323:320,1,101.999996887207,2|0,0:2|3:2,0:2:0:0:
219,260,117085,2,0,L|224:372,1,101.999996887207,10|0,0:2|0:2,0:2:0:0:
139,208,117615,5,0,0:0:0:0:
139,208,117791,2,0,P|178:178|278:195,1,152.999995330811,2|2,3:2|0:2,0:2:0:0:
415,294,118497,2,0,P|364:289|324:259,1,101.999996887207,10|0,0:2|0:2,0:2:0:0:
299,71,119026,1,2,3:2:0:0:
299,71,119203,2,0,L|183:57,1,101.999996887207,2|0,0:2|3:2,0:2:0:0:
127,177,119909,6,0,P|179:183|222:149,1,101.999996887207,8|2,0:2|0:3,0:2:0:0:
1,176,120615,5,4,3:2:0:0:
439,83,124674,6,0,P|404:54|359:160,1,203.999993774414,2|0,0:2|0:2,0:2:0:0:
432,177,125909,1,8,0:3:0:0:
336,346,126262,6,0,L|236:339,1,85,4|0,2:1|0:2,0:2:0:0:
160,208,126615,2,0,L|260:201,1,85,10|0,0:2|0:2,0:2:0:0:
98,288,126968,2,0,P|64:236|104:130,1,170,2|10,3:2|0:2,0:2:0:0:
218,120,127497,1,2,0:2:0:0:
264,280,127674,6,0,B|192:277|192:277|170:290|170:290|80:287,1,170,2|10,3:2|0:2,0:2:0:0:
329,224,128203,2,0,P|352:265|353:309,1,85,2|0,0:2|3:2,0:2:0:0:
302,142,128556,2,0,P|261:166|238:203,1,85,2|8,0:2|0:2,0:2:0:0:
406,171,128909,1,2,0:2:0:0:
340,52,129085,6,0,B|299:35|262:54|262:54|222:75|160:48,1,170,6|10,3:2|0:2,0:2:0:0:
45,28,129615,2,0,L|55:118,1,85,2|0,0:2|3:2,0:2:0:0:
198,231,129968,2,0,L|207:146,1,85,2|8,0:2|0:2,0:2:0:0:
113,279,130321,5,2,0:2:0:0:
113,279,130409,1,2,0:2:0:0:
113,279,130497,2,0,P|144:316|178:328,1,85,2|2,3:2|0:2,0:2:0:0:
354,308,130850,1,8,0:0:0:0:
270,195,131026,2,0,B|271:365,1,170,2|8,0:2|0:2,0:2:0:0:
192,224,131556,1,10,0:2:0:0:
387,156,131732,5,10,0:2:0:0:
387,156,131821,1,8,0:2:0:0:
387,156,131909,2,0,L|392:261,1,85,4|0,3:2|0:2,0:2:0:0:
441,81,132262,2,0,P|398:59|351:61,1,85,10|0,0:2|0:2,0:2:0:0:
218,147,132615,2,0,P|260:144|296:124,1,85,2|0,3:2|0:2,0:2:0:0:
107,104,132968,2,0,L|113:203,1,85,10|0,0:2|0:2,0:2:0:0:
72,341,133321,6,0,B|131:319|131:319|248:321,1,170,2|10,3:2|0:2,0:2:0:0:
395,306,133850,2,0,P|416:343|422:393,1,85,2|0,0:2|3:2,0:2:0:0:
312,283,134203,1,2,0:2:0:0:
471,234,134379,1,10,0:2:0:0:
333,151,134556,5,10,0:2:0:0:
333,151,134644,1,8,0:2:0:0:
333,151,134732,2,0,B|269:150|269:150|239:176|239:176|165:175,1,170,0|10,3:2|0:2,0:2:0:0:
206,330,135262,2,0,P|277:321|291:209,1,170,2|0,0:2|0:2,0:2:0:0:
108,275,135791,2,0,P|118:324|121:371,1,85,8|0,0:2|0:2,0:2:0:0:
172,175,136144,6,0,P|83:175|24:164,1,127.5,6|0,3:2|0:2,0:2:0:0:
45,168,136497,2,0,P|58:114|63:78,1,85,10|10,0:2|0:2,0:2:0:0:
58,57,136762,1,8,0:2:0:0:
58,57,136850,1,10,0:2:0:0:
172,175,137026,1,8,0:2:0:0:
135,8,137203,1,8,2:3:0:0:
100,157,137379,1,8,2:3:0:0:
222,91,137556,6,0,L|363:99,1,127.5,6|0,3:2|0:2,0:2:0:0:
357,124,137909,2,0,L|243:118,1,101.999996887207,10|0,2:1|0:2,0:2:0:0:
161,241,138262,2,0,L|20:233,1,127.5,2|0,3:2|0:2,0:2:0:0:
21,261,138615,2,0,L|135:267,1,101.999996887207,10|0,2:1|0:2,0:2:0:0:
358,290,138968,6,0,B|341:185|341:185|358:117,1,170,2|10,3:2|0:2,0:2:0:0:
417,359,139497,1,2,0:2:0:0:
417,359,139585,1,2,0:2:0:0:
417,359,139674,2,0,P|377:376|313:371,1,85,2|2,3:2|0:2,0:2:0:0:
184,295,140026,2,0,P|226:296|265:313,1,85,8|2,0:2|0:2,0:2:0:0:
102,366,140379,6,0,L|109:230,1,127.5,0|0,3:2|0:2,0:2:0:0:
100,220,140732,2,0,L|99:123,1,85,8|0,0:2|0:2,0:2:0:0:
214,8,141085,2,0,L|207:144,1,127.5,2|0,3:2|0:2,0:2:0:0:
216,154,141438,2,0,L|217:251,1,85,8|0,0:2|0:2,0:2:0:0:
302,104,141791,5,2,3:2:0:0:
123,152,141968,1,2,3:2:0:0:
313,196,142144,1,8,0:2:0:0:
97,71,142321,2,2,P|53:100|54:210,1,170,6|8,0:3|0:2,0:2:0:0:
71,227,142762,1,8,0:2:0:0:
71,227,142850,2,0,L|79:293,1,42.5,10|8,0:2|0:2,0:2:0:0:
188,168,143026,2,0,L|193:125,1,42.5,10|8,0:2|0:2,0:2:0:0:
148,309,143203,6,0,B|199:294|235:314|235:314|281:338|341:298,1,170,4|10,3:2|0:2,0:2:0:0:
347,118,143732,2,0,P|282:151|283:254,1,170,2|2,3:2|0:2,0:2:0:0:
387,296,144262,1,10,0:2:0:0:
441,156,144438,5,2,3:2:0:0:
441,156,144526,1,2,0:2:0:0:
441,156,144615,2,0,P|430:105|427:58,1,85,4|2,3:2|0:2,0:2:0:0:
353,202,144968,1,10,0:2:0:0:
267,41,145144,2,0,B|201:44|201:44|173:65|173:65|95:66,1,170,4|8,3:2|0:2,0:2:0:0:
73,62,145585,1,8,0:2:0:0:
73,62,145674,1,8,0:2:0:0:
34,211,145850,1,2,3:2:0:0:
211,268,146026,6,0,P|252:208|251:172,1,85,6|0,3:2|0:2,0:2:0:0:
237,123,146379,1,8,0:2:0:0:
119,297,146556,2,0,P|175:353|271:343,1,170,6|0,3:2|3:2,0:2:0:0:
318,243,147085,2,0,L|408:235,1,85,10|0,0:2|3:2,0:2:0:0:
466,313,147438,5,6,3:2:0:0:
494,169,147615,2,0,B|456:143|456:143|325:151,1,170,0|0,3:2|3:2,0:2:0:0:
168,203,148144,1,0,3:2:0:0:
270,64,148320,1,10,0:2:0:0:
270,236,148497,1,2,3:2:0:0:
168,96,148673,1,10,0:2:0:0:
332,150,148850,6,0,P|367:207|364:274,1,127.5,6|0,3:2|0:2,0:2:0:0:
358,305,149203,2,0,L|263:321,1,85,8|0,0:2|0:2,0:2:0:0:
160,228,149556,2,0,P|216:224|253:243,1,85,2|0,3:2|0:2,0:2:0:0:
59,217,149909,2,0,P|83:166|118:143,1,85,10|0,0:2|0:2,0:2:0:0:
226,147,150262,5,2,3:2:0:0:
173,311,150438,2,0,L|158:216,1,85,2|8,0:2|0:2,0:2:0:0:
286,359,150791,2,0,L|301:264,1,85,2|0,0:2|3:2,0:2:0:0:
337,136,151144,1,2,0:2:0:0:
398,279,151321,1,10,0:2:0:0:
412,83,151497,1,2,0:2:0:0:
301,275,151674,6,0,B|257:255|221:276|221:276|179:297|121:266,1,170,4|10,3:2|0:2,0:2:0:0:
91,157,152203,1,2,0:2:0:0:
91,157,152291,1,2,0:2:0:0:
91,157,152379,2,0,L|-8:146,1,85,2|0,3:2|0:2,0:2:0:0:
134,38,152732,2,0,L|233:27,1,85,10|0,0:2|0:2,0:2:0:0:
316,164,153085,5,2,3:2:0:0:
160,118,153262,1,2,0:2:0:0:
362,60,153438,1,10,0:2:0:0:
324,249,153615,2,0,P|264:233|234:138,1,170,2|8,0:2|0:2,0:2:0:0:
251,118,154056,1,10,0:2:0:0:
251,118,154144,1,10,0:2:0:0:
374,73,154321,1,2,3:2:0:0:
427,216,154497,6,0,P|414:290|415:360,1,127.5,2|0,3:2|0:2,0:2:0:0:
437,360,154850,2,0,P|438:298|443:266,1,85,12|0,0:2|0:2,0:2:0:0:
318,215,155203,2,0,P|268:204|194:238,1,127.5,2|0,3:2|0:2,0:2:0:0:
203,258,155556,2,0,P|240:235|285:230,1,85,12|0,0:2|0:2,0:2:0:0:
112,195,155909,6,0,B|109:266|109:266|126:295|126:295|124:372,1,170,2|8,3:2|0:2,0:2:0:0:
29,241,156438,2,0,L|33:157,1,85,0|2,0:2|3:2,0:2:0:0:
198,194,156791,1,2,0:2:0:0:
198,194,156968,2,0,L|194:109,1,85,8|8,0:2|0:2,0:2:0:0:
285,292,157321,5,0,3:2:0:0:
125,238,157497,1,2,0:2:0:0:
345,216,157674,1,10,0:2:0:0:
199,302,157850,1,2,0:2:0:0:
192,135,158026,6,0,P|243:108|318:144,1,127.5,2|0,3:2|0:2,0:2:0:0:
333,154,158379,2,0,P|384:165|428:145,1,85,10|0,0:2|0:2,0:2:0:0:
254,184,158732,5,2,3:2:0:0:
371,88,158909,2,0,L|375:-12,1,85,14|0,0:2|0:2,0:2:0:0:
499,124,159262,2,0,B|500:190|500:190|476:218|476:218|481:300,1,170,6|0,3:2|0:2,0:2:0:0:
402,364,159791,1,8,0:2:0:0:
373,377,159879,1,8,0:2:0:0:
341,381,159967,1,8,0:2:0:0:
310,374,160055,1,8,0:2:0:0:
283,357,160144,6,0,L|280:219,1,127.5,4|0,3:2|0:2,0:2:0:0:
251,218,160497,2,0,L|253:311,1,85,10|0,0:2|0:2,0:2:0:0:
311,148,160850,2,0,P|246:127|166:195,1,170,2|10,3:2|0:2,0:2:0:0:
148,317,161556,1,2,3:2:0:0:
152,320,161732,2,0,L|65:309,1,85,2|8,0:2|0:2,0:2:0:0:
169,183,162085,2,0,B|89:190|89:190|42:162,1,127.5,2|0,0:2|0:2,0:2:0:0:
26,148,162438,1,14,0:2:0:0:
84,277,162615,1,14,0:2:0:0:
167,93,162791,5,2,0:2:0:0:
167,93,162879,1,2,0:2:0:0:
167,93,162968,2,0,P|218:100|253:126,1,85,0|0,3:2|0:2,0:2:0:0:
278,236,163321,2,0,L|265:331,1,85,14|0,0:2|0:2,0:2:0:0:
439,232,163674,2,0,L|363:173,1,85,2|0,3:2|0:2,0:2:0:0:
361,373,164026,2,0,L|449:336,1,85,10|0,0:2|0:2,0:2:0:0:
278,236,164379,5,2,3:2:0:0:
439,232,164556,1,2,0:2:0:0:
266,320,164732,1,10,0:2:0:0:
371,179,164909,2,0,P|442:153|520:208,1,170,2|8,0:2|0:2,0:2:0:0:
512,240,165350,1,10,0:2:0:0:
512,240,165438,1,10,0:2:0:0:
388,306,165615,1,2,0:2:0:0:
291,220,165791,6,0,B|274:174|296:139|296:139|321:104|294:28,1,170,4|10,3:2|0:2,0:2:0:0:
174,15,166321,1,2,0:2:0:0:
174,15,166409,1,2,0:2:0:0:
174,15,166497,2,0,L|78:10,1,85,2|0,3:2|0:2,0:2:0:0:
31,161,166850,2,0,L|127:156,1,85,10|0,0:2|0:2,0:2:0:0:
260,161,167203,5,2,3:2:0:0:
260,161,167379,2,0,P|282:208|273:260,1,85,2|8,0:2|0:2,0:2:0:0:
150,336,167732,2,0,P|197:309|312:348,1,170,2|2,0:2|0:2,0:2:0:0:
398,382,168262,1,10,0:2:0:0:
464,247,168438,2,0,P|414:255|373:258,1,85,2|0,0:2|3:2,0:2:0:0:
284,144,168791,5,2,0:2:0:0:
284,144,168879,1,2,0:2:0:0:
284,144,168968,1,8,0:2:0:0:
398,181,169144,1,2,0:2:0:0:
197,204,169321,2,0,B|188:137|188:137|200:101|200:101|192:24,1,170,2|10,3:2|0:2,0:2:0:0:
271,263,169850,1,2,0:2:0:0:
40,207,170026,6,0,P|41:128|135:91,1,170,2|0,3:2|3:2,0:2:0:0:
149,302,170556,1,8,0:2:0:0:
149,302,170644,1,8,0:2:0:0:
149,302,170732,2,0,L|87:317,2,56.6666666666667,8|8|8,0:2|0:2|0:2,0:2:0:0:
223,239,171085,5,8,0:3:0:0:
245,275,171203,5,8,0:3:0:0:
247,315,171321,37,8,0:3:0:0:
235,349,171438,6,0,B|279:328|321:351|321:351|363:375|422:342,1,170,2|2,0:2|0:2,0:2:0:0:
487,274,171968,1,2,0:2:0:0:
380,201,172144,2,0,L|372:290,1,68,10|0,0:2|0:2,0:2:0:0:
473,123,172497,2,0,L|481:212,2,68,2|2|2,0:2|3:2|0:2,0:2:0:0:
428,29,173026,5,2,0:2:0:0:
428,29,173203,2,0,P|383:16|327:50,1,102,2|0,3:2|0:2,0:2:0:0:
321,66,173556,2,0,P|280:84|198:46,1,136,10|2,0:2|0:2,0:2:0:0:
112,147,174085,1,2,0:2:0:0:
112,147,174262,6,0,P|159:141|195:142,1,68,0|0,3:2|0:2,0:2:0:0:
84,258,174615,2,0,P|37:252|1:253,1,68,2|2,0:2|0:2,0:2:0:0:
202,231,174968,2,0,P|187:285|180:373,1,136,10|2,0:2|0:2,0:2:0:0:
281,292,175497,1,2,3:2:0:0:
285,296,175850,5,2,3:2:0:0:
285,296,176026,2,0,L|365:309,1,68,2|2,0:2|0:2,0:2:0:0:
426,213,176379,2,0,L|346:226,1,68,8|2,0:2|0:2,0:2:0:0:
277,127,176732,1,0,3:2:0:0:
366,142,176909,1,0,3:2:0:0:
227,196,177085,6,0,P|200:158|216:67,1,136,4|0,3:2|0:2,0:2:0:0:
293,40,177615,1,0,0:2:0:0:
366,142,177791,2,0,L|338:223,1,68,10|0,0:2|0:2,0:2:0:0:
504,188,178144,2,0,L|447:123,1,68,2|0,0:2|3:2,0:2:0:0:
395,284,178497,2,0,L|479:267,1,68,2|8,0:2|0:2,0:2:0:0:
306,278,178850,6,0,P|311:320|334:353,1,68,2|0,3:2|0:2,0:2:0:0:
242,180,179203,1,10,0:2:0:0:
387,215,179379,1,0,3:2:0:0:
200,255,179556,1,10,0:2:0:0:
322,167,179732,1,0,3:2:0:0:
171,135,179909,6,0,P|159:172|214:262,1,136,4|2,3:2|0:2,0:2:0:0:
306,278,180438,1,2,3:2:0:0:
130,318,180615,1,8,0:2:0:0:
242,180,180791,1,8,0:2:0:0:
238,362,180967,1,8,0:2:0:0:
125,212,181144,6,0,P|79:223|24:310,1,136,4|0,3:2|0:2,0:2:0:0:
123,371,181674,2,0,L|114:292,1,68,0|0,3:2|0:2,0:2:0:0:
72,133,182026,5,8,0:2:0:0:
223,192,182203,1,0,0:2:0:0:
27,217,182379,1,4,3:2:0:0:
27,217,182732,5,0,3:2:0:0:
128,55,182909,1,2,3:2:0:0:
156,237,183085,1,10,0:2:0:0:
72,133,183262,1,2,3:2:0:0:
267,99,183438,5,10,0:2:0:0:
156,237,183615,1,0,3:2:0:0:
128,55,183791,1,10,0:2:0:0:
210,168,183968,1,10,0:2:0:0:
72,133,184144,5,4,3:2:0:0:
215,286,194026,5,2,0:2:0:0:
320,107,194909,6,0,P|281:62|240:183,1,254.999992218018,8|0,0:2|0:2,0:2:0:0:
251,193,195438,6,0,P|191:185|122:187,1,93.5000028533936,4|0,2:1|0:2,0:2:0:0:
292,345,195791,2,0,P|352:337|421:339,1,93.5000028533936,10|0,0:2|0:2,0:2:0:0:
466,163,196144,2,0,P|393:149|333:247,1,187.000005706787,2|10,3:2|0:2,0:2:0:0:
384,336,196674,1,2,0:2:0:0:
216,382,196850,6,0,B|219:315|219:315|197:276|197:276|200:188,1,187.000005706787,2|10,3:2|0:2,0:2:0:0:
192,68,197379,2,0,P|143:56|95:52,1,93.5000028533936,2|0,0:2|3:2,0:2:0:0:
298,128,197732,2,0,P|347:116|395:112,1,93.5000028533936,2|8,0:2|0:2,0:2:0:0:
496,213,198085,1,2,0:2:0:0:
414,353,198262,6,0,P|353:310|365:199,1,187.000005706787,6|8,3:2|0:2,0:2:0:0:
442,73,198791,2,0,L|345:62,1,93.5000028533936,2|0,0:2|3:2,0:2:0:0:
265,216,199144,2,0,L|362:205,1,93.5000028533936,2|8,0:2|0:2,0:2:0:0:
174,160,199497,5,2,0:2:0:0:
174,160,199585,1,2,0:2:0:0:
174,160,199674,2,0,P|158:213|168:267,1,93.5000028533936,2|2,3:2|0:2,0:2:0:0:
293,137,200026,1,8,0:0:0:0:
213,35,200203,2,0,B|169:17|121:39|121:39|76:62|8:24,1,187.000005706787,2|8,0:2|0:2,0:2:0:0:
73,208,200732,1,10,0:2:0:0:
250,131,200909,5,10,0:2:0:0:
250,131,200997,1,10,0:2:0:0:
250,131,201085,2,0,P|302:119|356:127,1,93.5000028533936,0|0,3:2|0:2,0:2:0:0:
315,304,201438,2,0,L|305:202,1,93.5000028533936,10|0,0:2|0:2,0:2:0:0:
448,126,201791,2,0,L|438:219,1,93.5000028533936,2|0,3:2|0:2,0:2:0:0:
369,365,202144,2,0,P|311:384|264:368,1,93.5000028533936,10|0,0:2|0:2,0:2:0:0:
174,205,202497,6,0,B|252:199|252:199|287:212|287:212|370:202,1,187.000005706787,2|10,3:2|0:2,0:2:0:0:
152,302,203026,2,0,P|100:262|106:143,1,187.000005706787,2|8,0:2|0:2,0:2:0:0:
201,73,203556,1,10,0:2:0:0:
266,195,203732,5,2,0:2:0:0:
266,195,203821,1,2,0:2:0:0:
266,195,203909,2,0,L|163:206,1,93.5000028533936,2|0,3:2|0:2,0:2:0:0:
328,84,204262,1,10,0:2:0:0:
370,262,204438,2,0,B|322:293|322:293|185:309,1,187.000005706787,2|0,0:2|0:2,0:2:0:0:
266,195,204968,1,8,0:2:0:0:
366,357,205144,1,0,0:2:0:0:
347,153,205321,6,0,P|303:118|184:150,1,187.000005706787,6|2,3:2|3:2,0:2:0:0:
156,274,205850,1,10,0:2:0:0:
270,288,206026,2,0,L|265:186,1,93.5000028533936,2|0,0:2|3:2,0:2:0:0:
243,73,206379,1,8,0:2:0:0:
209,62,206467,1,8,0:2:0:0:
174,64,206555,1,8,0:2:0:0:
142,77,206643,1,8,0:2:0:0:
116,101,206732,6,0,P|96:175|125:242,1,140.25000428009,2|0,3:2|0:2,0:2:0:0:
148,231,207085,2,0,P|120:176|129:127,1,110.499994941712,10|0,2:1|0:2,0:2:0:0:
283,181,207438,2,0,P|303:254|274:321,1,140.25000428009,2|0,3:2|0:2,0:2:0:0:
251,310,207791,2,0,P|279:255|270:206,1,110.499994941712,10|0,2:1|0:2,0:2:0:0:
220,85,208144,6,0,B|270:68|316:95|316:95|360:118|435:84,1,187.000005706787,2|8,3:2|0:2,0:2:0:0:
497,28,208674,1,2,0:2:0:0:
497,28,208762,1,2,0:2:0:0:
497,28,208850,2,0,L|493:140,1,93.5000028533936,0|2,3:2|0:2,0:2:0:0:
470,272,209203,1,8,0:2:0:0:
442,293,209291,1,8,0:2:0:0:
408,301,209379,1,10,0:2:0:0:
374,296,209467,1,8,0:2:0:0:
345,277,209556,6,0,P|295:249|209:266,1,140.25000428009,2|0,3:2|0:2,0:2:0:0:
196,275,209909,2,0,P|141:298|99:288,1,93.5000028533936,8|0,0:2|0:2,0:2:0:0:
276,327,210262,1,2,3:2:0:0:
189,147,210438,1,0,0:2:0:0:
168,383,210615,1,8,0:2:0:0:
284,216,210791,5,2,0:2:0:0:
284,216,210879,1,2,0:2:0:0:
284,216,210968,2,0,P|331:186|384:181,1,93.5000028533936,0|0,3:2|0:2,0:2:0:0:
464,272,211321,1,10,0:2:0:0:
206,289,211497,2,0,P|181:205|233:122,1,187.000005706787,2|2,0:2|0:2,0:2:0:0:
365,117,212026,1,10,0:2:0:0:
362,93,212114,1,8,0:2:0:0:
359,70,212202,1,10,0:2:0:0:
357,47,212290,1,8,0:2:0:0:
353,24,212379,6,0,B|278:21|278:21|249:36|249:36|154:34,1,187.000005706787,0|10,3:2|0:2,0:2:0:0:
181,184,212909,2,0,P|257:198|307:100,1,187.000005706787,2|0,3:2|0:2,0:2:0:0:
70,123,213438,2,0,P|81:176|81:219,1,93.5000028533936,10|2,0:2|0:2,0:2:0:0:
52,344,213791,5,0,3:2:0:0:
211,275,213968,1,2,0:2:0:0:
0,265,214144,1,10,0:2:0:0:
191,360,214321,2,0,B|246:334|290:359|290:359|334:380|405:344,1,187.000005706787,6|8,0:2|0:3,0:2:0:0:
397,342,214762,1,8,0:3:0:0:
397,342,214850,1,8,0:3:0:0:
442,214,215026,1,2,3:2:0:0:
314,101,215203,6,0,L|324:301,1,187.000005706787,6|8,3:2|0:2,0:2:0:0:
192,37,215732,2,0,L|182:237,1,187.000005706787,2|0,3:2|3:2,0:2:0:0:
381,48,216262,2,0,P|336:22|284:23,1,93.5000028533936,10|0,0:2|0:2,0:2:0:0:
284,203,216615,5,6,3:2:0:0:
284,203,216791,2,0,B|342:178|342:178|479:180,1,187.000005706787,0|0,0:2|3:2,0:2:0:0:
384,271,217321,1,0,3:2:0:0:
321,94,217497,1,10,0:2:0:0:
465,180,217674,1,2,3:2:0:0:
284,203,217850,1,10,0:2:0:0:
399,39,218026,6,0,P|356:11|230:47,1,170,6|8,3:2|0:2,0:2:0:0:
223,142,218556,1,0,0:2:0:0:
223,142,218732,2,0,L|232:241,1,85,2|0,3:2|0:2,0:2:0:0:
127,294,219085,2,0,L|134:209,1,85,10|0,0:2|0:2,0:2:0:0:
230,344,219438,6,0,B|294:343|294:343|329:361|329:361|407:358,1,170,2|8,3:2|0:2,0:2:0:0:
446,175,219968,2,0,P|380:185|360:278,1,170,2|0,0:2|0:2,0:2:0:0:
395,358,220497,1,10,0:2:0:0:
325,209,220674,5,2,0:2:0:0:
325,209,220762,1,2,0:2:0:0:
325,209,220850,2,0,P|271:195|216:201,1,85,4|0,3:2|0:2,0:2:0:0:
156,253,221203,1,10,0:2:0:0:
49,162,221379,2,0,L|62:333,1,170,2|0,0:2|0:2,0:2:0:0:
158,231,221909,1,10,0:2:0:0:
210,352,222085,1,2,0:2:0:0:
242,165,222262,5,2,3:2:0:0:
138,317,222438,1,2,0:2:0:0:
123,94,222615,1,10,0:2:0:0:
249,260,222791,2,0,P|307:232|322:130,1,170,2|0,0:2|0:2,0:2:0:0:
224,55,223321,1,10,0:2:0:0:
242,165,223497,1,2,0:2:0:0:
353,46,223674,6,0,L|452:41,1,85,4|0,3:2|0:2,0:2:0:0:
484,182,224026,2,0,L|385:177,1,85,10|0,0:2|0:2,0:2:0:0:
242,165,224379,2,0,L|265:349,1,170,2|8,3:2|0:2,0:2:0:0:
155,261,224909,1,2,0:2:0:0:
89,343,225085,6,0,P|132:367|183:370,1,85,0|0,3:2|0:2,0:2:0:0:
155,261,225438,1,10,0:2:0:0:
25,219,225615,2,0,B|0:270|0:270|8:393,1,170,2|0,0:2|0:2,0:2:0:0:
155,261,226144,1,10,0:2:0:0:
186,384,226321,1,2,0:2:0:0:
215,187,226497,6,0,P|164:170|129:173,1,85,2|0,3:2|0:2,0:2:0:0:
259,276,226850,2,0,P|299:240|314:208,1,85,10|0,0:2|0:2,0:2:0:0:
304,68,227203,2,0,L|211:60,1,85,2|0,3:2|0:2,0:2:0:0:
312,212,227556,2,0,L|405:204,1,85,10|0,0:2|0:2,0:2:0:0:
497,50,227909,6,0,P|397:60|370:124,1,170,2|8,3:2|0:2,0:2:0:0:
479,258,228438,1,2,0:2:0:0:
458,132,228615,1,0,3:2:0:0:
391,324,228791,1,6,0:2:0:0:
370,114,228968,1,8,0:2:0:0:
283,277,229144,5,2,0:2:0:0:
283,277,229232,1,2,0:2:0:0:
283,277,229321,2,0,P|221:282|147:227,1,127.5,2|0,3:2|0:2,0:2:0:0:
193,143,229674,2,0,P|159:168|92:172,1,101.999996887207,12|0,0:2|0:2,0:2:0:0:
180,46,230026,2,0,P|240:51|293:132,1,127.5,0|0,3:2|0:2,0:2:0:0:
242,201,230379,2,0,P|295:182|360:198,1,101.999996887207,12|0,0:2|0:2,0:2:0:0:
423,328,230732,5,0,3:2:0:0:
303,262,230909,1,0,3:2:0:0:
494,266,231085,1,10,0:2:0:0:
299,348,231262,2,0,P|246:326|235:211,1,170,2|0,3:2|0:2,0:2:0:0:
103,136,231791,2,0,P|112:172|117:224,1,85,10|0,0:2|0:2,0:2:0:0:
187,71,232144,5,0,3:2:0:0:
13,131,232321,1,0,0:2:0:0:
209,61,232497,2,0,P|274:55|322:59,1,85,10|0,0:2|0:2,0:2:0:0:
394,180,232850,2,0,L|403:276,1,85,2|0,3:2|0:2,0:2:0:0:
207,290,233203,2,0,L|214:205,1,85,10|0,0:2|0:2,0:2:0:0:
298,360,233556,5,2,3:2:0:0:
298,360,233644,1,2,0:2:0:0:
298,360,233732,1,2,0:2:0:0:
121,245,233909,1,8,0:2:0:0:
311,109,234085,2,0,L|296:289,1,170,6|0,0:2|0:2,0:2:0:0:
428,192,234615,1,10,0:2:0:0:
472,350,234791,5,8,0:2:0:0:
472,350,234879,1,8,0:2:0:0:
472,350,234968,2,0,P|428:368|368:363,1,85,6|0,3:2|0:2,0:2:0:0:
296,278,235321,1,10,0:2:0:0:
394,144,235497,2,0,P|432:179|414:290,1,170,2|0,3:2|0:2,0:2:0:0:
269,180,236026,1,8,0:2:0:0:
270,148,236114,1,8,0:2:0:0:
271,116,236202,1,8,0:2:0:0:
273,84,236290,1,8,0:2:0:0:
273,56,236379,6,0,P|214:40|168:53,1,85,6|0,3:2|0:2,0:2:0:0:
86,135,236732,1,10,0:2:0:0:
173,261,236909,2,0,B|246:261|246:261|272:279|272:279|356:280,1,170,2|8,0:2|0:3,0:2:0:0:
357,278,237350,1,8,0:3:0:0:
357,278,237438,2,0,L|351:215,1,42.5,8|8,0:3|0:3,0:2:0:0:
337,114,237615,5,4,0:3:0:0:
337,114,237703,1,4,0:3:0:0:
337,114,237791,2,0,P|386:97|476:167,1,170,6|8,3:2|0:2,0:2:0:0:
352,235,238321,2,0,P|273:218|176:216,1,170,2|0,3:2|0:2,0:2:0:0:
69,284,238850,1,8,0:2:0:0:
227,384,239026,5,0,3:2:0:0:
227,384,239115,1,0,3:2:0:0:
227,384,239203,2,0,P|243:342|250:289,1,85,6|0,3:2|0:2,0:2:0:0:
249,302,239732,5,0,3:2:0:0:
196,112,239909,1,0,3:2:0:0:
342,230,240085,1,0,3:2:0:0:
149,223,240262,1,0,3:2:0:0:
315,110,240438,1,0,3:2:0:0:
409,286,240615,6,0,P|371:311|285:296,1,136,2|0,3:2|0:2,0:2:0:0:
362,178,241144,2,0,P|417:191|507:197,1,136,8|0,0:2|0:2,0:2:0:0:
332,69,241674,2,0,P|365:67|399:60,1,68,8|8,0:2|0:2,0:2:0:0:
235,147,242026,5,0,3:2:0:0:
235,147,242203,2,0,P|201:140|167:138,1,68,0|0,3:2|0:2,0:2:0:0:
35,230,242556,2,0,L|55:69,1,136,8|0,0:2|0:2,0:2:0:0:
160,281,243085,1,10,0:2:0:0:
154,132,243262,5,2,0:2:0:0:
154,132,243350,1,2,0:2:0:0:
154,132,243438,2,0,P|203:95|288:100,1,136,2|0,3:2|3:2,0:2:0:0:
295,292,243968,2,0,L|152:280,1,136,10|0,0:2|3:2,0:2:0:0:
331,211,244497,1,10,0:2:0:0:
264,380,244674,5,2,0:2:0:0:
264,380,244762,1,2,0:2:0:0:
264,380,244850,2,0,L|169:373,1,68,8|0,0:2|0:2,0:2:0:0:
91,285,245203,2,0,L|186:278,1,68,8|0,0:2|0:2,0:2:0:0:
260,199,245556,2,0,P|280:158|231:67,1,136,2|2,3:2|3:2,0:2:0:0:
95,57,246262,5,4,2:1:0:0:
256,192,246350,12,0,253321,0:2:0:0:
