osu file format v14

[General]
AudioFilename: audio.mp3
AudioLeadIn: 0
PreviewTime: 61272
Countdown: 0
SampleSet: Soft
StackLeniency: 0.7
Mode: 0
LetterboxInBreaks: 0
WidescreenStoryboard: 0

[Editor]
DistanceSpacing: 0.8
BeatDivisor: 4
GridSize: 4
TimelineZoom: 1.5

[Metadata]
Title:Update
TitleUnicode:アップデート
Artist:miwa
ArtistUnicode:miwa
Creator:Ayaice
Version:Normal
Source:僕のヒーローアカデミア
Tags:ed ending yuuya_ke rickyrox3 my hero academia
BeatmapID:1674048
BeatmapSetID:789172

[Difficulty]
HPDrainRate:2
CircleSize:3
OverallDifficulty:3
ApproachRate:4
SliderMultiplier:0.999999999999999
SliderTickRate:1

[Events]
//Background and Video events
0,0,"bg.jpg",0,0
Video,0,"movie.mp4"
//Break Periods
2,57116,58420
//Storyboard Layer 0 (Background)
//Storyboard Layer 1 (Fail)
//Storyboard Layer 2 (Pass)
//Storyboard Layer 3 (Foreground)
//Storyboard Sound Samples

[TimingPoints]
385,357.142857142857,4,2,2,30,1,0
385,-100,4,2,2,30,0,0
7505,352.941176470588,4,2,2,30,1,0
7505,-100,4,2,2,30,0,0
11740,-100,4,2,2,35,0,0
21622,-100,4,2,2,35,0,0
22681,-100,4,2,2,35,0,0
25769,-100,4,2,2,5,0,0
25857,-100,4,2,2,35,0,0
59740,-100,4,2,2,35,0,0
62563,-100,4,2,2,70,0,1
85152,-100,4,2,2,70,0,0
85240,-100,4,2,2,50,0,0
86563,-100,4,2,2,30,0,0
87975,-100,4,2,2,10,0,0
88681,-100,4,2,2,5,0,0

[Colours]
Combo1 : 10,165,45
Combo2 : 89,77,244
SliderTrackOverride : 3,107,107
SliderBorder : 232,255,247

[HitObjects]
76,128,385,6,0,L|180:124,1,99.9999999999999,8|2,0:0|0:0,0:0:0:0:
240,176,1099,2,0,L|356:180,1,99.9999999999999,2|2,0:0|0:0,0:0:0:0:
372,200,1634,1,2,0:0:0:0:
400,228,1813,2,0,B|416:296|416:296|408:388,2,150,8|2|2,0:0|0:0|0:0,0:0:0:0:
348,168,3242,6,0,P|336:120|356:16,2,150,8|2|2,0:0|0:0|0:0,0:0:0:0:
320,244,4670,2,0,L|152:252,2,150,8|2|2,0:0|0:0|0:0,0:0:0:0:
400,240,6099,1,8,0:0:0:0:
448,88,6813,2,0,L|340:96,1,99.9999999999999,2|2,0:0|0:0,0:0:0:0:
284,140,7505,6,0,L|116:136,2,150,8|2|2,0:0|0:0|0:0,0:0:0:0:
340,196,8916,2,0,P|356:240|340:304,1,99.9999999999999,8|2,0:0|0:0,0:0:0:0:
324,324,9446,2,0,L|216:320,1,99.9999999999999,2|2,0:0|0:0,0:0:0:0:
184,312,9975,1,2,0:0:0:0:
116,272,10328,2,0,L|112:120,2,150,8|2|2,0:0|0:0|0:0,0:0:0:0:
184,312,11740,5,8,0:0:0:0:
244,260,12093,2,0,L|360:264,1,99.9999999999999,2|2,0:0|0:0,0:0:0:0:
416,296,12799,1,2,0:0:0:0:
480,248,13152,6,0,B|484:184|484:184|480:128,2,99.9999999999999,8|2|2,0:0|0:0|0:0,0:0:0:0:
476,328,14210,1,2,0:0:0:0:
396,336,14563,2,0,L|176:332,1,200,8|2,0:0|0:0,0:0:0:0:
128,288,15622,1,2,0:0:0:0:
68,236,15975,6,0,P|48:288|72:344,1,99.9999999999999,8|2,0:0|0:0,0:0:0:0:
84,360,16504,2,0,L|205:355,1,99.9999999999999,2|2,0:0|0:0,0:0:0:0:
224,352,17034,1,2,0:0:0:0:
244,276,17387,6,0,L|240:116,2,150,8|2|2,0:0|0:0|0:0,0:0:0:0:
292,340,18799,2,0,P|340:360|436:336,2,150,8|2|2,0:0|0:0|0:0,0:0:0:0:
244,276,20210,6,0,P|192:268|136:272,1,99.9999999999999,8|2,0:0|0:0,0:0:0:0:
124,304,20740,2,0,L|112:140,1,150,2|2,0:0|0:0,0:0:0:0:
76,84,21622,6,0,P|132:96|232:68,1,150,8|2,0:0|0:0,0:0:0:0:
248,48,22328,2,0,L|244:160,1,99.9999999999999,2|2,0:0|0:0,0:0:0:0:
284,216,23034,6,0,B|384:220|384:220|432:192,2,150,8|2|2,0:0|0:0|0:0,0:0:0:0:
244,147,24446,2,0,B|144:143|144:143|96:171,2,150,8|2|2,0:0|0:0|0:0,0:0:0:0:
284,216,25857,2,0,L|280:376,2,150,8|2|2,0:0|0:0|0:0,0:0:0:0:
244,144,27269,6,0,P|228:96|248:44,1,99.9999999999999,8|2,0:0|0:0,0:0:0:0:
308,96,27975,2,0,L|424:92,1,99.9999999999999,2|2,0:0|0:0,0:0:0:0:
436,124,28504,1,2,0:0:0:0:
464,156,28681,6,0,L|456:320,2,150,8|2|2,0:0|0:0|0:0,0:0:0:0:
384,68,30269,2,0,P|328:56|268:68,1,99.9999999999999,8|2,0:0|0:0,0:0:0:0:
260,92,30799,2,0,L|264:200,1,99.9999999999999,2|2,0:0|0:0,0:0:0:0:
268,232,31328,1,0,0:0:0:0:
268,272,31504,6,0,L|156:280,2,99.9999999999999,8|2|2,0:0|0:0|0:0,0:0:0:0:
328,216,32563,1,2,0:0:0:0:
392,264,32916,2,0,L|504:272,2,99.9999999999999,8|2|2,0:0|0:0|0:0,0:0:0:0:
340,324,33975,1,2,0:0:0:0:
260,312,34328,6,0,L|156:316,1,99.9999999999999,8|2,0:0|0:0,0:0:0:0:
120,308,34857,2,0,P|96:244|112:152,1,150,2|2,0:0|0:0,0:0:0:0:
128,88,35740,2,0,P|192:96|240:88,1,99.9999999999999,8|2,0:0|0:0,0:0:0:0:
264,76,36269,2,0,P|244:124|260:224,1,150,2|2,0:0|0:0,0:0:0:0:
280,296,37152,6,0,L|400:288,1,99.9999999999999,8|2,0:0|0:0,0:0:0:0:
412,312,37681,2,0,L|424:152,1,150,2|2,0:0|0:0,0:0:0:0:
436,84,38563,6,0,P|396:96|336:88,1,99.9999999999999,8|2,0:0|0:0,0:0:0:0:
304,72,39093,1,2,0:0:0:0:
268,60,39269,2,0,P|220:52|152:64,1,99.9999999999999,2|2,0:0|0:0,0:0:0:0:
128,128,39975,6,0,P|112:184|128:224,1,99.9999999999999,8|2,0:0|0:0,0:0:0:0:
152,251,40504,2,0,L|264:247,1,99.9999999999999,2|2,0:0|0:0,0:0:0:0:
292,244,41034,1,2,0:0:0:0:
376,200,41563,6,0,P|384:164|376:96,1,99.9999999999999,8|2,0:0|0:0,0:0:0:0:
356,68,42093,2,0,L|244:72,1,99.9999999999999,2|2,0:0|0:0,0:0:0:0:
232,104,42622,1,2,0:0:0:0:
204,136,42799,6,0,L|92:132,2,99.9999999999999,8|2|2,0:0|0:0|0:0,0:0:0:0:
256,196,43857,1,2,0:0:0:0:
304,260,44210,2,0,P|332:220|324:160,2,99.9999999999999,8|2|2,0:0|0:0|0:0,0:0:0:0:
240,312,45269,1,2,0:0:0:0:
176,360,45622,6,0,L|8:352,2,150,8|2|2,0:0|0:0|0:0,0:0:0:0:
252,332,47034,2,0,L|420:324,2,150,8|2|2,0:0|0:0|0:0,0:0:0:0:
184,288,48446,2,0,P|152:192|184:84,1,200,8|2,0:0|0:0,0:0:0:0:
208,28,49504,1,2,0:0:0:0:
272,76,49857,2,0,L|392:72,1,99.9999999999999,8|2,0:0|0:0,0:0:0:0:
392,152,50563,2,0,L|292:155,1,99.9999999999999,2|2,0:0|0:0,0:0:0:0:
236,212,51269,6,0,P|224:280|264:360,1,150,8|2,0:0|0:0,0:0:0:0:
296,360,51975,2,0,L|416:356,1,99.9999999999999,2|2,0:0|0:0,0:0:0:0:
424,328,52504,2,0,L|432:216,1,99.9999999999999,8|2,0:0|0:0,0:0:0:0:
464,204,53034,2,0,L|460:88,1,99.9999999999999,2|2,0:0|0:0,0:0:0:0:
356,44,53916,1,2,0:0:0:0:
332,76,54093,6,0,P|256:116|160:64,1,200,8|2,0:0|0:0,0:0:0:0:
44,40,55328,2,0,P|60:72|64:104,1,50,2|2,0:0|0:0,0:0:0:0:
64,124,55681,2,0,P|56:172|72:236,1,99.9999999999999,8|2,0:0|0:0,0:0:0:0:
84,260,56210,2,0,P|96:316|84:376,1,99.9999999999999,2|2,0:0|0:0,0:0:0:0:
156,312,56916,5,4,0:0:0:0:
256,192,59740,12,0,60975,0:0:0:0:
156,312,62563,6,0,L|260:316,1,99.9999999999999,8|2,0:0|0:0,0:0:0:0:
324,360,63269,2,0,L|428:356,1,99.9999999999999,2|2,0:0|0:0,0:0:0:0:
468,292,63975,2,0,B|480:192|480:192|468:132,2,150,8|2|8,0:0|0:0|0:0,0:0:0:0:
423,356,65387,2,0,L|307:360,1,99.9999999999999,8|2,0:0|0:0,0:0:0:0:
255,315,66093,2,0,P|239:271|247:207,1,99.9999999999999,2|2,0:0|0:0,0:0:0:0:
256,140,66799,6,0,P|268:72|244:-12,2,150,8|2|2,0:0|0:0|0:0,0:0:0:0:
242,218,68210,2,0,L|122:226,1,99.9999999999999,8|2,0:0|0:0,0:0:0:0:
120,304,68916,2,0,L|240:312,1,99.9999999999999,2|2,0:0|0:0,0:0:0:0:
288,352,69622,2,0,L|452:348,2,150,8|2|2,0:0|0:0|0:0,0:0:0:0:
252,280,71034,5,8,0:0:0:0:
180,244,71387,2,0,P|172:292|200:340,1,99.9999999999999,2|2,0:0|0:0,0:0:0:0:
252,280,72093,1,2,0:0:0:0:
180,244,72446,6,0,L|64:248,2,99.9999999999999,8|2|2,0:0|0:0|0:0,0:0:0:0:
220,244,73328,2,0,P|232:176|216:128,1,99.9999999999999,2|2,0:0|0:0,0:0:0:0:
208,112,73857,6,0,B|328:108,1,99.9999999999999,8|2,0:0|0:0,0:0:0:0:
368,160,74563,2,0,B|488:164,1,99.9999999999999,2|2,0:0|0:0,0:0:0:0:
496,240,75269,2,0,P|512:288|496:348,1,99.9999999999999,8|2,0:0|0:0,0:0:0:0:
424,324,75975,2,0,L|312:332,1,99.9999999999999,2|2,0:0|0:0,0:0:0:0:
252,364,76681,6,0,L|136:356,2,99.9999999999999,8|2|2,0:0|0:0|0:0,0:0:0:0:
324,331,77740,1,2,0:0:0:0:
364,260,78093,2,0,L|372:140,1,99.9999999999999,8|2,0:0|0:0,0:0:0:0:
360,120,78622,2,0,L|204:116,1,150,2|2,0:0|0:0,0:0:0:0:
160,180,79504,6,0,L|0:184,2,150,8|2|2,0:0|0:0|0:0,0:0:0:0:
232,212,80916,2,0,L|392:216,2,150,8|2|2,0:0|0:0|0:0,0:0:0:0:
180,276,82328,2,0,P|128:312|48:288,2,150,8|2|2,0:0|0:0|0:0,0:0:0:0:
232,216,83740,2,0,L|228:64,1,150,8|2,0:0|0:0,0:0:0:0:
244,28,84446,2,0,P|276:16|340:28,1,99.9999999999999,2|2,0:0|0:0,0:0:0:0:
376,48,84975,1,2,0:0:0:0:
256,192,85152,12,0,88681,0:0:0:0:
