osu file format v14

[General]
AudioFilename: audio.mp3
AudioLeadIn: 0
PreviewTime: 55136
Countdown: 0
SampleSet: None
StackLeniency: 0.7
Mode: 1
LetterboxInBreaks: 0
WidescreenStoryboard: 1

[Editor]
DistanceSpacing: 0.4
BeatDivisor: 4
GridSize: 32
TimelineZoom: 1

[Metadata]
Title:Shanranran feat.96neko -TV Edit Ver.-
TitleUnicode:シャンランラン feat.96猫 -TV Edit Ver.-
Artist:miwa
ArtistUnicode:miwa
Creator:kanpakyin
Version:Taiko Oni
Source:ふらいんぐうぃっち
Tags:
BeatmapID:1035084
BeatmapSetID:485365

[Difficulty]
HPDrainRate:5
CircleSize:5
OverallDifficulty:5
ApproachRate:5
SliderMultiplier:1.4
SliderTickRate:1

[Events]
//Background and Video events
0,0,"img_0.jpg",0,0
//Break Periods
//Storyboard Layer 0 (Background)
//Storyboard Layer 1 (Fail)
//Storyboard Layer 2 (Pass)
//Storyboard Layer 3 (Foreground)
//Storyboard Sound Samples

[TimingPoints]
-197,444.444444444444,4,1,0,100,1,0
56691,-90.9090909090909,4,1,0,90,0,1
85136,-100,4,1,0,70,0,0

[Colours]
Combo1 : 224,159,31
Combo2 : 191,255,0
Combo3 : 255,31,63

[HitObjects]
396,162,247,5,0,0:0:0:0:
396,162,691,1,2,0:0:0:0:
409,155,1136,1,2,0:0:0:0:
405,158,1580,1,2,0:0:0:0:
403,156,1802,1,0,0:0:0:0:
411,156,2025,1,0,0:0:0:0:
409,155,2469,1,2,0:0:0:0:
403,156,2691,1,0,0:0:0:0:
411,156,2914,1,0,0:0:0:0:
409,155,3136,1,2,0:0:0:0:
409,155,3247,1,2,0:0:0:0:
409,155,3358,1,0,0:0:0:0:
411,156,3802,1,2,0:0:0:0:
409,155,4247,1,0,0:0:0:0:
411,156,4691,1,2,0:0:0:0:
409,155,5136,1,2,0:0:0:0:
411,156,5358,1,2,0:0:0:0:
411,156,5469,1,0,0:0:0:0:
411,156,5691,1,0,0:0:0:0:
409,155,5802,1,2,0:0:0:0:
409,155,5914,1,2,0:0:0:0:
409,155,6025,1,0,0:0:0:0:
411,156,6247,1,0,0:0:0:0:
411,156,6469,1,2,0:0:0:0:
411,156,6691,1,0,0:0:0:0:
411,156,6802,1,2,0:0:0:0:
402,156,7025,1,0,0:0:0:0:
403,156,7136,1,2,0:0:0:0:
403,156,7358,1,0,0:0:0:0:
403,156,7802,1,0,0:0:0:0:
403,156,8247,1,0,0:0:0:0:
403,156,8469,1,2,0:0:0:0:
396,154,8691,1,0,0:0:0:0:
396,154,9025,1,2,0:0:0:0:
397,153,9358,1,2,0:0:0:0:
396,154,9580,1,0,0:0:0:0:
396,154,9914,1,2,0:0:0:0:
397,153,10247,1,2,0:0:0:0:
396,154,10469,1,0,0:0:0:0:
401,147,10691,1,0,0:0:0:0:
401,147,10802,1,2,0:0:0:0:
400,147,11025,1,0,0:0:0:0:
400,148,11136,1,2,0:0:0:0:
404,151,11247,1,0,0:0:0:0:
405,151,11358,1,2,0:0:0:0:
405,151,11691,1,0,0:0:0:0:
408,154,12247,1,12,0:0:0:0:
405,151,12580,1,12,0:0:0:0:
408,154,12914,1,12,0:0:0:0:
408,154,13136,1,12,0:0:0:0:
405,151,13469,1,12,0:0:0:0:
408,154,13802,1,12,0:0:0:0:
403,160,14914,1,0,0:0:0:0:
403,160,15247,1,2,0:0:0:0:
403,160,15580,1,0,0:0:0:0:
403,160,15802,1,12,0:0:0:0:
400,164,16025,1,0,0:0:0:0:
403,160,16247,1,8,0:0:0:0:
403,160,16691,1,8,0:0:0:0:
400,164,16914,1,0,0:0:0:0:
403,160,17136,1,8,0:0:0:0:
403,160,17580,1,8,0:0:0:0:
400,164,17802,1,8,0:0:0:0:
400,164,17914,1,0,0:0:0:0:
400,164,18025,1,8,0:0:0:0:
400,165,18247,1,0,0:0:0:0:
400,165,18469,1,8,0:0:0:0:
400,164,18691,1,8,0:0:0:0:
400,164,18914,1,8,0:0:0:0:
400,165,19358,1,8,0:0:0:0:
393,162,19580,1,0,0:0:0:0:
394,163,19691,1,0,0:0:0:0:
400,164,19802,1,8,0:0:0:0:
400,165,20025,1,0,0:0:0:0:
400,165,20247,1,8,0:0:0:0:
397,169,20469,1,0,0:0:0:0:
397,169,20691,1,8,0:0:0:0:
397,169,20914,1,8,0:0:0:0:
408,149,20988,1,8,0:0:0:0:
407,148,21062,1,8,0:0:0:0:
408,147,21136,1,0,0:0:0:0:
397,169,21358,1,0,0:0:0:0:
397,169,21469,1,0,0:0:0:0:
397,169,21580,1,8,0:0:0:0:
405,152,21802,1,8,0:0:0:0:
408,149,22025,1,8,0:0:0:0:
404,152,22247,1,0,0:0:0:0:
404,153,22469,1,8,0:0:0:0:
405,152,22691,1,0,0:0:0:0:
404,153,22914,1,8,0:0:0:0:
405,152,23136,1,0,0:0:0:0:
383,151,23247,1,0,0:0:0:0:
384,151,23358,1,8,0:0:0:0:
381,148,23580,1,0,0:0:0:0:
381,148,23691,1,0,0:0:0:0:
381,148,23802,1,8,0:0:0:0:
382,149,24025,1,0,0:0:0:0:
383,151,24247,1,8,0:0:0:0:
381,148,24469,1,8,0:0:0:0:
381,148,24543,1,8,0:0:0:0:
381,148,24617,1,8,0:0:0:0:
381,148,24691,1,8,0:0:0:0:
367,153,24765,1,0,0:0:0:0:
369,153,24840,1,0,0:0:0:0:
369,153,24914,1,0,0:0:0:0:
370,154,24988,1,0,0:0:0:0:
369,154,25062,1,8,0:0:0:0:
369,154,25136,1,8,0:0:0:0:
373,166,25247,1,0,0:0:0:0:
373,167,25358,1,0,0:0:0:0:
374,167,25469,1,0,0:0:0:0:
374,167,25580,1,8,0:0:0:0:
374,167,25691,1,8,0:0:0:0:
374,167,25802,1,0,0:0:0:0:
374,167,25914,1,0,0:0:0:0:
374,168,26025,1,0,0:0:0:0:
366,165,26247,1,0,0:0:0:0:
366,165,26469,1,0,0:0:0:0:
366,168,26914,1,8,0:0:0:0:
366,165,27136,1,0,0:0:0:0:
366,168,27580,1,0,0:0:0:0:
366,168,27802,1,8,0:0:0:0:
366,168,28025,1,0,0:0:0:0:
366,168,28247,1,0,0:0:0:0:
366,168,28691,1,8,0:0:0:0:
366,168,28914,1,0,0:0:0:0:
366,168,29358,1,0,0:0:0:0:
366,168,29580,1,8,0:0:0:0:
366,168,29802,1,0,0:0:0:0:
366,168,30025,1,0,0:0:0:0:
366,168,30469,1,8,0:0:0:0:
366,168,30802,1,0,0:0:0:0:
366,168,30914,1,8,0:0:0:0:
366,168,31136,1,0,0:0:0:0:
366,168,31358,1,8,0:0:0:0:
366,168,31580,1,0,0:0:0:0:
366,168,32025,1,0,0:0:0:0:
369,171,32247,1,8,0:0:0:0:
369,172,32469,1,0,0:0:0:0:
369,172,32691,1,0,0:0:0:0:
369,173,32914,1,8,0:0:0:0:
369,171,33136,1,8,0:0:0:0:
369,172,33580,1,0,0:0:0:0:
369,171,34025,1,8,0:0:0:0:
369,172,34247,1,0,0:0:0:0:
369,171,34691,1,0,0:0:0:0:
369,171,34914,1,8,0:0:0:0:
369,172,35136,1,0,0:0:0:0:
369,171,35580,1,0,0:0:0:0:
369,171,35802,1,8,0:0:0:0:
369,172,36025,1,0,0:0:0:0:
369,171,36247,1,0,0:0:0:0:
369,171,36469,1,0,0:0:0:0:
369,171,36691,1,8,0:0:0:0:
369,172,36914,1,0,0:0:0:0:
369,171,37136,1,0,0:0:0:0:
357,169,37358,1,0,0:0:0:0:
358,170,37580,1,8,0:0:0:0:
358,170,37802,1,0,0:0:0:0:
357,169,38247,1,0,0:0:0:0:
358,170,38469,1,8,0:0:0:0:
358,170,38691,1,8,0:0:0:0:
358,170,38765,1,8,0:0:0:0:
358,170,38840,1,8,0:0:0:0:
357,169,38914,1,8,0:0:0:0:
357,169,39136,1,0,0:0:0:0:
357,169,39247,1,0,0:0:0:0:
358,170,39358,1,8,0:0:0:0:
358,170,39580,1,0,0:0:0:0:
357,169,39802,1,8,0:0:0:0:
357,169,40025,1,0,0:0:0:0:
357,169,40247,1,0,0:0:0:0:
357,169,40691,1,0,0:0:0:0:
357,169,41136,1,8,0:0:0:0:
357,169,41580,1,8,0:0:0:0:
357,169,42025,1,8,0:0:0:0:
357,169,42247,1,0,0:0:0:0:
357,169,42469,1,8,0:0:0:0:
357,169,42914,1,8,0:0:0:0:
357,169,43136,1,0,0:0:0:0:
357,169,43358,1,8,0:0:0:0:
357,169,43580,1,0,0:0:0:0:
357,169,43802,1,8,0:0:0:0:
357,169,44025,1,0,0:0:0:0:
357,169,44247,1,8,0:0:0:0:
357,169,44691,1,8,0:0:0:0:
357,169,45136,1,8,0:0:0:0:
357,169,45580,1,8,0:0:0:0:
357,169,45802,1,0,0:0:0:0:
357,169,46025,1,8,0:0:0:0:
357,169,46469,1,8,0:0:0:0:
356,174,46691,1,0,0:0:0:0:
357,175,46914,1,8,0:0:0:0:
357,175,47136,1,0,0:0:0:0:
354,175,47358,1,8,0:0:0:0:
356,174,47580,1,0,0:0:0:0:
357,175,47802,1,8,0:0:0:0:
354,175,48247,1,8,0:0:0:0:
357,175,48691,1,8,0:0:0:0:
354,175,49136,1,8,0:0:0:0:
348,168,49358,1,0,0:0:0:0:
347,167,49580,1,8,0:0:0:0:
347,169,50025,1,8,0:0:0:0:
342,171,50247,1,0,0:0:0:0:
342,171,50469,1,8,0:0:0:0:
339,170,50691,1,0,0:0:0:0:
340,171,50914,1,8,0:0:0:0:
342,171,51136,1,0,0:0:0:0:
333,170,51358,1,8,0:0:0:0:
330,166,51802,1,8,0:0:0:0:
333,170,52247,1,8,0:0:0:0:
330,166,52469,1,0,0:0:0:0:
330,166,52691,1,8,0:0:0:0:
328,163,52914,1,0,0:0:0:0:
326,163,53136,1,12,0:0:0:0:
330,166,53580,1,8,0:0:0:0:
328,163,53802,1,8,0:0:0:0:
256,192,53914,12,0,54914,0:0:0:0:
298,149,55358,5,0,0:0:0:0:
298,149,55802,1,8,0:0:0:0:
298,149,56247,1,8,0:0:0:0:
298,149,56691,1,4,0:0:0:0:
298,149,56914,1,0,0:0:0:0:
298,149,57025,1,0,0:0:0:0:
298,149,57136,1,8,0:0:0:0:
298,149,57358,1,0,0:0:0:0:
298,149,57580,1,0,0:0:0:0:
298,149,57802,1,0,0:0:0:0:
298,149,57914,1,0,0:0:0:0:
298,149,58025,1,8,0:0:0:0:
298,149,58247,1,8,0:0:0:0:
298,149,58358,1,8,0:0:0:0:
298,149,58469,1,0,0:0:0:0:
298,149,58691,1,8,0:0:0:0:
298,149,58914,1,0,0:0:0:0:
298,149,59136,1,8,0:0:0:0:
298,149,59358,1,0,0:0:0:0:
298,149,59580,1,8,0:0:0:0:
298,149,59802,1,8,0:0:0:0:
298,149,60025,1,0,0:0:0:0:
298,149,60247,1,0,0:0:0:0:
298,149,60358,1,0,0:0:0:0:
298,149,60469,1,8,0:0:0:0:
298,149,60580,1,0,0:0:0:0:
298,149,60691,1,8,0:0:0:0:
298,149,60914,1,8,0:0:0:0:
298,149,61025,1,8,0:0:0:0:
298,149,61136,1,0,0:0:0:0:
298,149,61358,1,0,0:0:0:0:
298,149,61469,1,0,0:0:0:0:
298,149,61580,1,8,0:0:0:0:
298,149,61802,1,8,0:0:0:0:
298,149,61914,1,0,0:0:0:0:
298,149,62025,1,0,0:0:0:0:
298,149,62136,1,0,0:0:0:0:
298,149,62247,1,8,0:0:0:0:
298,149,62469,1,0,0:0:0:0:
298,149,62691,1,8,0:0:0:0:
298,149,62914,1,0,0:0:0:0:
301,153,63136,1,8,0:0:0:0:
302,153,63247,1,0,0:0:0:0:
302,153,63358,1,8,0:0:0:0:
302,154,63580,1,0,0:0:0:0:
302,153,63802,1,4,0:0:0:0:
301,153,64025,1,0,0:0:0:0:
301,153,64136,1,0,0:0:0:0:
302,153,64247,1,8,0:0:0:0:
302,154,64469,1,0,0:0:0:0:
302,154,64580,1,8,0:0:0:0:
302,153,64691,1,8,0:0:0:0:
301,153,64914,1,0,0:0:0:0:
301,153,65025,1,0,0:0:0:0:
301,153,65136,1,8,0:0:0:0:
302,153,65247,1,0,0:0:0:0:
302,154,65358,1,0,0:0:0:0:
302,154,65469,1,8,0:0:0:0:
302,154,65580,1,0,0:0:0:0:
303,157,65802,1,8,0:0:0:0:
303,157,65914,1,0,0:0:0:0:
303,157,66025,1,0,0:0:0:0:
304,158,66247,1,8,0:0:0:0:
304,159,66469,1,0,0:0:0:0:
303,157,66691,1,8,0:0:0:0:
303,157,66802,1,0,0:0:0:0:
303,157,66914,1,8,0:0:0:0:
304,159,67358,1,4,0:0:0:0:
299,150,67580,1,0,0:0:0:0:
299,151,67691,1,0,0:0:0:0:
303,157,67802,1,8,0:0:0:0:
303,153,68025,1,0,0:0:0:0:
304,159,68247,1,0,0:0:0:0:
304,154,68469,1,0,0:0:0:0:
304,154,68580,1,0,0:0:0:0:
309,157,68691,1,8,0:0:0:0:
310,157,68914,1,0,0:0:0:0:
310,157,69136,1,0,0:0:0:0:
309,157,69358,1,8,0:0:0:0:
309,157,69580,1,8,0:0:0:0:
310,157,69802,1,0,0:0:0:0:
310,157,70025,1,8,0:0:0:0:
308,149,70099,1,8,0:0:0:0:
307,148,70173,1,8,0:0:0:0:
304,150,70247,1,8,0:0:0:0:
331,135,70321,1,0,0:0:0:0:
331,135,70395,1,0,0:0:0:0:
309,157,70469,1,0,0:0:0:0:
310,157,70691,1,8,0:0:0:0:
310,157,70802,1,8,0:0:0:0:
310,157,70914,1,0,0:0:0:0:
311,153,71136,1,0,0:0:0:0:
311,153,71358,1,8,0:0:0:0:
309,157,71580,1,0,0:0:0:0:
310,157,71691,1,8,0:0:0:0:
310,157,71802,1,0,0:0:0:0:
319,153,72025,1,0,0:0:0:0:
320,153,72247,1,8,0:0:0:0:
321,154,72469,1,0,0:0:0:0:
321,154,72580,1,8,0:0:0:0:
322,155,72691,1,0,0:0:0:0:
323,155,72802,1,0,0:0:0:0:
319,153,72914,1,8,0:0:0:0:
320,153,73136,1,0,0:0:0:0:
321,154,73358,1,8,0:0:0:0:
321,154,73580,1,0,0:0:0:0:
323,155,73802,1,8,0:0:0:0:
325,156,74025,1,8,0:0:0:0:
311,154,74469,1,0,0:0:0:0:
317,152,74691,1,0,0:0:0:0:
323,155,74802,1,0,0:0:0:0:
318,152,74914,1,8,0:0:0:0:
314,143,75025,1,0,0:0:0:0:
318,153,75136,1,0,0:0:0:0:
319,154,75247,1,8,0:0:0:0:
319,153,75358,1,0,0:0:0:0:
307,140,75580,1,0,0:0:0:0:
307,138,75802,1,8,0:0:0:0:
314,143,76025,1,0,0:0:0:0:
317,146,76136,1,8,0:0:0:0:
317,146,76247,1,0,0:0:0:0:
322,140,76469,1,8,0:0:0:0:
324,142,76691,1,0,0:0:0:0:
324,142,76914,1,8,0:0:0:0:
324,142,77136,1,0,0:0:0:0:
322,140,77358,1,8,0:0:0:0:
324,142,77580,1,8,0:0:0:0:
324,142,77802,1,0,0:0:0:0:
324,142,78025,1,4,0:0:0:0:
326,144,78247,1,0,0:0:0:0:
322,140,78358,1,0,0:0:0:0:
324,142,78469,1,8,0:0:0:0:
324,142,78691,1,0,0:0:0:0:
324,142,78802,1,8,0:0:0:0:
324,142,78914,1,0,0:0:0:0:
324,142,79025,1,0,0:0:0:0:
326,144,79136,1,8,0:0:0:0:
326,144,79247,1,0,0:0:0:0:
326,144,79358,1,8,0:0:0:0:
328,146,79580,1,8,0:0:0:0:
328,147,79691,1,8,0:0:0:0:
326,146,79802,1,0,0:0:0:0:
327,146,80025,1,8,0:0:0:0:
326,144,80247,1,0,0:0:0:0:
328,146,80469,1,8,0:0:0:0:
328,147,80580,1,0,0:0:0:0:
328,147,80691,1,0,0:0:0:0:
327,146,80914,1,8,0:0:0:0:
330,150,81136,1,8,0:0:0:0:
331,150,81358,1,0,0:0:0:0:
328,147,81580,1,4,0:0:0:0:
327,146,81914,1,12,0:0:0:0:
331,150,82247,1,12,0:0:0:0:
328,147,82469,1,4,0:0:0:0:
330,149,82802,1,12,0:0:0:0:
331,150,83136,1,12,0:0:0:0:
345,166,84247,1,0,0:0:0:0:
345,166,84580,1,8,0:0:0:0:
345,166,84914,1,8,0:0:0:0:
326,159,85136,1,0,0:0:0:0:
321,160,85358,1,0,0:0:0:0:
324,158,85580,1,8,0:0:0:0:
320,160,85802,1,0,0:0:0:0:
321,161,86025,1,8,0:0:0:0:
321,160,86247,1,0,0:0:0:0:
323,163,86469,1,8,0:0:0:0:
324,164,86691,1,0,0:0:0:0:
321,161,86914,1,8,0:0:0:0:
321,160,87136,1,8,0:0:0:0:
321,160,87247,1,0,0:0:0:0:
323,163,87358,1,8,0:0:0:0:
324,164,87580,1,0,0:0:0:0:
321,161,87802,1,8,0:0:0:0:
321,160,88025,1,8,0:0:0:0:
321,160,88247,1,8,0:0:0:0:
