osu file format v14

[General]
AudioFilename: audio.mp3
AudioLeadIn: 0
PreviewTime: 46449
Countdown: 1
SampleSet: None
StackLeniency: 0.7
Mode: 0
LetterboxInBreaks: 0
WidescreenStoryboard: 1

[Editor]
DistanceSpacing: 0.2
BeatDivisor: 4
GridSize: 8
TimelineZoom: 1.8

[Metadata]
Title:Dream Leaf
TitleUnicode:Dream Leaf
Artist:mitsukiyo
ArtistUnicode::ミツキヨ
Creator:celerih
Version:kwk's Extra
Source:
Tags:Azer kwk PandaHero 緑の手紙
BeatmapID:1865095
BeatmapSetID:892188

[Difficulty]
HPDrainRate:5
CircleSize:4
OverallDifficulty:8
ApproachRate:9
SliderMultiplier:1.5
SliderTickRate:1

[Events]
//Background and Video events
0,0,"Dream Leaf BG 2.png",0,0
//Break Periods
//Storyboard Layer 0 (Background)
//Storyboard Layer 1 (Fail)
//Storyboard Layer 2 (Pass)
//Storyboard Layer 3 (Foreground)
//Storyboard Sound Samples

[TimingPoints]
95,387.096774193548,4,2,1,60,1,0
1643,-142.857142857143,4,2,1,30,0,0
7836,-111.111111111111,4,2,1,30,0,0
13256,-76.9230769230769,4,2,1,60,0,0
14030,-66.6666666666667,4,2,1,60,0,0
26417,-66.6666666666667,4,2,1,80,0,0
27127,-66.6666666666667,4,2,1,30,0,0
27191,-66.6666666666667,4,2,1,80,0,0
27901,-66.6666666666667,4,2,1,30,0,0
27965,-66.6666666666667,4,2,1,80,0,0
32998,-66.6666666666667,4,2,1,40,0,0
33385,-142.857142857143,4,2,1,40,0,0
44514,-66.6666666666667,4,2,1,40,0,0
44998,-58.8235294117647,4,2,1,70,0,0
46546,-58.8235294117647,4,2,1,70,0,1
58933,-66.6666666666667,4,2,1,70,0,0
65127,-58.8235294117647,4,2,1,70,0,0
71320,-58.8235294117647,4,2,1,80,0,1
95707,-76.9230769230769,4,2,1,80,0,0
96094,-66.6666666666667,4,2,1,70,0,0
105772,-66.6666666666667,4,2,1,30,0,0
105965,-66.6666666666667,4,2,1,60,0,0
106353,-66.6666666666667,4,2,1,30,0,0
106546,-66.6666666666667,4,2,1,60,0,0
106933,-66.6666666666667,4,2,1,30,0,0
107320,-66.6666666666667,4,2,1,60,0,0
107707,-76.9230769230769,4,2,1,60,0,0
108482,-66.6666666666667,4,2,1,70,0,0
126675,-66.6666666666667,4,2,1,20,0,0

[Colours]
Combo1 : 235,148,105
Combo2 : 255,213,128
Combo3 : 217,123,172
Combo4 : 151,176,242

[HitObjects]
14,133,1643,6,0,P|59:115|106:123,1,78.7499975967408,4|0,0:3|0:0,0:0:0:0:
148,184,2224,1,0,0:0:0:0:
290,107,2417,2,0,P|245:125|198:117,1,78.7499975967408,8|0,0:3|0:0,0:0:0:0:
343,29,2998,1,0,0:0:0:0:
386,117,3191,6,0,B|410:206,1,78.7499975967408,0|0,0:0|0:0,0:0:0:0:
431,276,3772,1,0,0:0:0:0:
336,367,3965,2,0,L|348:262,1,104.999996795654,8|0,0:3|0:0,0:0:0:0:
406,194,4546,1,0,0:0:0:0:
308,133,4740,6,0,L|322:189,1,52.4999983978272,8|0,0:3|0:0,0:0:0:0:
282,210,5030,2,0,L|268:297,1,78.7499975967408,0|0,0:0|0:0,0:0:0:0:
161,338,5514,1,8,0:3:0:0:
110,230,5707,1,0,0:0:0:0:
218,179,5901,1,0,0:0:0:0:
269,287,6094,1,0,0:0:0:0:
59,321,6288,5,8,0:3:0:0:
138,142,6578,1,0,0:0:0:0:
234,367,6869,1,0,0:0:0:0:
431,252,7062,2,0,L|371:266,1,52.4999983978272,2|0,0:3|0:0,0:0:0:0:
321,329,7353,1,0,0:0:0:0:
242,281,7449,2,0,P|226:221|239:188,1,78.7499975967408,8|0,0:3|0:0,0:0:0:0:
253,183,7836,6,0,P|254:113|226:72,1,101.249996910095,2|0,0:1|0:0,0:0:0:0:
158,70,8224,1,0,0:0:0:0:
158,70,8417,1,0,0:0:0:0:
97,204,8611,2,0,P|77:157|83:107,1,101.249996910095,2|0,0:0|0:0,0:0:0:0:
166,151,8998,1,0,0:0:0:0:
166,151,9191,1,0,0:0:0:0:
325,215,9385,6,0,P|275:207|228:225,1,101.249996910095,0|0,0:0|0:0,0:0:0:0:
158,287,9772,1,0,0:0:0:0:
158,287,9965,1,0,0:0:0:0:
304,337,10159,1,4,0:1:0:0:
336,326,10256,1,2,0:0:0:0:
368,316,10353,1,2,0:0:0:0:
400,306,10449,1,2,1:2:0:0:
423,374,10546,5,2,1:2:0:0:
342,348,10643,1,2,0:0:0:0:
342,263,10740,1,8,0:0:0:0:
423,237,10836,1,10,0:0:0:0:
477,305,10933,5,10,0:0:0:0:
192,275,11127,1,10,0:0:0:0:
181,300,11513,5,10,0:0:0:0:
497,252,11707,1,10,0:0:0:0:
483,225,12094,5,10,0:0:0:0:
113,153,12288,1,10,0:0:0:0:
99,184,12675,5,10,0:0:0:0:
504,71,12869,1,4,1:3:0:0:
491,101,12965,1,0,0:0:0:0:
464,120,13062,1,0,0:0:0:0:
430,119,13159,1,0,0:0:0:0:
402,98,13256,2,0,L|415:15,1,48.7499977684022,2|2,1:2|0:2,0:0:0:0:
313,143,13449,6,0,L|321:185,2,32.4999985122681,2|0|0,0:0|0:0|0:0,0:0:0:0:
243,79,13643,1,2,0:0:0:0:
243,79,13740,1,0,0:0:0:0:
176,147,13836,2,0,L|168:189,2,32.4999985122681,8|0|0,0:3|0:0|0:0,0:0:0:0:
156,67,14030,6,0,B|173:212,1,112.500004291535,4|0,1:0|0:0,0:0:0:0:
138,263,14320,1,4,0:0:0:0:
138,263,14417,1,2,1:2:0:0:
265,166,14611,1,6,0:0:0:0:
31,259,14804,2,0,B|89:243|89:243|155:270,1,112.500004291535,2|4,0:0|0:0,0:0:0:0:
306,337,15094,2,0,B|248:321|248:321|182:348,1,112.500004291535,2|0,0:0|0:0,0:0:0:0:
391,86,15385,6,0,P|360:153|398:240,1,168.750006437302,6|0,0:0|0:0,0:0:0:0:
475,260,15772,1,6,0:0:0:0:
284,199,15965,1,2,1:2:0:0:
479,160,16159,1,6,0:0:0:0:
376,347,16353,2,0,L|396:220,1,112.500004291535,2|4,0:0|0:0,0:0:0:0:
157,72,16643,2,0,L|174:183,1,112.500004291535,8|0,0:0|0:0,0:0:0:0:
49,359,16933,1,12,0:0:0:0:
170,283,17127,6,0,P|219:258|274:261,1,112.500004291535,2|6,0:0|0:0,0:0:0:0:
349,288,17417,1,2,0:0:0:0:
349,288,17514,1,2,1:2:0:0:
174,183,17707,1,6,0:0:0:0:
129,376,17901,2,0,B|260:360,1,112.500004291535,2|4,0:0|0:0,0:0:0:0:
464,301,18191,2,0,B|333:285,1,112.500004291535,2|0,0:0|0:0,0:0:0:0:
6,207,18482,6,0,L|173:183,1,168.750006437302,6|0,0:0|0:0,0:0:0:0:
372,246,18869,1,6,0:0:0:0:
372,246,18965,1,2,0:0:0:0:
372,246,19062,5,2,1:2:0:0:
365,207,19159,1,2,0:0:0:0:
331,185,19256,1,6,0:0:0:0:
292,191,19353,1,2,0:0:0:0:
267,221,19449,2,0,L|266:302,1,56.2500021457673,10|0,0:0|0:0,0:0:0:0:
223,352,19643,5,4,0:0:0:0:
177,383,19739,1,0,0:0:0:0:
127,383,19836,1,2,1:2:0:0:
72,361,19933,1,2,0:0:0:0:
44,313,20030,1,6,0:0:0:0:
45,257,20126,1,2,0:0:0:0:
74,210,20224,6,0,P|86:143|72:79,1,112.500004291535,4|0,0:1|0:0,0:0:0:0:
11,34,20514,1,6,0:0:0:0:
11,34,20611,1,2,1:2:0:0:
167,106,20804,1,6,0:0:0:0:
5,281,20998,2,0,B|60:261|60:261|117:275,1,112.500004291535,2|4,0:0|0:0,0:0:0:0:
274,185,21288,2,0,B|219:205|219:205|162:191,1,112.500004291535,2|0,0:0|0:0,0:0:0:0:
209,382,21578,6,0,P|247:304|322:293,1,168.750006437302,6|0,0:0|0:0,0:0:0:0:
396,342,21965,1,6,0:0:0:0:
396,342,22062,1,2,0:0:0:0:
472,288,22159,1,2,1:2:0:0:
381,104,22353,1,6,0:0:0:0:
299,378,22546,1,2,0:0:0:0:
271,186,22740,1,4,0:0:0:0:
480,370,22933,1,2,1:2:0:0:
196,256,23127,1,4,0:0:0:0:
387,101,23320,6,0,P|419:151|407:217,1,112.500004291535,2|4,0:0|0:0,0:0:0:0:
300,374,23611,2,0,P|268:324|280:258,1,112.500004291535,2|0,0:0|0:0,0:0:0:0:
63,326,23901,2,0,L|-39:348,1,56.2500021457673,12|0,0:0|0:0,0:0:0:0:
156,284,24094,6,0,P|159:339|128:384,1,112.500004291535,2|4,0:0|0:0,0:0:0:0:
13,211,24385,2,0,P|9:155|40:110,1,112.500004291535,2|0,0:0|0:0,0:0:0:0:
224,94,24675,2,0,L|298:87,1,56.2500021457673,12|0,0:0|0:0,0:0:0:0:
139,68,24869,6,0,L|124:220,1,112.500004291535,4|6,0:1|0:0,0:0:0:0:
60,324,25159,1,8,0:0:0:0:
155,287,25256,1,4,1:1:0:0:
40,110,25449,1,4,0:0:0:0:
246,252,25643,2,0,L|321:227,1,56.2500021457673,4|2,0:1|0:0,0:0:0:0:
434,272,25836,2,0,L|482:291,8,37.5000014305115,2|0|0|2|0|0|2|2|2,0:0|0:0|0:0|1:2|0:0|0:0|0:0|0:0|0:0,0:0:0:0:
344,312,26417,6,0,L|200:360,1,112.500004291535,10|4,0:0|0:0,0:0:0:0:
384,205,26707,2,0,L|437:188,1,56.2500021457673,10|2,1:2|0:0,0:0:0:0:
273,225,26901,1,0,0:0:0:0:
273,225,26998,2,0,L|245:140,1,56.2500021457673,2|0,0:0|0:0,0:0:0:0:
20,92,27191,6,0,P|-4:155|16:236,1,112.500004291535,10|6,0:0|0:0,0:0:0:0:
146,58,27482,2,0,L|164:5,1,56.2500021457673,10|2,1:2|0:0,0:0:0:0:
121,168,27675,1,0,0:0:0:0:
121,168,27772,2,0,L|140:239,1,56.2500021457673,2|0,0:0|0:0,0:0:0:0:
512,179,27965,6,0,P|460:156|405:158,1,112.500004291535,10|4,0:0|0:0,0:0:0:0:
442,293,28256,2,0,L|494:273,1,56.2500021457673,10|2,1:2|0:0,0:0:0:0:
334,255,28449,1,0,0:0:0:0:
334,255,28546,2,0,L|281:274,1,56.2500021457673,10|0,0:0|0:0,0:0:0:0:
10,369,28740,5,8,0:0:0:0:
61,122,28933,2,0,L|75:67,2,37.5000014305115,6|2|2,1:2|0:0|0:0,0:0:0:0:
43,217,29127,1,10,0:0:0:0:
2,8,29320,1,12,0:0:0:0:
172,146,29514,6,0,P|223:165|277:153,1,112.500004291535,10|4,0:0|1:2,0:0:0:0:
231,50,29804,2,0,L|176:34,1,56.2500021457673,10|0,0:0|0:0,0:0:0:0:
340,53,29998,1,2,0:0:0:0:
340,53,30094,2,0,L|429:75,1,56.2500021457673,12|0,0:0|0:0,0:0:0:0:
417,317,30288,6,0,P|404:252|427:185,1,112.500004291535,10|4,0:0|1:2,0:0:0:0:
304,250,30578,2,0,L|220:274,1,56.2500021457673,10|0,0:0|0:0,0:0:0:0:
88,382,30772,1,2,0:0:0:0:
119,309,30869,1,12,0:0:0:0:
165,372,30965,1,2,0:0:0:0:
1,271,31062,6,0,L|-1:212,1,56.2500021457673,4|0,0:1|0:0,0:0:0:0:
102,53,31256,1,0,1:0:0:0:
111,199,31353,2,0,L|103:71,1,112.500004291535,4|2,0:1|0:0,0:0:0:0:
1,271,31643,1,2,0:0:0:0:
232,119,31836,6,0,P|350:123|360:131,1,112.500004291535,4|0,1:0|0:0,0:0:0:0:
390,180,32127,1,0,0:0:0:0:
443,193,32223,1,2,0:0:0:0:
492,168,32320,1,0,0:0:0:0:
512,117,32417,1,2,0:0:0:0:
493,65,32514,1,2,0:0:0:0:
442,40,32611,5,2,0:0:0:0:
347,99,32997,1,2,0:0:0:0:
213,26,33385,2,0,L|289:35,1,52.4999983978272,2|8,0:0|0:3,0:0:0:0:
120,86,33772,1,2,0:3:0:0:
120,86,34159,6,0,P|181:59|227:82,1,104.999996795654,4|0,0:3|0:0,0:0:0:0:
214,70,34740,1,2,0:0:0:0:
248,109,34933,1,10,0:3:0:0:
300,114,35127,1,0,0:0:0:0:
341,82,35320,1,8,0:3:0:0:
334,29,35514,1,8,0:3:0:0:
248,109,35707,6,0,B|264:219,1,104.999996795654,0|2,0:0|0:3,0:0:0:0:
263,212,36288,1,2,0:0:0:0:
179,173,36482,2,0,P|261:118|338:156,1,183.749994392395,10|0,0:3|0:0,0:0:0:0:
361,220,37256,6,0,L|366:137,1,78.7499975967408,10|0,0:3|0:0,0:0:0:0:
368,60,37643,1,8,0:3:0:0:
368,60,37836,1,2,0:0:0:0:
442,101,38030,2,0,P|342:143|290:84,1,183.749994392395,10|0,0:3|0:0,0:0:0:0:
253,40,38804,6,0,L|236:128,1,78.7499975967408,10|0,0:3|0:0,0:0:0:0:
220,201,39191,1,8,0:3:0:0:
220,201,39385,1,2,0:0:0:0:
147,155,39578,2,0,P|185:120|247:119,1,104.999996795654,10|0,0:3|0:0,0:0:0:0:
303,179,40159,1,0,0:0:0:0:
389,124,40353,6,0,L|369:238,1,104.999996795654,10|0,0:3|0:0,0:0:0:0:
370,227,40933,1,2,0:0:0:0:
395,272,41126,1,10,0:3:0:0:
379,320,41320,1,0,0:0:0:0:
333,343,41513,1,8,0:3:0:0:
286,325,41707,1,8,0:3:0:0:
394,279,41901,6,0,B|504:295,1,104.999996795654,0|10,0:0|0:3,0:0:0:0:
497,294,42482,1,2,0:0:0:0:
433,362,42676,2,0,P|404:279|458:210,1,183.749994392395,10|0,0:3|0:0,0:0:0:0:
512,136,43449,6,0,L|450:72,1,78.7499975967408,10|0,0:3|0:0,0:0:0:0:
395,28,43836,1,8,0:3:0:0:
395,28,44030,1,2,0:0:0:0:
312,38,44224,2,0,L|260:45,1,52.4999983978272,10|2,0:3|0:0,0:0:0:0:
174,2,44514,1,0,0:0:0:0:
164,56,44610,1,2,1:2:0:0:
186,107,44707,1,0,0:0:0:0:
233,136,44804,1,2,0:0:0:0:
289,134,44901,1,0,0:0:0:0:
331,115,44998,6,0,P|415:98|465:129,1,127.50000243187,4|2,1:1|0:0,0:0:0:0:
252,223,45288,2,0,L|110:242,1,127.50000243187,8|0,0:0|0:0,0:0:0:0:
362,315,45578,1,2,0:0:0:0:
425,323,45674,1,2,0:0:0:0:
488,331,45771,1,8,1:2:0:0:
252,223,45965,1,10,0:0:0:0:
102,382,46159,1,8,0:0:0:0:
102,382,46546,6,0,L|89:209,1,127.50000243187,4|0,0:1|0:0,0:0:0:0:
0,350,46836,1,0,0:0:0:0:
0,350,46933,2,0,L|77:340,1,63.7500012159348,4|0,1:2|0:0,0:0:0:0:
258,308,47127,6,0,L|187:297,1,63.7500012159348,2|0,0:0|0:0,0:0:0:0:
92,254,47320,2,0,L|154:263,1,63.7500012159348,6|0,0:2|0:0,0:0:0:0:
336,171,47514,2,0,L|265:160,1,63.7500012159348,10|0,0:0|0:0,0:0:0:0:
108,87,47707,2,0,L|170:96,1,63.7500012159348,6|0,1:2|0:0,0:0:0:0:
427,50,47901,2,0,L|356:39,1,63.7500012159348,10|0,0:0|0:0,0:0:0:0:
433,310,48094,6,0,P|448:253|399:178,1,127.50000243187,4|0,0:0|0:0,0:0:0:0:
342,172,48385,1,2,0:0:0:0:
288,275,48482,2,0,L|350:263,1,63.7500012159348,6|0,1:2|0:0,0:0:0:0:
192,188,48675,2,0,L|254:199,1,63.7500012159348,0|0,0:0|0:0,0:0:0:0:
136,351,48869,6,0,P|42:353|16:330,1,127.50000243187,14|2,0:0|0:0,0:0:0:0:
2,182,49159,1,8,0:0:0:0:
2,182,49256,2,0,P|11:210|11:251,1,63.7500012159348,4|0,1:2|0:0,0:0:0:0:
114,223,49449,2,0,P|107:251|87:287,1,63.7500012159348,8|0,0:0|0:0,0:0:0:0:
278,298,49643,6,0,P|369:265|384:231,1,127.50000243187,6|2,0:0|0:0,0:0:0:0:
459,201,49933,1,8,0:0:0:0:
373,94,50030,2,0,L|395:180,1,63.7500012159348,4|0,1:2|0:0,0:0:0:0:
488,22,50224,2,0,L|457:117,1,63.7500012159348,2|0,0:0|0:0,0:0:0:0:
293,208,50417,6,0,L|246:39,1,127.50000243187,6|0,0:0|0:0,0:0:0:0:
115,36,50707,1,8,0:3:0:0:
115,36,50804,2,0,P|154:43|178:30,1,63.7500012159348,6|0,1:2|0:0,0:0:0:0:
109,143,50998,2,0,P|70:136|34:151,1,63.7500012159348,0|0,0:0|0:0,0:0:0:0:
75,256,51191,6,0,L|90:317,1,63.7500012159348,4|0,0:0|0:0,0:0:0:0:
145,384,51385,2,0,L|129:322,1,63.7500012159348,0|0,0:0|0:0,0:0:0:0:
202,58,51578,2,0,L|182:123,1,63.7500012159348,6|8,1:2|0:0,0:0:0:0:
202,256,51772,2,0,L|219:194,1,63.7500012159348,0|2,0:0|0:0,0:0:0:0:
442,0,51965,2,0,L|395:43,1,63.7500012159348,6|0,0:0|0:0,0:0:0:0:
315,174,52159,2,0,L|361:130,1,63.7500012159348,10|0,0:0|0:0,0:0:0:0:
505,298,52353,1,6,1:2:0:0:
505,298,52449,2,0,P|449:275|368:305,1,127.50000243187,0|0,1:0|0:0,0:0:0:0:
342,384,52740,6,0,L|355:211,1,127.50000243187,6|2,0:2|0:0,0:0:0:0:
444,352,53030,1,0,0:0:0:0:
444,352,53127,2,0,L|367:342,1,63.7500012159348,6|0,1:2|0:0,0:0:0:0:
186,310,53321,6,0,L|257:299,1,63.7500012159348,2|0,0:0|0:0,0:0:0:0:
352,256,53514,2,0,L|290:265,1,63.7500012159348,6|0,0:0|0:0,0:0:0:0:
108,173,53708,2,0,L|179:162,1,63.7500012159348,10|0,0:0|0:0,0:0:0:0:
336,89,53901,2,0,L|274:98,1,63.7500012159348,6|0,1:2|0:0,0:0:0:0:
17,52,54095,2,0,L|88:41,1,63.7500012159348,2|0,0:0|0:0,0:0:0:0:
446,159,54288,6,0,L|279:183,1,127.50000243187,12|0,0:0|0:0,0:0:0:0:
260,235,54578,1,2,0:0:0:0:
342,315,54675,2,0,P|348:272|331:240,1,63.7500012159348,6|0,1:2|0:0,0:0:0:0:
484,308,54869,2,0,P|450:281|413:280,1,63.7500012159348,0|0,0:0|0:0,0:0:0:0:
487,98,55062,6,0,P|489:189|529:214,1,127.50000243187,6|8,0:0|0:0,0:0:0:0:
384,167,55353,1,0,0:0:0:0:
384,167,55449,2,0,L|291:179,1,63.7500012159348,6|0,1:2|0:0,0:0:0:0:
425,47,55643,2,0,L|350:103,1,63.7500012159348,0|2,0:0|0:0,0:0:0:0:
386,299,55836,6,0,P|300:260|243:298,1,127.50000243187,14|0,0:0|0:0,0:0:0:0:
222,336,56127,1,0,0:0:0:0:
172,195,56224,2,0,L|199:290,1,63.7500012159348,6|8,1:2|0:3,0:0:0:0:
128,323,56417,2,0,L|155:418,1,63.7500012159348,8|8,0:3|0:3,0:0:0:0:
369,195,56611,2,0,L|342:290,1,63.7500012159348,6|0,0:0|0:0,0:0:0:0:
413,323,56804,2,0,L|386:418,1,63.7500012159348,8|8,0:0|0:3,0:0:0:0:
256,57,56998,2,0,L|255:160,1,63.7500012159348,4|8,1:2|0:3,0:0:0:0:
255,306,57191,2,0,L|254:409,1,63.7500012159348,8|8,0:3|0:3,0:0:0:0:
95,326,57385,5,12,0:0:0:0:
54,288,57482,1,0,0:0:0:0:
92,251,57578,1,0,1:0:0:0:
128,288,57675,1,0,0:0:0:0:
104,359,57772,1,8,0:0:0:0:
19,331,57869,1,2,0:0:0:0:
19,242,57965,1,0,0:0:0:0:
104,214,58062,1,0,0:0:0:0:
156,286,58159,6,0,P|227:301|291:208,1,170.000003242493,8|2,0:0|0:0,0:0:0:0:
294,220,58482,1,2,0:0:0:0:
292,199,58546,2,0,L|275:154,1,42.5000008106232,8|0,1:2|0:0,0:0:0:0:
227,80,58675,2,0,L|249:25,3,42.5000008106232,0|2|2|2,0:0|0:0|0:0|0:0,0:0:0:0:
114,75,58933,6,0,L|246:80,1,112.500004291535,4|0,1:1|0:0,0:0:0:0:
408,140,59224,2,0,L|472:126,2,56.2500021457673,8|6|0,0:0|1:2|0:0,0:0:0:0:
470,289,59514,2,0,L|373:268,1,56.2500021457673,2|0,0:0|0:0,0:0:0:0:
230,360,59707,2,0,P|211:288|244:225,1,112.500004291535,6|2,0:2|0:0,0:0:0:0:
326,164,59998,2,0,L|314:228,1,56.2500021457673,8|6,0:0|1:2,0:0:0:0:
112,368,60288,2,0,L|107:299,1,56.2500021457673,2|0,0:0|0:0,0:0:0:0:
27,143,60482,6,0,B|7:236|7:236|44:204,1,112.500004291535,6|2,0:2|0:0,0:0:0:0:
190,174,60772,2,0,L|258:180,2,56.2500021457673,8|6|0,0:0|1:2|0:0,0:0:0:0:
283,272,61062,2,0,L|360:254,1,56.2500021457673,0|0,0:0|0:0,0:0:0:0:
402,70,61256,2,0,P|377:131|397:180,1,112.500004291535,6|2,0:2|0:0,0:0:0:0:
470,307,61546,2,0,P|474:333|455:383,2,56.2500021457673,8|6|0,0:0|1:2|0:0,0:0:0:0:
257,243,61836,1,0,0:0:0:0:
257,243,61933,1,0,0:0:0:0:
339,258,62030,6,0,L|206:289,1,112.500004291535,6|0,0:2|0:0,0:0:0:0:
72,218,62320,2,0,L|-6:213,2,56.2500021457673,0|6|0,0:0|1:2|0:0,0:0:0:0:
110,366,62611,2,0,L|124:283,1,56.2500021457673,8|2,0:0|0:0,0:0:0:0:
172,82,62804,2,0,P|167:141|197:214,1,112.500004291535,12|0,0:2|0:0,0:0:0:0:
339,258,63094,2,0,L|409:236,2,56.2500021457673,0|6|0,0:0|1:2|0:0,0:0:0:0:
223,373,63385,2,0,L|287:355,1,56.2500021457673,8|0,0:0|0:0,0:0:0:0:
472,329,63578,6,0,L|466:263,1,56.2500021457673,4|0,0:1|0:0,0:0:0:0:
460,185,63772,2,0,L|466:242,1,56.2500021457673,2|0,0:0|0:0,0:0:0:0:
327,220,63965,6,0,L|332:163,1,56.2500021457673,4|0,0:1|0:0,0:0:0:0:
344,31,64159,2,0,L|338:87,1,56.2500021457673,2|0,0:0|0:0,0:0:0:0:
232,342,64353,6,0,L|226:276,1,56.2500021457673,4|0,0:1|0:0,0:0:0:0:
206,106,64547,2,0,L|211:162,1,56.2500021457673,0|2,0:0|0:0,0:0:0:0:
121,355,64739,5,2,1:2:0:0:
81,352,64836,1,2,1:2:0:0:
50,327,64933,1,2,0:3:0:0:
40,288,65030,1,2,0:0:0:0:
130,213,65127,6,0,L|118:316,1,63.7500012159348,4|2,0:1|0:0,0:0:0:0:
260,367,65320,1,8,0:0:0:0:
260,367,65417,2,0,L|251:288,1,63.7500012159348,2|0,0:2|0:0,0:0:0:0:
382,213,65611,1,8,0:0:0:0:
382,213,65707,2,0,L|394:313,1,63.7500012159348,0|0,0:0|0:0,0:0:0:0:
418,74,65901,5,12,0:0:0:0:
476,128,65998,2,0,L|396:115,1,63.7500012159348,2|0,0:0|0:0,0:0:0:0:
243,52,66191,1,2,0:2:0:0:
243,52,66288,2,0,L|323:39,1,63.7500012159348,0|0,0:0|0:0,0:0:0:0:
183,149,66482,2,0,L|103:136,1,63.7500012159348,8|0,0:0|0:0,0:0:0:0:
0,290,66675,6,0,P|49:249|123:271,1,127.50000243187,6|8,0:0|0:0,0:0:0:0:
209,317,66965,1,2,0:0:0:0:
209,317,67062,2,0,L|144:365,1,63.7500012159348,4|8,1:2|0:0,0:0:0:0:
307,250,67256,2,0,L|322:330,1,63.7500012159348,2|0,0:0|0:0,0:0:0:0:
512,183,67449,6,0,P|463:224|389:202,1,127.50000243187,12|2,0:2|0:0,0:0:0:0:
303,156,67739,1,2,0:0:0:0:
303,156,67836,2,0,L|368:108,1,63.7500012159348,4|0,1:1|0:0,0:0:0:0:
205,223,68030,2,0,L|190:143,1,63.7500012159348,8|0,0:0|0:0,0:0:0:0:
84,299,68224,5,4,1:0:0:0:
113,264,68320,1,2,0:0:0:0:
81,234,68417,1,10,0:0:0:0:
49,266,68514,1,2,0:0:0:0:
153,351,68611,5,2,1:2:0:0:
211,346,68707,1,2,0:0:0:0:
209,288,68804,1,10,0:0:0:0:
149,289,68901,1,10,0:0:0:0:
298,302,68998,5,2,1:2:0:0:
344,251,69094,1,0,0:0:0:0:
294,202,69191,1,0,0:0:0:0:
245,254,69288,1,0,1:0:0:0:
425,363,69385,5,0,1:0:0:0:
497,337,69482,1,2,0:0:0:0:
494,259,69578,1,10,0:0:0:0:
420,239,69675,1,10,0:0:0:0:
378,303,69772,5,4,0:1:0:0:
377,303,70062,1,4,0:1:0:0:
377,303,70353,1,4,0:1:0:0:
377,303,70546,1,4,0:1:0:0:
377,303,70933,1,0,0:0:0:0:
377,303,71320,6,0,B|312:285|312:285|219:307,1,127.50000243187,4|0,0:1|0:0,0:0:0:0:
33,341,71611,2,0,B|98:359|98:359|191:337,1,127.50000243187,8|2,0:0|0:0,0:0:0:0:
168,241,71901,2,0,L|153:176,1,63.7500012159348,8|0,0:0|0:0,0:0:0:0:
290,0,72094,6,0,P|262:73|313:118,1,127.50000243187,6|0,0:2|0:0,0:0:0:0:
415,272,72385,2,0,P|443:199|392:154,1,127.50000243187,8|0,0:0|0:0,0:0:0:0:
299,237,72675,2,0,L|252:309,1,63.7500012159348,8|0,0:0|0:0,0:0:0:0:
59,232,72869,6,0,P|119:211|187:237,1,127.50000243187,6|2,0:2|0:0,0:0:0:0:
417,234,73159,2,0,P|357:255|289:229,1,127.50000243187,8|0,0:0|0:0,0:0:0:0:
238,145,73449,2,0,L|213:69,1,63.7500012159348,8|0,0:0|0:0,0:0:0:0:
114,310,73643,1,6,0:0:0:0:
350,151,73836,1,2,0:0:0:0:
400,362,74030,1,4,1:2:0:0:
14,227,74224,2,0,L|82:197,1,63.7500012159348,8|0,0:0|0:0,0:0:0:0:
251,226,74417,6,0,P|269:251|271:291,1,63.7500012159348,12|0,0:2|0:0,0:0:0:0:
199,341,74611,1,2,0:0:0:0:
114,310,74707,2,0,P|78:305|34:336,2,63.7500012159348,8|0|2,0:2|0:0|0:0,0:0:0:0:
302,380,74998,2,0,L|384:358,1,63.7500012159348,2|0,0:0|0:0,0:0:0:0:
475,369,75191,1,6,0:0:0:0:
423,150,75385,1,8,0:0:0:0:
199,341,75578,1,6,1:2:0:0:
251,122,75772,1,2,0:0:0:0:
133,239,75965,6,0,P|204:215|260:240,1,127.50000243187,12|2,0:2|0:0,0:0:0:0:
492,257,76256,1,10,0:0:0:0:
492,256,76353,2,0,P|464:273|433:277,1,63.7500012159348,4|0,1:2|0:0,0:0:0:0:
331,336,76546,2,0,L|340:238,1,63.7500012159348,8|0,0:0|0:0,0:0:0:0:
419,98,76740,5,4,0:1:0:0:
338,160,76836,2,0,P|321:132|317:101,1,63.7500012159348,2|0,0:0|0:0,0:0:0:0:
235,0,77030,1,2,0:0:0:0:
235,0,77127,2,0,P|226:65|108:83,1,191.250003647804,4|2,0:1|3:0,0:0:0:0:
268,168,77514,6,0,B|286:233|286:233|264:326,1,127.50000243187,4|0,0:1|0:0,0:0:0:0:
37,371,77805,2,0,B|19:306|19:306|41:213,1,127.50000243187,8|0,0:0|0:0,0:0:0:0:
131,173,78095,2,0,L|164:249,1,63.7500012159348,2|0,0:0|0:0,0:0:0:0:
224,364,78288,6,0,P|285:383|352:339,1,127.50000243187,12|2,0:2|0:0,0:0:0:0:
506,155,78578,2,0,P|445:136|378:180,1,127.50000243187,8|0,0:0|0:0,0:0:0:0:
275,248,78869,2,0,L|236:194,1,63.7500012159348,2|0,0:0|0:0,0:0:0:0:
342,0,79063,6,0,L|304:132,1,127.50000243187,12|0,0:2|0:0,0:0:0:0:
82,335,79353,2,0,L|117:212,1,127.50000243187,8|0,0:0|0:0,0:0:0:0:
114,47,79643,2,0,L|151:98,1,63.7500012159348,2|0,0:0|0:0,0:0:0:0:
238,194,79836,1,12,0:0:0:0:
116,212,79933,2,0,L|36:222,1,63.7500012159348,2|0,0:0|0:0,0:0:0:0:
196,317,80127,1,2,0:0:0:0:
196,317,80224,2,0,P|263:300|326:359,1,127.50000243187,6|2,1:2|0:0,0:0:0:0:
361,126,80611,6,0,L|349:240,1,63.7500012159348,12|0,0:2|0:0,0:0:0:0:
400,336,80804,1,2,0:0:0:0:
446,253,80901,2,0,P|471:242|519:250,2,63.7500012159348,2|0|0,0:0|0:0|0:0,0:0:0:0:
310,330,81191,2,0,P|285:341|237:333,1,63.7500012159348,2|0,0:0|0:0,0:0:0:0:
101,380,81385,6,0,P|73:330|78:273,1,63.7500012159348,12|0,0:2|0:0,0:0:0:0:
133,207,81578,1,2,0:0:0:0:
146,113,81675,2,0,P|147:56|128:27,2,63.7500012159348,2|4|0,0:0|1:2|0:0,0:0:0:0:
0,186,81965,2,0,P|23:165|53:155,1,63.7500012159348,2|0,0:0|0:0,0:0:0:0:
245,145,82159,6,0,L|317:166,1,63.7500012159348,6|0,0:0|0:0,0:0:0:0:
358,253,82353,1,2,0:0:0:0:
435,122,82449,2,0,L|437:186,1,63.7500012159348,10|0,0:0|0:0,0:0:0:0:
456,348,82643,5,10,0:0:0:0:
419,359,82740,1,2,0:0:0:0:
386,347,82836,1,10,0:0:0:0:
297,298,82933,1,6,0:0:0:0:
246,372,83030,1,2,0:0:0:0:
169,317,83127,5,2,0:2:0:0:
151,290,83224,1,2,0:2:0:0:
120,300,83321,1,2,0:2:0:0:
120,332,83417,1,2,0:2:0:0:
151,342,83514,1,2,0:0:0:0:
151,342,83707,6,0,B|167:193,1,127.50000243187,4|2,0:1|0:0,0:0:0:0:
63,49,83998,2,0,B|76:175,1,127.50000243187,8|0,0:0|0:0,0:0:0:0:
162,108,84288,2,0,L|99:113,1,63.7500012159348,2|0,0:0|0:0,0:0:0:0:
24,263,84481,6,0,P|83:282|140:256,1,127.50000243187,12|0,0:2|0:0,0:0:0:0:
348,185,84772,2,0,P|288:165|231:191,1,127.50000243187,8|0,0:0|0:0,0:0:0:0:
242,303,85062,2,0,L|297:342,1,63.7500012159348,8|0,0:0|0:0,0:0:0:0:
442,257,85256,6,0,L|431:120,1,127.50000243187,12|0,0:2|0:0,0:0:0:0:
303,0,85546,2,0,L|292:127,1,127.50000243187,8|0,0:2|0:0,0:0:0:0:
279,242,85836,2,0,L|362:215,1,63.7500012159348,2|0,0:0|0:0,0:0:0:0:
427,40,86030,5,12,0:0:0:0:
195,188,86224,1,0,0:0:0:0:
303,0,86417,1,6,1:2:0:0:
445,256,86611,2,0,L|465:191,1,63.7500012159348,2|0,0:0|0:0,0:0:0:0:
303,291,86804,6,0,L|215:324,1,63.7500012159348,12|0,0:0|0:0,0:0:0:0:
155,350,86998,1,2,0:0:0:0:
77,291,87094,2,0,P|47:286|-20:309,2,63.7500012159348,8|0|0,0:2|0:0|0:0,0:0:0:0:
145,204,87385,2,0,P|125:164|127:127,1,63.7500012159348,2|0,0:0|0:0,0:0:0:0:
212,25,87578,1,12,0:0:0:0:
33,208,87772,1,2,0:0:0:0:
242,133,87965,1,12,1:2:0:0:
385,249,88159,1,2,0:0:0:0:
251,369,88352,6,0,P|228:313|271:237,1,127.50000243187,12|2,0:0|0:0,0:0:0:0:
136,128,88643,2,0,P|159:184|116:260,1,127.50000243187,8|0,0:0|0:0,0:0:0:0:
30,246,88933,2,0,L|41:184,1,63.7500012159348,2|0,0:0|0:0,0:0:0:0:
11,371,89127,5,4,0:1:0:0:
112,337,89223,2,0,P|151:328|185:335,1,63.7500012159348,10|2,0:0|0:0,0:0:0:0:
346,152,89417,1,10,0:0:0:0:
346,152,89514,2,0,P|283:151|254:263,1,191.250003647804,2|0,1:2|0:0,0:0:0:0:
438,230,89901,6,0,B|451:72,1,127.50000243187,12|0,0:0|0:0,0:0:0:0:
328,229,90191,2,0,B|338:356,1,127.50000243187,8|0,0:0|0:0,0:0:0:0:
482,331,90482,2,0,L|412:312,1,63.7500012159348,2|0,0:0|0:0,0:0:0:0:
257,362,90675,6,0,P|201:389|142:370,1,127.50000243187,12|2,0:0|0:0,0:0:0:0:
0,253,90965,2,0,P|56:226|115:245,1,127.50000243187,8|0,0:0|0:0,0:0:0:0:
202,172,91256,2,0,L|220:95,1,63.7500012159348,0|0,0:0|0:0,0:0:0:0:
344,13,91449,6,0,L|374:136,1,127.50000243187,12|2,0:0|0:0,0:0:0:0:
254,358,91740,2,0,L|285:233,1,127.50000243187,8|0,0:0|0:0,0:0:0:0:
409,266,92030,2,0,L|524:259,1,63.7500012159348,2|0,0:0|0:0,0:0:0:0:
361,361,92223,1,4,0:0:0:0:
254,358,92320,2,0,L|139:351,1,63.7500012159348,10|0,0:0|0:0,0:0:0:0:
51,384,92514,1,2,0:0:0:0:
51,384,92611,2,0,P|44:343|66:302,1,63.7500012159348,4|0,1:2|0:0,0:0:0:0:
142,233,92804,1,8,0:0:0:0:
358,361,92998,5,12,1:2:0:0:
430,66,93191,1,2,0:0:0:0:
162,295,93385,5,12,1:2:0:0:
90,0,93578,1,2,0:0:0:0:
350,86,93772,2,0,L|391:76,3,42.5000008106232,12|2|2|2,1:2|0:0|0:0|0:0,0:0:0:0:
19,79,94159,1,4,1:0:0:0:
297,8,94353,1,2,0:0:0:0:
463,189,94546,6,0,L|399:183,1,63.7500012159348,12|0,1:2|0:0,0:0:0:0:
187,309,94740,1,2,0:0:0:0:
396,270,94836,2,0,L|250:256,1,127.50000243187,8|0,1:2|0:0,0:0:0:0:
43,372,95127,2,0,L|115:356,1,63.7500012159348,2|0,0:0|0:0,0:0:0:0:
313,382,95320,2,0,P|348:314|229:281,1,191.250003647804,4|0,0:1|0:0,0:0:0:0:
110,269,95707,2,0,P|71:184|131:138,1,146.249993305207,8|0,0:3|0:0,0:0:0:0:
177,52,96094,6,0,L|300:89,1,112.500004291535,12|0,0:2|0:0,0:0:0:0:
383,171,96385,2,0,L|445:150,2,56.2500021457673,2|0|0,0:0|1:2|0:0,0:0:0:0:
228,241,96675,2,0,L|301:259,1,56.2500021457673,2|0,0:0|0:0,0:0:0:0:
381,345,96868,2,0,L|429:332,3,37.5000014305115,2|0|0|0,0:0|0:0|0:0|0:0,0:0:0:0:
282,370,97159,1,2,0:0:0:0:
282,370,97256,1,0,1:0:0:0:
386,171,97449,1,0,0:0:0:0:
259,15,97643,6,0,L|136:52,1,112.500004291535,2|0,0:2|0:0,0:0:0:0:
53,134,97934,2,0,L|-9:113,2,56.2500021457673,2|0|0,0:0|1:0|0:0,0:0:0:0:
208,204,98224,2,0,L|135:222,1,56.2500021457673,2|0,0:0|0:0,0:0:0:0:
57,303,98417,2,0,L|9:290,3,37.5000014305115,2|0|0|8,0:0|0:0|0:0|0:3,0:0:0:0:
170,330,98708,1,0,0:0:0:0:
170,330,98805,1,0,1:0:0:0:
53,133,98998,1,0,0:0:0:0:
286,27,99191,5,2,0:0:0:0:
251,103,99288,2,0,L|273:10,1,56.2500021457673,2|0,0:0|0:0,0:0:0:0:
346,179,99482,2,0,L|362:272,2,56.2500021457673,8|0|0,0:3|0:0|0:0,0:0:0:0:
225,221,99772,1,2,0:0:0:0:
104,141,99965,1,2,0:0:0:0:
41,192,100062,2,0,L|104:179,1,56.2500021457673,2|0,0:0|0:0,0:0:0:0:
195,91,100256,2,0,L|250:102,2,56.2500021457673,8|0|0,0:3|0:0|0:0,0:0:0:0:
225,221,100546,1,2,0:0:0:0:
334,0,100740,6,0,L|368:143,1,112.500004291535,2|0,0:0|0:0,0:0:0:0:
447,238,101030,2,0,L|456:170,2,56.2500021457673,8|0|0,0:3|0:0|0:0,0:0:0:0:
362,365,101320,2,0,L|452:343,1,56.2500021457673,8|0,0:3|0:0,0:0:0:0:
278,266,101514,1,0,0:0:0:0:
157,384,101707,1,2,0:0:0:0:
18,77,101901,1,4,1:1:0:0:
18,77,102288,6,0,P|100:56|128:128,1,168.750006437302,8|0,0:3|0:0,0:0:0:0:
42,174,102675,2,0,P|10:245|96:328,1,168.750006437302,0|0,1:0|0:0,0:0:0:0:
159,343,103062,1,2,0:0:0:0:
332,247,103256,1,2,0:0:0:0:
125,195,103449,1,2,1:2:0:0:
343,366,103643,1,2,0:0:0:0:
494,77,103836,6,0,P|412:56|384:128,1,168.750006437302,8|2,0:3|0:0,0:0:0:0:
470,174,104223,2,0,P|502:245|416:328,1,168.750006437302,0|0,1:1|0:0,0:0:0:0:
318,258,104611,2,0,L|313:174,1,56.2500021457673,4|0,0:1|0:0,0:0:0:0:
211,32,104804,2,0,L|181:133,1,56.2500021457673,0|2,0:0|1:2,0:0:0:0:
113,196,104998,5,2,1:2:0:0:
194,170,105094,1,2,0:0:0:0:
194,85,105191,1,2,0:0:0:0:
113,59,105288,1,2,0:0:0:0:
65,128,105385,5,8,0:0:0:0:
331,148,105579,1,8,0:0:0:0:
342,123,105965,5,8,0:0:0:0:
7,179,106159,1,8,0:0:0:0:
21,206,106546,5,8,0:0:0:0:
391,278,106740,1,8,0:0:0:0:
405,247,107127,5,10,0:0:0:0:
70,354,107320,1,4,1:0:0:0:
83,324,107416,1,0,0:0:0:0:
110,305,107513,1,2,0:0:0:0:
144,306,107610,1,0,0:0:0:0:
172,327,107707,2,0,L|159:410,1,48.7499977684022,0|0,0:0|0:0,0:0:0:0:
261,282,107900,6,0,L|253:240,2,32.4999985122681,2|0|0,0:0|0:0|0:0,0:0:0:0:
331,346,108094,1,0,1:0:0:0:
331,346,108191,1,0,1:0:0:0:
398,278,108287,2,0,L|406:236,2,32.4999985122681,2|0|0,0:3|0:0|0:0,0:0:0:0:
416,358,108482,6,0,B|404:246,1,112.500004291535,4|0,1:0|0:0,0:0:0:0:
487,211,108772,1,4,0:0:0:0:
487,211,108869,1,2,1:2:0:0:
253,253,109063,1,6,0:0:0:0:
285,94,109256,2,0,P|321:135|320:189,1,112.500004291535,2|4,0:0|0:0,0:0:0:0:
445,284,109546,2,0,P|408:242|409:188,1,112.500004291535,2|0,0:0|0:0,0:0:0:0:
79,170,109837,6,0,P|153:135|229:167,1,168.750006437302,6|0,0:0|0:0,0:0:0:0:
254,253,110224,1,6,0:0:0:0:
14,240,110417,1,2,1:2:0:0:
114,47,110611,1,6,0:0:0:0:
156,245,110805,2,0,L|138:356,1,112.500004291535,2|4,0:0|0:0,0:0:0:0:
393,173,111095,2,0,L|376:62,1,112.500004291535,8|0,0:0|0:0,0:0:0:0:
482,250,111385,1,12,0:0:0:0:
268,346,111579,6,0,P|317:321|372:324,1,112.500004291535,2|6,0:0|0:0,0:0:0:0:
447,351,111869,1,2,0:0:0:0:
447,351,111966,1,2,1:2:0:0:
310,231,112159,1,6,0:0:0:0:
496,138,112353,2,0,B|385:152,1,112.500004291535,2|4,0:0|0:0,0:0:0:0:
189,56,112643,2,0,B|300:69,1,112.500004291535,2|0,0:0|0:0,0:0:0:0:
135,346,112934,6,0,P|193:274|148:213,1,168.750006437302,6|0,0:0|0:0,0:0:0:0:
40,74,113321,1,6,0:0:0:0:
40,74,113417,1,2,0:0:0:0:
40,74,113514,5,2,1:2:0:0:
22,109,113611,1,2,0:0:0:0:
36,147,113708,1,6,0:0:0:0:
70,166,113805,1,2,0:0:0:0:
108,157,113901,2,0,L|157:92,1,56.2500021457673,10|0,0:0|0:0,0:0:0:0:
244,58,114094,5,0,0:0:0:0:
293,66,114190,1,0,0:0:0:0:
331,98,114287,1,0,0:0:0:0:
349,145,114384,1,0,0:0:0:0:
341,194,114481,1,0,0:0:0:0:
309,233,114577,1,0,0:0:0:0:
262,251,114676,6,0,P|212:242|149:311,1,112.500004291535,4|0,0:1|0:0,0:0:0:0:
179,363,114966,1,6,0:0:0:0:
179,363,115063,1,2,1:2:0:0:
269,164,115256,1,6,0:0:0:0:
380,359,115449,2,0,L|401:226,1,112.500004291535,2|4,0:0|0:0,0:0:0:0:
462,80,115740,2,0,L|479:191,1,112.500004291535,2|0,0:0|0:0,0:0:0:0:
179,51,116030,6,0,P|257:89|268:164,1,168.750006437302,6|0,0:0|0:0,0:0:0:0:
192,210,116417,1,6,0:0:0:0:
192,210,116514,1,2,0:0:0:0:
116,156,116611,1,2,1:2:0:0:
337,44,116805,1,6,0:0:0:0:
397,214,116998,1,2,0:0:0:0:
177,54,117192,1,4,0:0:0:0:
157,316,117385,1,2,1:2:0:0:
267,125,117579,1,4,0:0:0:0:
51,186,117772,6,0,P|101:154|167:166,1,112.500004291535,2|4,0:0|0:0,0:0:0:0:
342,201,118063,2,0,P|292:233|226:221,1,112.500004291535,2|0,0:0|0:0,0:0:0:0:
176,57,118353,2,0,L|221:1,1,56.2500021457673,12|0,0:0|0:0,0:0:0:0:
386,10,118546,6,0,P|418:60|406:126,1,112.500004291535,2|4,0:0|0:0,0:0:0:0:
370,302,118837,2,0,P|338:252|350:186,1,112.500004291535,2|0,0:0|0:0,0:0:0:0:
497,253,119127,2,0,L|492:355,1,56.2500021457673,12|0,0:0|0:0,0:0:0:0:
241,378,119321,6,0,L|214:258,1,112.500004291535,4|6,0:1|0:0,0:0:0:0:
125,107,119611,1,8,0:0:0:0:
120,205,119708,1,4,1:1:0:0:
240,68,119901,1,4,0:0:0:0:
119,298,120095,2,0,L|65:315,1,56.2500021457673,4|2,0:1|0:0,0:0:0:0:
221,352,120288,2,0,L|277:363,8,37.5000014305115,2|0|0|2|0|0|2|2|2,0:0|0:0|0:0|1:2|0:0|0:0|0:0|0:0|0:0,0:0:0:0:
223,262,120869,6,0,L|261:137,1,112.500004291535,10|4,0:0|0:0,0:0:0:0:
119,298,121159,2,0,L|65:315,1,56.2500021457673,10|2,1:2|0:0,0:0:0:0:
138,203,121353,1,0,0:0:0:0:
138,203,121450,2,0,L|128:127,1,56.2500021457673,2|0,0:0|0:0,0:0:0:0:
425,48,121643,6,0,P|459:94|432:182,1,112.500004291535,10|6,0:0|0:0,0:0:0:0:
348,88,121934,2,0,L|325:19,1,56.2500021457673,10|2,1:2|0:0,0:0:0:0:
349,198,122127,1,0,0:0:0:0:
349,198,122224,2,0,L|335:260,1,56.2500021457673,2|0,0:0|0:0,0:0:0:0:
12,274,122417,6,0,P|73:264|141:292,1,112.500004291535,10|4,0:0|0:0,0:0:0:0:
122,169,122708,2,0,L|101:101,1,56.2500021457673,10|2,1:2|0:0,0:0:0:0:
211,234,122901,1,0,0:0:0:0:
211,234,122998,2,0,L|236:319,1,56.2500021457673,10|0,0:0|0:0,0:0:0:0:
322,361,123191,5,8,0:0:0:0:
373,114,123384,2,0,L|387:59,2,37.5000014305115,6|2|2,1:2|0:0|0:0,0:0:0:0:
355,209,123578,1,10,0:0:0:0:
314,0,123771,1,12,0:0:0:0:
461,215,123966,6,0,P|410:196|356:208,1,112.500004291535,10|4,0:0|1:2,0:0:0:0:
402,311,124256,2,0,L|457:327,1,56.2500021457673,10|0,0:0|0:0,0:0:0:0:
293,308,124450,1,2,0:0:0:0:
293,308,124546,2,0,L|204:286,1,56.2500021457673,12|0,0:0|0:0,0:0:0:0:
299,127,124740,6,0,L|431:89,1,112.500004291535,10|4,0:0|1:2,0:0:0:0:
263,47,125030,2,0,L|180:76,1,56.2500021457673,10|0,0:0|0:0,0:0:0:0:
10,67,125224,1,2,0:0:0:0:
78,108,125321,1,12,0:0:0:0:
78,30,125417,1,2,0:0:0:0:
5,208,125514,6,0,L|38:256,1,56.2500021457673,4|0,0:1|0:0,0:0:0:0:
215,325,125708,1,0,1:0:0:0:
136,201,125805,2,0,L|204:309,1,112.500004291535,4|2,0:1|0:0,0:0:0:0:
5,208,126094,1,2,0:0:0:0:
282,196,126288,1,4,1:0:0:0:
256,192,126385,12,0,128224,0:0:0:0:
