osu file format v14

[General]
AudioFilename: audio.mp3
AudioLeadIn: 0
PreviewTime: 46449
Countdown: 1
SampleSet: None
StackLeniency: 0.7
Mode: 0
LetterboxInBreaks: 0
WidescreenStoryboard: 0

[Editor]
DistanceSpacing: 0.6
BeatDivisor: 4
GridSize: 8
TimelineZoom: 1.5

[Metadata]
Title:Dream Leaf
TitleUnicode:Dream Leaf
Artist:mitsukiyo
ArtistUnicode::ミツキヨ
Creator:celerih
Version:PandaHero's Hyper
Source:
Tags:Azer kwk PandaHero 緑の手紙
BeatmapID:1872791
BeatmapSetID:892188

[Difficulty]
HPDrainRate:5
CircleSize:4
OverallDifficulty:7
ApproachRate:8
SliderMultiplier:1.5
SliderTickRate:1

[Events]
//Background and Video events
0,0,"Dream Leaf BG 1.jpg",0,0
//Break Periods
2,34359,39603
//Storyboard Layer 0 (Background)
//Storyboard Layer 1 (Fail)
//Storyboard Layer 2 (Pass)
//Storyboard Layer 3 (Foreground)
//Storyboard Sound Samples

[TimingPoints]
95,387.096774193548,4,2,1,60,1,0
1643,-142.857142857143,4,2,1,30,0,0
7836,-142.857142857143,4,2,1,30,0,0
12869,-100,4,2,1,30,0,0
13256,-100,4,2,1,60,0,0
13643,-100,4,2,1,60,0,0
14030,-83.3333333333333,4,2,1,60,0,0
26417,-83.3333333333333,4,2,1,80,0,0
32611,-142.857142857143,4,2,1,40,0,0
40353,-100,4,2,1,30,0,0
44224,-100,4,2,1,60,0,0
44998,-83.3333333333333,4,2,1,70,0,0
71320,-71.4285714285714,4,2,1,80,0,1
83224,-100,4,2,1,80,0,1
83611,-71.4285714285714,4,2,1,80,0,0
83707,-71.4285714285714,4,2,1,80,0,1
95320,-71.4285714285714,4,2,1,60,0,0
95707,-71.4285714285714,4,2,1,70,0,0
96094,-100,4,2,1,70,0,0
105965,-100,4,2,1,60,0,0
108482,-83.3333333333333,4,2,1,70,0,0
126675,-100,4,2,1,20,0,0

[Colours]
Combo1 : 140,224,116
Combo2 : 237,199,82
Combo3 : 243,84,84
Combo4 : 240,117,57

[HitObjects]
123,197,1643,6,0,P|151:192|205:189,2,78.7499975967408,4|0|0,0:3|0:0|0:0,0:0:0:0:
63,249,2417,2,0,L|79:338,2,78.7499975967408,8|0|0,0:3|0:0|0:0,0:0:0:0:
36,174,3191,2,0,L|56:97,1,78.7499975967408,0|0,0:0|0:0,0:0:0:0:
154,32,3772,1,0,0:0:0:0:
225,54,3965,1,8,0:3:0:0:
225,54,4546,5,0,0:0:0:0:
179,114,4740,1,8,0:3:0:0:
191,192,4933,1,0,0:0:0:0:
191,192,5030,1,0,0:0:0:0:
307,209,5320,1,0,0:0:0:0:
373,251,5514,2,0,L|365:316,1,52.4999983978272,8|0,0:3|0:0,0:0:0:0:
288,314,5901,2,0,L|296:378,1,52.4999983978272,0|0,0:0|0:0,0:0:0:0:
215,362,6288,6,0,P|184:359|131:331,2,78.7499975967408,8|0|0,0:3|0:0|0:0,0:0:0:0:
236,286,7062,2,0,L|186:258,1,52.4999983978272,2|0,0:3|0:0,0:0:0:0:
168,184,7449,2,0,P|206:155|254:137,1,78.7499975967408,8|0,0:3|0:0,0:0:0:0:
270,138,7836,5,2,0:1:0:0:
270,138,8127,1,0,0:0:0:0:
270,138,8417,1,0,0:0:0:0:
363,174,8611,1,2,0:0:0:0:
363,174,8901,1,0,0:0:0:0:
363,174,9191,1,0,0:0:0:0:
430,106,9385,1,0,0:0:0:0:
430,106,9675,1,0,0:0:0:0:
430,106,9965,1,0,0:0:0:0:
340,28,10159,5,4,0:1:0:0:
309,36,10256,1,2,0:0:0:0:
281,43,10353,1,2,0:0:0:0:
253,50,10449,1,2,1:2:0:0:
230,68,10546,5,2,1:2:0:0:
201,60,10643,1,2,0:0:0:0:
172,53,10740,1,8,0:0:0:0:
144,46,10836,1,10,0:0:0:0:
119,61,10933,6,0,L|139:121,1,52.4999983978272,10|10,0:0|0:0,0:0:0:0:
309,168,11514,2,0,L|289:228,1,52.4999983978272,10|10,0:0|0:0,0:0:0:0:
118,286,11998,1,0,0:0:0:0:
118,286,12094,1,10,0:0:0:0:
58,209,12288,1,10,0:0:0:0:
234,279,12578,5,0,0:0:0:0:
234,279,12674,1,10,0:0:0:0:
281,354,12868,1,4,1:3:0:0:
378,357,13062,1,0,0:0:0:0:
378,357,13159,1,0,0:0:0:0:
378,357,13256,1,2,1:2:0:0:
426,272,13449,1,2,0:0:0:0:
426,272,13546,1,2,0:0:0:0:
426,272,13643,1,2,0:0:0:0:
353,206,13836,1,8,0:3:0:0:
353,206,13933,1,0,0:0:0:0:
353,206,14030,6,0,P|348:131|361:62,1,134.999995880127,4|4,1:0|0:0,0:0:0:0:
374,40,14417,2,0,L|241:56,1,89.9999972534181,2|6,1:2|0:0,0:0:0:0:
199,117,14804,2,0,B|159:95|53:96,1,134.999995880127,2|2,0:0|0:0,0:0:0:0:
35,114,15191,1,0,1:0:0:0:
100,202,15385,1,6,0:0:0:0:
100,202,15482,1,0,0:0:0:0:
100,202,15578,6,0,B|122:242|121:348,1,134.999995880127,0|0,0:0|0:0,0:0:0:0:
148,358,15965,1,2,1:2:0:0:
242,282,16159,1,6,0:0:0:0:
353,332,16353,2,0,P|421:344|466:342,1,89.9999972534181,2|4,0:0|0:0,0:0:0:0:
476,354,16643,1,8,0:0:0:0:
476,354,16740,2,0,L|463:240,1,89.9999972534181,2|12,1:2|0:0,0:0:0:0:
393,160,17127,6,0,P|308:175|225:176,1,134.999995880127,2|2,0:0|0:0,0:0:0:0:
224,167,17514,2,0,P|227:121|243:53,1,89.9999972534181,2|6,1:2|0:0,0:0:0:0:
118,153,17901,2,0,P|139:211|138:289,1,134.999995880127,2|2,0:0|0:0,0:0:0:0:
107,300,18288,1,0,1:0:0:0:
27,225,18482,2,0,P|26:157|48:94,1,134.999995880127,6|0,0:0|0:0,0:0:0:0:
77,73,18869,5,6,0:0:0:0:
109,57,18965,1,2,0:0:0:0:
144,62,19062,1,2,1:2:0:0:
173,82,19159,1,2,0:0:0:0:
200,105,19256,1,6,0:0:0:0:
233,119,19353,1,2,0:0:0:0:
268,115,19449,2,0,L|276:22,1,89.9999972534181,10|4,0:0|0:0,0:0:0:0:
360,150,19836,1,2,1:2:0:0:
357,185,19933,1,2,0:0:0:0:
353,220,20030,1,6,0:0:0:0:
348,255,20127,1,2,0:0:0:0:
347,291,20224,6,0,P|402:339|492:312,1,134.999995880127,4|6,0:1|0:0,0:0:0:0:
494,347,20611,2,0,L|485:236,1,89.9999972534181,2|6,1:2|0:0,0:0:0:0:
412,178,20998,2,0,L|299:197,1,89.9999972534181,2|4,0:0|0:0,0:0:0:0:
295,169,21288,1,2,0:0:0:0:
295,169,21385,2,0,L|182:188,1,89.9999972534181,0|6,1:0|0:0,0:0:0:0:
104,146,21772,5,2,0:0:0:0:
162,55,21965,1,6,0:0:0:0:
162,55,22062,1,2,0:0:0:0:
162,55,22159,1,2,1:2:0:0:
111,152,22353,1,6,0:0:0:0:
206,183,22546,1,2,0:0:0:0:
111,152,22740,1,4,0:0:0:0:
56,242,22933,1,2,1:2:0:0:
111,152,23127,1,4,0:0:0:0:
178,33,23320,6,0,P|252:20|329:57,1,134.999995880127,2|2,0:0|0:0,0:0:0:0:
334,63,23707,2,0,L|317:178,1,89.9999972534181,0|12,0:0|0:0,0:0:0:0:
392,250,24094,2,0,P|318:237|241:274,1,134.999995880127,2|2,0:0|0:0,0:0:0:0:
236,280,24481,2,0,L|253:395,1,89.9999972534181,0|12,0:0|0:0,0:0:0:0:
135,281,24869,6,0,L|126:175,1,89.9999972534181,4|6,0:1|0:0,0:0:0:0:
40,228,25256,2,0,L|32:317,1,89.9999972534181,4|4,1:1|0:0,0:0:0:0:
68,110,25643,2,0,P|111:85|169:82,1,89.9999972534181,4|2,0:1|0:0,0:0:0:0:
185,86,25933,1,2,0:0:0:0:
214,106,26030,1,2,1:2:0:0:
231,137,26127,1,2,1:2:0:0:
241,171,26224,1,2,1:2:0:0:
242,206,26320,1,0,1:0:0:0:
242,242,26417,6,0,B|225:292|225:292|254:394,2,134.999995880127,10|10|2,0:0|1:2|0:0,0:0:0:0:
404,244,27191,2,0,B|421:294|421:294|392:396,2,134.999995880127,10|10|2,0:0|1:2|0:0,0:0:0:0:
308,119,27965,2,0,B|262:145|262:145|156:136,1,134.999995880127,10|10,0:0|1:2,0:0:0:0:
144,131,28353,1,2,0:0:0:0:
48,80,28546,1,10,0:0:0:0:
130,10,28740,1,8,0:0:0:0:
228,53,28933,2,0,L|262:55,3,29.9999990844727,6|2|2|10,1:2|0:0|0:0|0:0,0:0:0:0:
130,10,29320,1,12,0:0:0:0:
30,135,29514,6,0,P|63:169|75:243,1,89.9999972534181,10|4,0:0|1:2,0:0:0:0:
76,208,29804,1,10,0:0:0:0:
76,208,29901,1,0,0:0:0:0:
89,315,30094,1,12,0:0:0:0:
228,358,30288,2,0,P|234:312|277:251,1,89.9999972534181,10|4,0:0|1:2,0:0:0:0:
254,273,30578,1,10,0:0:0:0:
254,273,30675,1,0,0:0:0:0:
387,180,30868,5,12,0:0:0:0:
387,180,30965,1,2,0:0:0:0:
387,180,31062,1,4,0:1:0:0:
301,113,31256,1,0,1:0:0:0:
301,113,31353,1,4,0:1:0:0:
387,48,31546,1,2,1:2:0:0:
387,48,31643,1,2,0:0:0:0:
474,111,31836,1,4,1:0:0:0:
387,180,32030,5,0,0:0:0:0:
380,196,32127,1,0,0:0:0:0:
373,212,32224,1,2,0:0:0:0:
367,228,32320,1,0,0:0:0:0:
363,245,32417,1,2,0:0:0:0:
358,262,32514,1,2,0:0:0:0:
354,279,32611,6,0,P|405:287|456:303,2,104.999996795654,2|2|2,0:0|0:0|0:0,0:0:0:0:
282,316,33578,1,8,0:3:0:0:
282,316,33772,2,0,P|239:329|174:338,1,104.999996795654,2|4,0:3|0:3,0:0:0:0:
256,192,40353,12,10,43449,0:3:0:0:
351,22,44417,5,2,0:0:0:0:
292,80,44611,2,0,L|254:74,3,37.5,2|0|2|0,1:2|0:0|0:0|0:0,0:0:0:0:
314,94,44998,6,0,P|323:153|325:202,1,89.9999972534181,4|2,1:1|0:0,0:0:0:0:
299,203,45288,2,0,P|241:196|194:195,1,89.9999972534181,8|0,0:0|0:0,0:0:0:0:
182,196,45578,1,2,0:0:0:0:
162,214,45675,1,2,0:0:0:0:
145,235,45772,1,8,1:2:0:0:
166,341,45965,1,10,0:0:0:0:
262,319,46159,1,8,0:0:0:0:
262,319,46546,6,0,P|176:301|94:311,1,134.999995880127,4|0,0:1|0:0,0:0:0:0:
93,308,46933,1,4,1:2:0:0:
51,208,47127,1,2,0:0:0:0:
51,208,47224,1,0,0:0:0:0:
51,208,47320,2,0,P|114:186|155:181,1,89.9999972534181,6|10,0:2|0:0,0:0:0:0:
189,100,47707,2,0,P|144:91|103:74,1,89.9999972534181,6|10,1:2|0:0,0:0:0:0:
41,179,48094,1,4,0:0:0:0:
40,180,48191,6,0,B|56:211|56:211|58:308,1,89.9999972534181,2|2,0:0|0:0,0:0:0:0:
70,300,48482,2,0,B|140:279|137:326|210:306,1,134.999995880127,6|0,1:2|0:0,0:0:0:0:
228,332,48869,2,0,P|299:313|352:314,1,89.9999972534181,14|2,0:0|0:0,0:0:0:0:
351,314,49159,1,8,0:0:0:0:
351,314,49256,2,0,P|345:270|330:227,1,89.9999972534181,4|8,1:2|0:0,0:0:0:0:
255,133,49643,5,6,0:0:0:0:
255,133,49740,2,0,B|224:149|224:149|127:151,1,89.9999972534181,0|8,0:0|0:0,0:0:0:0:
134,159,50030,2,0,B|145:80|126:22,1,134.999995880127,4|0,1:2|0:0,0:0:0:0:
90,23,50417,2,0,P|27:34|-12:23,1,89.9999972534181,6|0,0:0|0:0,0:0:0:0:
9,64,50707,1,8,0:3:0:0:
9,64,50804,2,0,P|10:113|18:164,1,89.9999972534181,6|0,1:2|0:0,0:0:0:0:
62,277,51191,5,4,0:0:0:0:
62,277,51288,2,0,B|93:261|93:261|190:259,1,89.9999972534181,0|0,0:0|0:0,0:0:0:0:
169,288,51578,2,0,P|237:319|308:310,1,134.999995880127,6|2,1:2|0:0,0:0:0:0:
330,324,51965,1,6,0:0:0:0:
388,228,52159,1,10,0:0:0:0:
279,223,52353,1,6,1:2:0:0:
279,223,52449,1,0,1:0:0:0:
279,223,52546,1,2,0:3:0:0:
466,299,52740,6,0,B|495:242|495:182|460:116,1,179.999994506836,6|6,0:2|1:2,0:0:0:0:
369,76,53320,1,2,0:0:0:0:
369,76,53417,1,0,0:0:0:0:
369,76,53514,2,0,P|312:80|257:90,1,89.9999972534181,6|10,0:0|0:0,0:0:0:0:
172,172,53901,2,0,P|229:176|284:186,1,89.9999972534181,6|2,1:2|0:0,0:0:0:0:
359,267,54288,5,12,0:0:0:0:
359,267,54385,2,0,B|368:300|368:300|352:396,1,89.9999972534181,8|2,0:3|0:0,0:0:0:0:
325,367,54675,2,0,B|260:384|263:337|193:358,1,134.999995880127,6|0,1:2|0:0,0:0:0:0:
158,365,55062,2,0,P|114:368|62:346,1,89.9999972534181,6|8,0:0|0:0,0:0:0:0:
41,331,55353,1,0,0:0:0:0:
45,295,55449,2,0,P|52:260|51:184,1,89.9999972534181,6|0,1:2|0:0,0:0:0:0:
6,81,55836,6,0,P|74:108|165:86,1,134.999995880127,14|0,0:0|0:0,0:0:0:0:
154,131,56224,2,0,P|211:120|261:120,1,89.9999972534181,6|8,1:2|0:3,0:0:0:0:
334,176,56611,2,0,P|378:173|422:163,1,89.9999972534181,6|8,0:0|0:0,0:0:0:0:
467,65,56998,2,0,P|423:55|311:60,1,134.999995880127,4|8,1:2|0:3,0:0:0:0:
305,79,57385,6,0,L|310:171,1,89.9999972534181,12|0,0:0|1:0,0:0:0:0:
253,217,57675,2,0,L|258:309,1,89.9999972534181,0|2,1:0|0:0,0:0:0:0:
201,353,57965,1,0,1:0:0:0:
201,353,58062,1,0,1:0:0:0:
201,353,58159,2,0,P|146:340|93:340,1,89.9999972534181,8|2,1:2|0:0,0:0:0:0:
15,361,58546,1,8,1:2:0:0:
22,256,58740,2,0,L|26:220,2,29.9999990844727,2|2|2,0:0|0:0|0:0,0:0:0:0:
63,251,58933,6,0,P|138:211|145:142,2,134.999995880127,4|8|2,1:1|0:0|0:0,0:0:0:0:
33,165,59707,2,0,L|59:63,1,89.9999972534181,6|2,0:2|0:0,0:0:0:0:
72,56,59998,1,8,0:0:0:0:
93,40,60094,1,6,1:2:0:0:
199,59,60288,1,2,0:0:0:0:
275,135,60482,6,0,P|262:188|261:274,2,134.999995880127,6|8|0,0:2|0:0|0:0,0:0:0:0:
373,209,61256,2,0,P|386:262|387:348,1,134.999995880127,6|8,0:2|0:0,0:0:0:0:
369,361,61643,2,0,P|321:354|277:351,1,89.9999972534181,6|0,1:2|0:0,0:0:0:0:
176,318,62030,6,0,P|101:345|36:353,2,134.999995880127,6|8|8,0:2|0:0|0:0,0:0:0:0:
205,213,62804,2,0,P|134:228|42:221,1,134.999995880127,12|8,0:2|0:0,0:0:0:0:
49,210,63191,1,6,1:2:0:0:
99,114,63385,1,8,0:0:0:0:
217,73,63578,6,0,P|277:84|316:153,1,134.999995880127,4|0,0:1|0:0,0:0:0:0:
414,145,63965,2,0,P|354:156|315:225,1,134.999995880127,4|0,0:1|0:0,0:0:0:0:
220,218,64353,2,0,P|280:229|319:298,1,134.999995880127,4|2,0:1|0:0,0:0:0:0:
341,302,64740,1,2,1:2:0:0:
360,320,64836,1,2,1:2:0:0:
383,334,64933,1,2,0:3:0:0:
408,343,65030,1,2,0:0:0:0:
434,345,65127,1,4,0:1:0:0:
461,343,65224,6,0,L|464:234,1,89.9999972534181,2|2,0:0|0:2,0:0:0:0:
440,238,65514,2,0,L|446:140,1,89.9999972534181,0|0,0:0|0:0,0:0:0:0:
463,55,65901,1,12,0:0:0:0:
463,55,65998,2,0,L|354:52,1,89.9999972534181,2|2,0:0|0:2,0:0:0:0:
358,76,66288,2,0,L|260:70,1,89.9999972534181,0|8,0:0|0:0,0:0:0:0:
152,133,66675,5,6,0:0:0:0:
242,192,66869,1,8,0:0:0:0:
242,192,66965,2,0,B|219:246|219:246|225:336,1,134.999995880127,2|2,0:0|0:0,0:0:0:0:
131,377,67449,1,12,0:2:0:0:
41,316,67643,1,2,0:0:0:0:
41,316,67740,2,0,B|46:239|46:239|23:185,1,134.999995880127,2|8,0:0|0:0,0:0:0:0:
96,105,68224,5,4,1:0:0:0:
96,105,68320,1,2,0:0:0:0:
201,113,68514,1,2,0:0:0:0:
201,113,68611,2,0,L|269:122,1,44.999998626709,2|2,1:2|0:0,0:0:0:0:
296,177,68804,2,0,L|357:172,1,44.999998626709,10|10,0:0|0:0,0:0:0:0:
406,221,68998,6,0,L|391:332,1,89.9999972534181,2|0,1:2|0:0,0:0:0:0:
370,348,69288,1,0,1:0:0:0:
331,325,69385,1,0,1:0:0:0:
288,311,69482,1,2,0:0:0:0:
243,311,69578,1,10,0:0:0:0:
201,328,69675,1,10,0:0:0:0:
231,361,69772,6,0,B|251:320|251:320|217:212,2,134.999995880127,4|4|4,0:1|0:1|0:1,0:0:0:0:
151,318,70546,2,0,P|79:300|49:390,1,179.999994506836,4|0,0:1|0:0,0:0:0:0:
45,383,71320,6,0,P|29:299|45:211,1,157.499995193482,4|8,0:1|0:0,0:0:0:0:
48,198,71707,2,0,B|95:217|95:217|190:211,1,104.999996795654,4|8,1:2|0:0,0:0:0:0:
238,157,72094,1,6,0:2:0:0:
152,95,72288,1,0,0:0:0:0:
152,95,72385,1,8,0:0:0:0:
152,95,72482,1,4,1:2:0:0:
238,157,72675,1,8,0:0:0:0:
343,159,72869,6,0,P|410:145|398:49,1,157.499995193482,6|8,0:2|0:0,0:0:0:0:
390,48,73256,2,0,B|343:67|343:67|248:61,1,104.999996795654,4|8,1:2|0:0,0:0:0:0:
215,138,73643,2,0,L|229:286,1,104.999996795654,6|2,0:0|0:0,0:0:0:0:
245,266,73933,1,0,0:0:0:0:
274,277,74030,1,4,1:2:0:0:
402,309,74224,5,8,0:0:0:0:
454,218,74417,1,12,0:2:0:0:
373,149,74611,1,2,0:0:0:0:
373,149,74707,2,0,P|290:178|210:162,1,157.499995193482,8|2,0:2|0:0,0:0:0:0:
124,130,75191,1,6,0:0:0:0:
193,50,75385,1,8,0:0:0:0:
290,89,75578,1,6,1:2:0:0:
222,167,75772,1,2,0:0:0:0:
117,166,75965,6,0,P|155:249|151:319,1,157.499995193482,12|10,0:2|0:0,0:0:0:0:
123,327,76353,1,4,1:2:0:0:
24,290,76546,1,8,0:0:0:0:
29,184,76740,1,4,0:1:0:0:
29,184,76836,1,2,0:0:0:0:
127,146,77030,1,2,0:0:0:0:
127,146,77127,2,0,P|176:158|247:154,1,104.999996795654,4|2,0:1|3:2,0:0:0:0:
355,131,77514,6,0,P|391:181|402:291,1,157.499995193482,4|8,0:1|0:0,0:0:0:0:
382,295,77901,2,0,B|341:283|259:311,1,104.999996795654,6|2,1:2|0:0,0:0:0:0:
198,366,78288,1,12,0:2:0:0:
151,271,78482,1,2,0:0:0:0:
151,271,78578,1,8,0:0:0:0:
151,271,78675,1,0,0:0:0:0:
239,213,78869,1,2,0:0:0:0:
199,116,79062,6,0,P|101:90|54:124,1,157.499995193482,12|8,0:2|0:0,0:0:0:0:
35,138,79449,2,0,B|59:178|52:269,1,104.999996795654,6|2,1:2|0:0,0:0:0:0:
43,340,79836,1,12,0:0:0:0:
43,340,79933,1,2,0:0:0:0:
143,308,80127,1,2,0:0:0:0:
143,308,80224,1,6,1:2:0:0:
260,351,80417,5,2,0:0:0:0:
342,285,80611,1,12,0:2:0:0:
292,192,80804,1,2,0:0:0:0:
292,192,80901,2,0,P|202:214|124:175,1,157.499995193482,2|2,0:0|0:0,0:0:0:0:
61,126,81385,1,12,0:2:0:0:
138,55,81578,1,2,0:0:0:0:
138,55,81675,2,0,P|228:33|306:72,1,157.499995193482,2|2,0:0|0:0,0:0:0:0:
344,142,82159,5,6,0:0:0:0:
253,195,82353,1,2,0:0:0:0:
253,195,82449,1,10,0:0:0:0:
321,326,82643,1,0,0:0:0:0:
321,326,82740,1,2,0:0:0:0:
359,341,82836,1,10,0:0:0:0:
401,342,82933,1,6,0:0:0:0:
440,326,83030,1,2,0:0:0:0:
470,296,83127,1,2,0:2:0:0:
475,266,83224,2,0,B|424:234|424:234|335:244,1,150,2|0,0:2|0:0,0:0:0:0:
323,203,83707,6,0,P|322:100|340:42,1,157.499995193482,4|8,0:1|0:0,0:0:0:0:
361,28,84094,1,4,1:2:0:0:
271,17,84288,1,2,0:0:0:0:
249,120,84482,1,12,0:2:0:0:
155,73,84675,1,0,0:0:0:0:
155,73,84772,1,8,0:0:0:0:
155,73,84869,1,4,1:2:0:0:
249,120,85062,1,8,0:0:0:0:
160,177,85256,6,0,P|142:237|160:358,1,157.499995193482,12|8,0:2|0:2,0:0:0:0:
130,355,85643,2,0,P|63:348|1:355,1,104.999996795654,0|2,0:0|0:0,0:0:0:0:
23,245,86030,2,0,P|75:191|166:214,1,157.499995193482,12|2,0:0|0:0,0:0:0:0:
172,224,86417,2,0,L|286:220,1,104.999996795654,6|2,1:2|0:0,0:0:0:0:
368,271,86804,5,12,0:0:0:0:
439,194,86998,1,2,0:0:0:0:
439,194,87094,2,0,P|439:117|403:31,1,157.499995193482,8|2,0:2|0:0,0:0:0:0:
305,32,87578,2,0,P|257:50|192:45,1,104.999996795654,12|2,0:0|0:0,0:0:0:0:
149,138,87965,1,12,1:2:0:0:
253,149,88159,1,2,0:0:0:0:
324,226,88353,6,0,P|341:309|320:382,1,157.499995193482,12|8,0:0|0:0,0:0:0:0:
291,371,88740,1,4,1:2:0:0:
213,300,88933,1,2,0:0:0:0:
124,357,89127,1,4,0:1:0:0:
124,357,89224,1,10,0:0:0:0:
217,307,89417,1,10,0:0:0:0:
217,307,89514,1,2,1:2:0:0:
97,239,89707,1,2,0:2:0:0:
97,239,89804,1,0,0:0:0:0:
97,239,89901,6,0,P|83:156|114:91,1,157.499995193482,12|8,0:0|0:0,0:0:0:0:
138,73,90288,1,4,1:2:0:0:
233,117,90482,1,2,0:0:0:0:
333,146,90675,6,0,P|408:122|408:38,1,157.499995193482,12|8,0:0|0:0,0:0:0:0:
393,29,91062,1,4,1:2:0:0:
287,30,91256,1,0,0:0:0:0:
233,117,91449,2,0,P|239:175|239:262,1,104.999996795654,12|2,0:0|0:0,0:0:0:0:
213,238,91740,1,8,0:0:0:0:
184,250,91836,2,0,P|178:308|178:395,1,104.999996795654,4|2,1:2|0:0,0:0:0:0:
72,370,92224,1,4,0:0:0:0:
72,370,92320,1,10,0:0:0:0:
37,270,92514,1,2,0:0:0:0:
37,270,92611,1,4,1:2:0:0:
118,204,92804,1,8,0:0:0:0:
261,281,92998,6,0,P|362:294|405:280,1,104.999996795654,12|2,1:2|0:0,0:0:0:0:
391,225,93288,1,0,0:0:0:0:
391,225,93385,2,0,P|492:218|532:196,1,104.999996795654,12|2,1:2|0:0,0:0:0:0:
402,131,93772,2,0,L|353:131,3,34.9999989318848,12|2|2|2,1:2|0:0|0:0|0:0,0:0:0:0:
466,53,94159,1,4,1:0:0:0:
341,33,94353,1,2,0:0:0:0:
229,90,94546,6,0,P|248:186|237:236,1,104.999996795654,12|2,1:2|0:0,0:0:0:0:
177,229,94836,2,0,P|158:325|170:387,1,157.499995193482,8|2,1:2|0:0,0:0:0:0:
290,349,95320,2,0,B|377:315|352:382|486:340,1,157.499995193482,4|0,1:0|0:0,0:0:0:0:
491,292,95707,2,0,P|449:262|324:251,1,157.499995193482,8|0,1:3|0:0,0:0:0:0:
301,241,96094,6,0,P|301:164|290:71,1,150,12|0,0:2|1:2,0:0:0:0:
293,91,96675,1,2,0:0:0:0:
149,141,96869,2,0,P|182:155|235:157,1,75,2|0,0:0|0:0,0:0:0:0:
202,242,97256,2,0,P|176:300|176:355,1,112.5,0|0,1:0|0:0,0:0:0:0:
130,355,97643,6,0,P|54:344|-5:364,2,112.5,2|2|2,0:2|0:0|0:0,0:0:0:0:
220,353,98417,2,0,P|288:364|325:349,1,75,2|8,0:0|0:3,0:0:0:0:
376,328,98804,1,0,1:0:0:0:
303,273,98998,1,0,0:0:0:0:
334,189,99191,6,0,P|410:177|479:202,1,150,2|0,0:0|1:0,0:0:0:0:
482,291,99772,1,2,0:0:0:0:
395,315,99965,2,0,L|296:300,1,75,2|0,0:0|0:0,0:0:0:0:
233,278,100353,1,0,1:0:0:0:
174,345,100546,1,2,0:0:0:0:
122,270,100740,6,0,P|118:210|128:141,1,112.5,2|8,0:0|0:3,0:0:0:0:
147,128,101127,1,0,1:0:0:0:
222,78,101320,1,8,0:3:0:0:
331,135,101514,1,0,0:0:0:0:
406,86,101707,1,2,0:0:0:0:
339,24,101901,2,0,P|284:22|208:37,1,112.5,4|0,1:1|0:0,0:0:0:0:
222,78,102288,6,0,P|218:188|224:227,1,150,8|0,0:3|1:0,0:0:0:0:
224,227,102869,1,0,0:0:0:0:
391,258,103062,1,2,0:0:0:0:
328,323,103256,1,2,0:0:0:0:
306,235,103449,1,2,1:2:0:0:
367,168,103643,1,2,0:0:0:0:
449,203,103836,6,0,P|473:274|457:372,1,150,8|0,0:3|1:1,0:0:0:0:
466,347,104417,1,0,0:0:0:0:
337,316,104611,2,0,B|244:295|273:349|156:324,1,150,4|2,0:1|1:2,0:0:0:0:
72,343,105191,5,2,0:0:0:0:
72,343,105288,1,2,0:0:0:0:
72,343,105385,1,8,0:0:0:0:
119,249,105578,1,8,0:0:0:0:
187,34,105966,5,8,0:0:0:0:
93,81,106159,1,8,0:0:0:0:
330,141,106546,5,8,0:0:0:0:
424,94,106739,1,8,0:0:0:0:
275,260,107127,5,10,0:0:0:0:
322,354,107320,1,4,1:0:0:0:
388,272,107514,1,2,0:0:0:0:
348,175,107707,1,0,0:0:0:0:
189,241,107901,5,2,0:0:0:0:
173,262,107998,1,0,0:0:0:0:
155,281,108094,1,0,1:0:0:0:
131,291,108191,1,0,1:0:0:0:
105,296,108288,1,2,1:3:0:0:
78,296,108385,1,0,1:0:0:0:
52,287,108482,6,0,P|47:212|60:143,1,134.999995880127,4|4,1:0|0:0,0:0:0:0:
84,130,108869,1,2,1:2:0:0:
187,159,109062,1,6,0:0:0:0:
244,67,109256,2,0,P|175:23|117:30,1,134.999995880127,2|2,0:0|0:0,0:0:0:0:
107,58,109643,1,0,1:0:0:0:
187,159,109836,6,0,P|249:199|360:159,1,179.999994506836,6|6,0:0|0:0,0:0:0:0:
451,197,110417,1,2,1:2:0:0:
374,274,110611,1,6,0:0:0:0:
346,173,110805,2,0,P|344:88|321:25,1,134.999995880127,2|8,0:0|0:0,0:0:0:0:
297,24,111191,1,2,1:2:0:0:
197,65,111385,1,12,0:0:0:0:
166,168,111579,6,0,P|151:253|150:336,1,134.999995880127,2|2,0:0|0:0,0:0:0:0:
162,334,111966,2,0,P|206:325|251:322,1,89.9999972534181,2|6,1:2|0:0,0:0:0:0:
352,358,112353,2,0,P|423:368|496:337,1,134.999995880127,2|2,0:0|0:0,0:0:0:0:
507,322,112740,1,0,1:0:0:0:
466,221,112934,2,0,P|398:220|335:242,1,134.999995880127,6|0,0:0|0:0,0:0:0:0:
299,236,113321,5,6,0:0:0:0:
264,228,113417,1,2,0:0:0:0:
235,206,113514,1,2,1:2:0:0:
224,171,113611,1,2,0:0:0:0:
230,135,113708,1,6,0:0:0:0:
239,100,113805,1,2,0:0:0:0:
262,73,113901,2,0,P|312:60|381:81,1,89.9999972534181,10|4,0:0|0:0,0:0:0:0:
185,27,114288,1,2,1:2:0:0:
158,51,114385,1,2,0:0:0:0:
126,67,114482,1,6,0:0:0:0:
90,73,114579,1,2,0:0:0:0:
54,73,114675,6,0,P|40:156|47:229,1,134.999995880127,4|6,0:1|0:0,0:0:0:0:
69,231,115062,1,2,1:2:0:0:
175,211,115256,1,6,0:0:0:0:
277,244,115450,2,0,P|277:306|265:382,1,134.999995880127,2|2,0:0|0:0,0:0:0:0:
231,368,115836,1,0,1:0:0:0:
136,315,116030,1,6,0:0:0:0:
175,211,116224,5,2,0:0:0:0:
255,139,116417,1,6,0:0:0:0:
255,139,116514,1,2,0:0:0:0:
255,139,116611,1,2,1:2:0:0:
354,180,116805,1,6,0:0:0:0:
255,139,116998,1,2,0:0:0:0:
275,32,117192,1,4,0:0:0:0:
255,139,117385,1,2,1:2:0:0:
150,109,117579,1,4,0:0:0:0:
198,12,117772,6,0,P|272:-1|349:36,1,134.999995880127,2|2,0:0|0:0,0:0:0:0:
353,42,118159,2,0,P|388:53|452:51,1,89.9999972534181,0|12,0:0|0:0,0:0:0:0:
482,153,118546,2,0,P|499:231|490:310,1,134.999995880127,2|2,0:0|0:0,0:0:0:0:
470,311,118933,2,0,P|435:300|371:302,1,89.9999972534181,0|12,0:0|0:0,0:0:0:0:
284,348,119321,6,0,L|160:342,1,89.9999972534181,4|6,0:1|0:0,0:0:0:0:
160,241,119707,2,0,L|284:247,1,89.9999972534181,4|4,1:1|0:0,0:0:0:0:
279,141,120094,2,0,L|155:135,1,89.9999972534181,4|2,0:1|0:0,0:0:0:0:
154,147,120385,1,2,0:0:0:0:
119,156,120482,1,2,1:2:0:0:
84,148,120578,1,2,1:2:0:0:
57,122,120675,1,2,0:0:0:0:
53,86,120772,1,0,0:0:0:0:
62,51,120869,6,0,P|113:32|215:33,2,134.999995880127,10|10|2,0:0|1:2|0:0,0:0:0:0:
30,210,121643,2,0,P|30:277|52:340,2,134.999995880127,10|10|2,0:0|1:2|0:0,0:0:0:0:
182,182,122417,2,0,P|289:216|319:211,1,134.999995880127,10|10,0:0|1:2,0:0:0:0:
342,199,122805,1,2,0:0:0:0:
446,223,122998,1,10,0:0:0:0:
365,295,123192,1,8,0:0:0:0:
468,323,123385,2,0,L|504:315,3,29.9999990844727,6|2|2|10,1:2|0:0|0:0|0:0,0:0:0:0:
365,295,123772,1,12,0:0:0:0:
221,332,123965,6,0,P|152:353|116:352,1,89.9999972534181,10|4,0:0|1:2,0:0:0:0:
98,348,124256,1,10,0:0:0:0:
69,326,124353,1,0,0:0:0:0:
124,233,124546,1,12,0:0:0:0:
265,163,124740,6,0,P|334:184|370:183,1,89.9999972534181,10|4,0:0|1:2,0:0:0:0:
395,175,125030,1,10,0:0:0:0:
434,154,125126,1,0,0:0:0:0:
455,115,125223,1,2,0:0:0:0:
452,71,125320,1,12,0:0:0:0:
424,36,125417,1,2,0:0:0:0:
382,22,125513,5,4,0:1:0:0:
327,116,125708,1,0,1:0:0:0:
327,116,125805,1,4,0:1:0:0:
323,223,125998,1,2,0:0:0:0:
323,223,126095,1,2,0:0:0:0:
371,318,126288,1,4,1:0:0:0:
256,192,126385,12,0,128224,0:0:0:0:
