osu file format v14

[General]
AudioFilename: audio.mp3
AudioLeadIn: 0
PreviewTime: 46449
Countdown: 1
SampleSet: Soft
StackLeniency: 0.7
Mode: 0
LetterboxInBreaks: 0
WidescreenStoryboard: 1

[Editor]
Bookmarks: 1643,14030,26417,34159,46546,58933,71320,83707,96094,108482,120869,126288
DistanceSpacing: 1
BeatDivisor: 4
GridSize: 32
TimelineZoom: 1.5

[Metadata]
Title:Dream Leaf
TitleUnicode:Dream Leaf
Artist:mitsukiyo
ArtistUnicode::ミツキヨ
Creator:celerih
Version:Normal
Source:
Tags:Azer kwk PandaHero 緑の手紙
BeatmapID:1865096
BeatmapSetID:892188

[Difficulty]
HPDrainRate:3
CircleSize:3
OverallDifficulty:4.5
ApproachRate:6
SliderMultiplier:1.2
SliderTickRate:1

[Events]
//Background and Video events
0,0,"Dream Leaf BG 1.jpg",0,0
//Break Periods
2,34359,43948
//Storyboard Layer 0 (Background)
//Storyboard Layer 1 (Fail)
//Storyboard Layer 2 (Pass)
//Storyboard Layer 3 (Foreground)
//Storyboard Sound Samples

[TimingPoints]
95,387.096774193548,4,2,1,60,1,0
1643,-100,4,2,1,30,0,0
12869,-100,4,2,1,60,0,0
26417,-100,4,2,1,80,0,0
32611,-100,4,2,1,40,0,0
44224,-100,4,2,1,60,0,0
44998,-100,4,2,1,70,0,0
71320,-100,4,2,1,80,0,1
95320,-100,4,2,1,60,0,0
95707,-100,4,2,1,70,0,0
107320,-100,4,2,1,60,0,0
108482,-100,4,2,1,80,0,0

[Colours]
Combo1 : 140,224,116
Combo2 : 237,199,82
Combo3 : 243,84,84
Combo4 : 240,117,57

[HitObjects]
103,350,1643,6,0,B|109:300|105:255|105:255|154:257|197:235,1,180,4|0,0:3|0:0,0:0:0:0:
235,203,2417,1,8,0:3:0:0:
314,245,2707,2,0,P|355:232|401:207,1,90,0|0,0:0|0:0,0:0:0:0:
456,179,3191,2,0,B|458:141|435:92|435:92|391:81|343:92,1,180,0|0,0:0|0:0,0:0:0:0:
307,134,3965,5,8,0:3:0:0:
139,200,4546,1,0,0:0:0:0:
172,250,4740,2,0,B|264:241|264:241|367:292,1,180,8|0,0:3|0:0,0:0:0:0:
355,337,5514,1,8,0:3:0:0:
239,370,5901,1,0,0:0:0:0:
127,324,6288,6,0,P|89:336|39:358,2,90,8|0|0,0:3|0:0|0:0,0:0:0:0:
145,266,7062,1,2,0:3:0:0:
474,68,7836,6,0,B|443:94|413:139|413:139|370:115|305:114,1,180,2|0,0:1|0:0,0:0:0:0:
280,148,8611,2,0,B|295:192|297:239|297:239|346:240|403:272,1,180,2|0,0:0|0:0,0:0:0:0:
438,246,9385,5,0,0:0:0:0:
403,163,9675,1,0,0:0:0:0:
453,88,9965,1,0,0:0:0:0:
453,88,10159,2,0,P|383:79|275:32,1,180,4|8,0:1|0:0,0:0:0:0:
226,59,10933,5,10,0:0:0:0:
226,59,11127,1,10,0:0:0:0:
280,166,11514,1,10,0:0:0:0:
280,166,11708,1,10,0:0:0:0:
216,267,12094,1,10,0:0:0:0:
216,267,12288,1,10,0:0:0:0:
266,375,12675,1,10,0:0:0:0:
266,375,12869,6,0,P|332:364|388:347,1,120,4|2,1:3|1:2,0:0:0:0:
438,242,13643,2,0,P|443:209|443:183,1,60,2|8,0:0|0:3,0:0:0:0:
428,124,14030,6,0,B|395:175|335:194|335:194|305:180|275:172,1,180,4|6,1:0|0:0,0:0:0:0:
245,206,14804,1,2,0:0:0:0:
155,200,15094,1,2,0:0:0:0:
78,248,15385,6,0,B|71:184|52:132|52:132|-1:90,1,180,6|2,0:0|1:2,0:0:0:0:
19,35,16159,1,6,0:0:0:0:
19,35,16353,2,0,P|68:45|119:48,1,90,2|8,0:0|0:0,0:0:0:0:
234,127,17127,6,0,B|333:58|333:58|389:77,1,180,2|6,0:0|0:0,0:0:0:0:
426,124,17901,1,2,0:0:0:0:
465,204,18191,1,2,0:0:0:0:
408,274,18482,6,0,P|351:286|280:315,1,120,6|6,0:0|0:0,0:0:0:0:
250,349,19062,2,0,P|226:341|181:332,2,60,2|6|10,1:2|0:0|0:0,0:0:0:0:
217,233,19836,1,2,1:2:0:0:
282,132,20224,6,0,B|263:54|229:25|229:25|199:37|159:46,1,180,4|6,0:1|0:0,0:0:0:0:
147,97,20998,1,2,0:0:0:0:
170,183,21288,1,2,0:0:0:0:
98,237,21579,6,0,P|108:331|199:342,1,180,6|2,0:0|1:2,0:0:0:0:
218,303,22353,1,6,0:0:0:0:
218,303,22547,2,0,P|262:285|342:273,1,120,2|0,0:0|0:0,0:0:0:0:
373,160,23321,6,0,B|343:125|322:86|322:86|273:107|207:101,1,180,2|12,0:0|0:0,0:0:0:0:
200,152,24094,2,0,B|170:187|149:226|149:226|100:205|34:211,1,180,2|12,0:0|0:0,0:0:0:0:
7,182,24869,5,4,0:1:0:0:
44,100,25159,1,8,0:0:0:0:
133,98,25449,1,4,0:0:0:0:
133,98,25643,2,0,P|185:69|242:48,1,120,4|2,0:1|1:2,0:0:0:0:
339,117,26417,6,0,P|324:163|313:216,1,90,10|10,0:0|1:2,0:0:0:0:
243,258,26998,1,2,0:0:0:0:
243,258,27191,2,0,P|199:244|154:234,1,90,10|10,0:0|1:2,0:0:0:0:
108,310,27772,5,2,0:0:0:0:
108,310,27965,2,0,P|68:335|28:351,1,90,10|10,0:0|1:2,0:0:0:0:
5,263,28546,1,10,0:0:0:0:
5,263,28740,2,0,P|27:197|57:133,1,120,8|10,0:0|0:0,0:0:0:0:
103,173,29320,1,12,0:0:0:0:
103,173,29514,6,0,P|148:167|205:150,1,90,10|10,0:0|0:0,0:0:0:0:
252,89,30094,1,12,0:0:0:0:
252,89,30288,2,0,P|297:95|354:112,1,90,10|10,0:0|0:0,0:0:0:0:
404,170,30869,1,12,0:0:0:0:
404,170,31062,6,0,B|441:252|441:252|399:357,1,180,4|2,0:1|0:0,0:0:0:0:
350,356,31836,1,4,1:0:0:0:
165,201,32611,5,2,0:0:0:0:
250,117,32998,1,2,0:0:0:0:
366,146,33385,2,0,P|396:136|440:127,2,60,2|8|2,0:0|0:3|0:3,0:0:0:0:
358,26,34159,5,4,0:3:0:0:
139,37,44998,6,0,P|125:88|110:144,1,90,4|8,1:1|0:0,0:0:0:0:
148,207,45578,1,2,0:0:0:0:
148,207,45772,2,0,P|177:240|201:273,2,60,8|10|8,1:2|0:0|0:0,0:0:0:0:
215,108,46546,6,0,P|298:109|380:178,1,180,4|2,0:1|0:0,0:0:0:0:
364,225,47320,1,6,0:2:0:0:
307,330,47707,2,0,L|225:305,1,60,6|10,1:2|0:0,0:0:0:0:
192,328,48094,5,4,0:0:0:0:
127,226,48482,2,0,P|141:163|160:106,1,120,6|14,1:2|0:0,0:0:0:0:
87,55,49159,1,8,0:0:0:0:
11,104,49449,1,8,0:0:0:0:
11,104,49643,5,6,0:0:0:0:
90,194,50030,2,0,P|144:169|202:153,1,120,4|6,1:2|0:0,0:0:0:0:
277,201,50707,1,8,0:3:0:0:
347,145,50998,1,0,0:0:0:0:
347,145,51191,5,4,0:0:0:0:
430,230,51578,2,0,P|406:280|385:350,1,120,6|6,1:2|0:0,0:0:0:0:
300,258,52353,2,0,P|277:239|242:219,1,60,6|2,1:2|0:3,0:0:0:0:
233,165,52740,6,0,P|255:106|163:46,1,180,6|2,0:2|0:0,0:0:0:0:
121,72,53514,1,6,0:0:0:0:
52,170,53901,2,0,P|63:201|77:252,1,60,6|2,1:2|0:0,0:0:0:0:
71,287,54288,5,12,0:0:0:0:
161,366,54675,2,0,P|223:336|283:320,1,120,6|6,1:2|0:0,0:0:0:0:
355,235,55449,1,6,1:2:0:0:
268,152,55836,6,0,B|218:178|155:188|155:188|175:134|217:78,1,240,14|6,0:0|0:0,0:0:0:0:
331,61,56998,1,4,1:2:0:0:
428,130,57385,6,0,P|380:205|332:313,1,180,12|0,0:0|0:0,0:0:0:0:
295,325,58159,2,0,P|240:294|171:268,1,120,8|8,0:0|1:2,0:0:0:0:
100,189,58933,6,0,B|105:146|95:99|95:99|147:97|201:66,1,180,4|2,1:1|0:0,0:0:0:0:
235,104,59707,2,0,B|272:124|304:160|304:160|336:118|393:94,1,180,6|2,0:2|0:0,0:0:0:0:
433,111,60482,5,6,0:2:0:0:
482,185,60772,1,8,0:0:0:0:
439,264,61062,1,0,0:0:0:0:
439,264,61256,2,0,P|396:247|339:233,1,90,6|8,0:2|0:0,0:0:0:0:
258,312,62030,6,0,B|230:343|188:366|188:366|176:321|182:272,1,180,6|8,0:2|0:0,0:0:0:0:
137,234,62804,2,0,B|96:225|55:200|55:200|88:167|133:148,1,180,12|8,0:2|0:0,0:0:0:0:
165,101,63578,5,4,0:1:0:0:
262,171,63965,1,4,0:1:0:0:
368,115,64353,1,4,0:1:0:0:
478,161,64740,2,0,P|462:186|450:214,1,60,2|2,1:2|0:3,0:0:0:0:
474,269,65127,6,0,P|494:312|511:364,1,90,4|2,0:1|0:2,0:0:0:0:
418,358,65707,1,0,0:0:0:0:
418,358,65901,2,0,P|371:344|331:335,1,90,12|2,0:0|0:2,0:0:0:0:
295,252,66482,5,8,0:0:0:0:
295,252,66676,2,0,P|304:207|317:165,1,90,6|0,0:0|0:0,0:0:0:0:
401,131,67256,1,2,0:0:0:0:
401,131,67450,2,0,P|447:147|489:155,1,90,12|2,0:2|0:0,0:0:0:0:
490,64,68030,1,8,0:0:0:0:
490,64,68224,5,4,1:0:0:0:
379,110,68611,1,2,1:2:0:0:
278,45,68998,1,2,1:2:0:0:
166,88,69385,2,0,P|141:100|97:115,1,60,0|10,1:0|0:0,0:0:0:0:
50,116,69772,5,4,0:1:0:0:
75,202,70062,1,4,0:1:0:0:
47,287,70353,1,4,0:1:0:0:
47,287,70546,1,4,0:1:0:0:
285,257,71320,6,0,B|317:291|363:304|363:304|375:254|362:205,1,180,4|8,0:1|0:0,0:0:0:0:
377,158,72094,2,0,B|422:147|456:113|456:113|419:78|370:65,1,180,6|8,0:2|0:0,0:0:0:0:
322,84,72869,5,6,0:2:0:0:
236,112,73159,1,8,0:0:0:0:
147,94,73449,1,8,0:0:0:0:
147,94,73643,2,0,P|161:154|169:225,1,120,6|4,0:0|1:2,0:0:0:0:
131,259,74224,1,8,0:0:0:0:
131,259,74417,6,0,P|170:283|223:300,1,90,12|8,0:2|0:2,0:0:0:0:
291,266,74998,1,2,0:0:0:0:
291,266,75191,2,0,P|300:227|312:196,1,60,6|8,0:0|0:0,0:0:0:0:
269,161,75578,2,0,P|259:128|246:94,1,60,6|2,1:2|0:0,0:0:0:0:
282,53,75965,6,0,B|326:52|372:40|372:40|390:86|420:133,1,180,12|8,0:2|0:0,0:0:0:0:
460,155,76740,2,0,P|445:194|435:248,1,90,4|2,0:1|0:0,0:0:0:0:
307,319,77514,6,0,B|275:353|229:366|229:366|217:316|230:267,1,180,4|2,0:1|0:0,0:0:0:0:
195,228,78288,2,0,B|207:183|195:137|195:137|146:151|110:187,1,180,12|2,0:2|0:0,0:0:0:0:
63,204,79063,5,12,0:2:0:0:
18,126,79353,1,8,0:0:0:0:
62,47,79643,1,2,0:0:0:0:
62,47,79836,2,0,P|109:39|161:22,1,90,12|2,0:0|0:0,0:0:0:0:
223,79,80418,1,2,0:0:0:0:
223,79,80611,6,0,P|265:93|303:117,1,90,12|2,0:2|0:0,0:0:0:0:
357,189,81192,1,2,0:0:0:0:
357,189,81385,2,0,P|340:230|330:274,1,90,12|2,0:2|0:0,0:0:0:0:
392,338,81965,1,2,0:0:0:0:
392,338,82159,6,0,B|424:304|467:290|467:290|439:248|431:201,1,180,6|2,0:0|0:0,0:0:0:0:
416,149,82934,2,0,P|377:134|323:124,1,90,6|0,0:0|0:0,0:0:0:0:
214,220,83707,6,0,B|212:266|225:310|225:310|177:283|135:269,1,180,4|2,0:1|0:0,0:0:0:0:
99,312,84482,2,0,B|58:333|26:366|26:366|25:312|17:268,1,180,12|8,0:2|0:0,0:0:0:0:
32,219,85256,5,12,0:2:0:0:
109,172,85546,1,8,0:2:0:0:
192,217,85836,1,2,0:0:0:0:
192,217,86030,2,0,P|217:281|249:338,1,120,12|6,0:0|1:2,0:0:0:0:
186,349,86611,1,2,0:0:0:0:
186,349,86804,6,0,P|145:331|101:319,1,90,12|8,0:0|0:2,0:0:0:0:
20,279,87385,1,2,0:0:0:0:
20,279,87578,2,0,P|8:241|-4:209,1,60,12|2,0:0|0:0,0:0:0:0:
18,164,87965,2,0,P|54:147|86:134,1,60,12|2,1:2|0:0,0:0:0:0:
134,168,88352,6,0,B|158:198|174:248|174:248|200:203|247:164,1,180,12|2,0:0|0:0,0:0:0:0:
289,192,89127,2,0,P|330:177|387:169,1,90,4|10,0:1|0:0,0:0:0:0:
271,60,89901,6,0,B|227:42|193:13|193:13|203:54|194:112,1,180,12|2,0:0|0:0,0:0:0:0:
150,141,90675,2,0,B|112:170|70:185|70:185|110:196|156:233,1,180,12|0,0:0|0:0,0:0:0:0:
181,276,91450,5,12,0:0:0:0:
246,337,91740,1,8,0:0:0:0:
329,304,92030,1,2,0:0:0:0:
329,304,92223,2,0,P|365:328|411:348,1,90,4|2,0:0|0:0,0:0:0:0:
481,294,92805,1,8,0:0:0:0:
481,294,92998,6,0,P|491:256|499:228,1,60,12|2,1:2|0:0,0:0:0:0:
483,177,93385,1,12,1:2:0:0:
367,207,93772,2,0,P|338:216|309:222,1,60,12|2,1:2|0:0,0:0:0:0:
250,208,94159,1,4,1:0:0:0:
139,161,94546,6,0,B|106:246|106:246|141:346,1,180,12|2,1:2|0:0,0:0:0:0:
185,362,95320,2,0,P|247:338|314:324,1,120,4|8,0:1|0:3,0:0:0:0:
383,241,96094,6,0,B|390:192|407:151|407:151|373:119|321:96,1,180,12|2,0:2|0:0,0:0:0:0:
279,125,96869,1,2,0:0:0:0:
196,88,97159,1,2,0:0:0:0:
118,216,97643,6,0,B|146:256|181:280|181:280|151:317|135:361,1,180,2|2,0:2|0:0,0:0:0:0:
79,377,98417,1,2,0:0:0:0:
27,303,98707,1,0,0:0:0:0:
41,153,99191,6,0,B|51:107|68:65|68:65|104:92|143:135,1,180,2|2,0:0|0:0,0:0:0:0:
188,104,99965,2,0,B|222:68|255:41|255:41|271:82|285:139,1,180,2|2,0:0|0:0,0:0:0:0:
302,181,100740,1,2,0:0:0:0:
383,142,101030,1,8,0:3:0:0:
460,186,101320,1,8,0:3:0:0:
460,186,101514,2,0,P|435:239|413:300,1,120,0|4,0:0|1:1,0:0:0:0:
303,343,102288,6,0,P|256:294|83:246,1,240,8|2,0:3|0:0,0:0:0:0:
58,197,103256,1,2,0:0:0:0:
58,197,103449,2,0,P|61:160|62:127,1,60,2|2,1:2|0:0,0:0:0:0:
40,81,103836,6,0,P|85:38|146:7,1,120,8|0,0:3|1:1,0:0:0:0:
216,99,104611,2,0,P|293:120|297:217,1,180,4|2,0:1|0:0,0:0:0:0:
253,243,105385,5,8,0:0:0:0:
253,243,105578,1,8,0:0:0:0:
148,183,105965,1,8,0:0:0:0:
148,183,106159,1,8,0:0:0:0:
185,69,106546,1,8,0:0:0:0:
185,69,106740,1,8,0:0:0:0:
75,20,107127,1,10,0:0:0:0:
75,20,107320,6,0,P|60:78|51:144,1,120,4|0,1:0|0:0,0:0:0:0:
117,237,108094,2,0,P|148:217|182:200,1,60,0|2,1:0|0:3,0:0:0:0:
226,222,108482,6,0,B|259:273|319:292|319:292|349:278|379:270,1,180,4|6,1:0|0:0,0:0:0:0:
416,225,109256,1,2,0:0:0:0:
370,147,109546,1,2,0:0:0:0:
398,61,109837,6,0,B|283:37|283:37|222:93,1,180,6|2,0:0|1:2,0:0:0:0:
186,111,110611,1,6,0:0:0:0:
186,111,110805,2,0,P|196:160|199:211,1,90,2|8,0:0|0:0,0:0:0:0:
76,287,111579,6,0,B|53:222|25:178|25:178|32:138|52:98,1,180,2|6,0:0|0:0,0:0:0:0:
83,77,112353,1,2,0:0:0:0:
168,105,112643,1,2,0:0:0:0:
244,56,112934,6,0,P|298:77|372:97,1,120,6|6,0:0|0:0,0:0:0:0:
402,54,113514,2,0,P|426:46|471:37,2,60,2|6|10,1:2|0:0|0:0,0:0:0:0:
358,165,114288,1,2,1:2:0:0:
257,231,114676,6,0,B|204:270|150:284|150:284|130:313|123:340,1,180,4|6,0:1|0:0,0:0:0:0:
78,377,115450,1,2,0:0:0:0:
7,321,115740,1,2,0:0:0:0:
37,236,116031,6,0,P|26:156|0:50,1,180,6|2,0:0|1:2,0:0:0:0:
62,64,116805,1,6,0:0:0:0:
62,64,116999,2,0,P|111:83|177:99,1,120,2|0,0:0|0:0,0:0:0:0:
296,101,117773,6,0,B|331:131|370:152|370:152|349:201|355:267,1,180,2|12,0:0|0:0,0:0:0:0:
300,266,118546,2,0,B|270:301|249:340|249:340|200:319|134:325,1,180,2|12,0:0|0:0,0:0:0:0:
109,291,119321,5,4,0:1:0:0:
59,216,119611,1,8,0:0:0:0:
89,131,119901,1,4,0:0:0:0:
89,131,120095,2,0,P|145:111|198:81,1,120,4|2,0:1|1:2,0:0:0:0:
315,101,120869,6,0,P|330:147|341:200,1,90,10|10,0:0|1:2,0:0:0:0:
396,256,121450,1,2,0:0:0:0:
396,256,121643,2,0,P|440:242|485:232,1,90,10|10,0:0|1:2,0:0:0:0:
497,143,122224,5,2,0:0:0:0:
498,144,122417,2,0,P|490:99|474:57,1,90,10|10,0:0|1:2,0:0:0:0:
385,40,122998,1,10,0:0:0:0:
385,40,123192,2,0,P|330:64|273:82,1,120,8|10,0:0|0:0,0:0:0:0:
216,62,123772,1,12,0:0:0:0:
216,62,123966,6,0,P|197:102|171:166,1,90,10|10,0:0|0:0,0:0:0:0:
99,185,124546,1,12,0:0:0:0:
99,185,124740,2,0,P|118:225|144:289,1,90,10|10,0:0|0:0,0:0:0:0:
213,313,125321,1,12,0:0:0:0:
213,313,125514,6,0,B|295:276|295:276|400:318,1,180,4|2,0:1|0:0,0:0:0:0:
430,340,126288,1,4,1:0:0:0:
