osu file format v14

[General]
AudioFilename: audio.mp3
AudioLeadIn: 0
PreviewTime: 46449
Countdown: 1
SampleSet: None
StackLeniency: 0.7
Mode: 0
LetterboxInBreaks: 0
WidescreenStoryboard: 1

[Editor]
DistanceSpacing: 0.2
BeatDivisor: 4
GridSize: 8
TimelineZoom: 1.8

[Metadata]
Title:Dream Leaf
TitleUnicode:Dream Leaf
Artist:mitsukiyo
ArtistUnicode::ミツキヨ
Creator:celerih
Version:Azer's Oriental Blossom
Source:
Tags:Azer kwk PandaHero 緑の手紙
BeatmapID:1865094
BeatmapSetID:892188

[Difficulty]
HPDrainRate:6
CircleSize:2
OverallDifficulty:9
ApproachRate:9.3
SliderMultiplier:1.5
SliderTickRate:1

[Events]
//Background and Video events
0,0,"Dream Leaf BG 2.png",0,0
//Break Periods
//Storyboard Layer 0 (Background)
//Storyboard Layer 1 (Fail)
//Storyboard Layer 2 (Pass)
//Storyboard Layer 3 (Foreground)
//Storyboard Sound Samples

[TimingPoints]
95,387.096774193548,4,2,1,60,1,0
1643,-200,4,2,1,30,0,0
7836,-125,4,2,1,30,0,0
12869,-100,4,2,1,30,0,0
13127,-166.666666666667,4,2,1,30,0,0
13256,-100,4,2,1,60,0,0
13643,-125,4,2,1,60,0,0
14030,-58.8235294117647,4,2,1,60,0,0
14417,-50,4,2,1,60,0,0
14804,-58.8235294117647,4,2,1,60,0,0
15094,-50,4,2,1,60,0,0
15772,-66.6666666666667,4,2,1,60,0,0
15965,-50,4,2,1,60,0,0
16159,-40,4,2,1,60,0,0
16353,-50,4,2,1,60,0,0
16643,-66.6666666666667,4,2,1,60,0,0
17127,-50,4,2,1,60,0,0
18482,-75.187969924812,4,2,1,60,0,0
20611,-50,4,2,1,60,0,0
21578,-66.6666666666667,4,2,1,60,0,0
22546,-75.187969924812,4,2,1,60,0,0
23320,-50,4,2,1,60,0,0
26224,-100,4,2,1,60,0,0
26417,-100,4,2,1,80,0,1
26998,-66.6666666666667,4,2,1,80,0,1
27127,-66.6666666666667,4,2,1,30,0,1
27191,-100,4,2,1,80,0,1
27772,-66.6666666666667,4,2,1,80,0,1
27901,-66.6666666666667,4,2,1,30,0,1
27965,-100,4,2,1,80,0,1
28546,-50,4,2,1,80,0,1
31836,-40,4,2,1,80,0,0
32998,-100,4,2,1,40,0,0
40159,-200,4,2,1,40,0,0
40353,-100,4,2,1,40,0,0
41707,-200,4,2,1,40,0,0
41901,-100,4,2,1,40,0,0
44998,-50,4,2,1,70,0,0
45288,-100,4,2,1,70,0,0
45578,-50,4,2,1,70,0,0
45965,-66.6666666666667,4,2,1,70,0,0
46159,-100,4,2,1,70,0,0
46546,-50,4,2,1,70,0,0
49159,-66.6666666666667,4,2,1,70,0,0
49449,-50,4,2,1,70,0,0
55449,-75.187969924812,4,2,1,70,0,0
58546,-100,4,2,1,70,0,0
58933,-50,4,2,1,70,0,0
61643,-100,4,2,1,70,0,0
62030,-75.187969924812,4,2,1,70,0,0
65417,-50,4,2,1,70,0,0
71320,-50,4,2,1,80,0,1
71901,-66.6666666666667,4,2,1,80,0,1
72094,-50,4,2,1,80,0,1
72385,-66.6666666666667,4,2,1,80,0,1
72675,-50,4,2,1,80,0,1
76256,-66.6666666666667,4,2,1,80,0,1
77127,-100,4,2,1,80,0,1
77514,-50,4,2,1,80,0,1
78094,-66.6666666666667,4,2,1,80,0,1
78288,-50,4,2,1,80,0,1
78869,-66.6666666666667,4,2,1,80,0,1
79062,-50,4,2,1,80,0,1
79643,-66.6666666666667,4,2,1,80,0,1
80611,-50,4,2,1,80,0,1
81191,-66.6666666666667,4,2,1,80,0,1
81385,-50,4,2,1,80,0,1
83514,-66.6666666666667,4,2,1,80,0,1
83707,-50,4,2,1,80,0,1
84288,-66.6666666666667,4,2,1,80,0,1
84482,-50,4,2,1,80,0,1
84869,-66.6666666666667,4,2,1,80,0,1
85256,-50,4,2,1,80,0,1
90482,-66.6666666666667,4,2,1,80,0,1
90675,-50,4,2,1,80,0,1
92030,-66.6666666666667,4,2,1,80,0,1
92998,-50,4,2,1,80,0,1
96094,-66.6666666666667,4,2,1,70,0,0
98417,-100,4,2,1,70,0,0
99482,-66.6666666666667,4,2,1,70,0,0
102288,-100,4,2,1,70,0,0
103836,-66.6666666666667,4,2,1,70,0,0
105772,-142.857142857143,4,2,1,30,0,0
105965,-142.857142857143,4,2,1,60,0,0
106353,-142.857142857143,4,2,1,30,0,0
106546,-142.857142857143,4,2,1,60,0,0
106933,-142.857142857143,4,2,1,30,0,0
107320,-100,4,2,1,60,0,0
107707,-66.6666666666667,4,2,1,60,0,0
108482,-50,4,2,1,70,0,0
109256,-66.6666666666667,4,2,1,70,0,0
109546,-50,4,2,1,70,0,0
110224,-66.6666666666667,4,2,1,70,0,0
110804,-50,4,2,1,70,0,0
111094,-66.6666666666667,4,2,1,70,0,0
111578,-50,4,2,1,70,0,0
112933,-75.187969924812,4,2,1,70,0,0
115062,-50,4,2,1,70,0,0
116030,-66.6666666666667,4,2,1,70,0,0
116998,-75.187969924812,4,2,1,70,0,0
117772,-50,4,2,1,70,0,0
120675,-100,4,2,1,70,0,0
121449,-66.6666666666667,4,2,1,70,0,0
121643,-100,4,2,1,70,0,0
122224,-66.6666666666667,4,2,1,70,0,0
122514,-100,4,2,1,70,0,0
122998,-66.6666666666667,4,2,1,70,0,0
123191,-50,4,2,1,70,0,0
126675,-50,4,2,1,20,0,0

[Colours]
Combo1 : 235,148,105
Combo2 : 255,213,128
Combo3 : 217,123,172
Combo4 : 151,176,242

[HitObjects]
329,122,1643,6,0,B|402:115,2,56.25,4|0|0,0:3|0:0|0:0,0:0:0:0:
200,254,2417,1,8,0:3:0:0:
290,277,2707,1,0,0:0:0:0:
266,185,2998,1,0,0:0:0:0:
142,335,3191,6,0,B|215:329,2,56.25
309,357,3965,1,8,0:3:0:0:
309,357,4546,1,0,0:0:0:0:
309,357,4740,6,0,L|312:305,1,37.5,8|0,0:3|0:0,0:0:0:0:
434,332,5030,2,0,L|428:268,1,56.25
269,200,5514,1,8,0:3:0:0:
309,192,5707,1,0,0:0:0:0:
199,330,5901,1,0,0:0:0:0:
192,289,6094,1,0,0:0:0:0:
338,325,6288,5,8,0:3:0:0:
53,297,6578,1,0,0:0:0:0:
256,110,6869,1,0,0:0:0:0:
136,107,7062,1,2,0:3:0:0:
136,107,7256,1,0,0:0:0:0:
136,107,7449,2,0,P|142:152|136:175,1,56.25,8|0,0:3|0:0,0:0:0:0:
72,196,7836,6,0,L|184:206,1,90,2|0,0:1|0:0,0:0:0:0:
162,204,8224,1,0,0:0:0:0:
422,112,8417,1,0,0:0:0:0:
259,53,8611,2,0,L|267:163,2,90,2|0|0,0:0|0:0|0:0,0:0:0:0:
477,259,9385,5,0,0:0:0:0:
248,358,9675,1,0,0:0:0:0:
115,225,9965,1,0,0:0:0:0:
340,198,10159,1,4,0:1:0:0:
316,233,10256,1,2,0:0:0:0:
276,221,10353,1,2,0:0:0:0:
275,179,10449,1,2,1:2:0:0:
325,145,10546,1,2,1:2:0:0:
370,208,10643,1,2,0:0:0:0:
325,272,10740,1,8,0:0:0:0:
250,247,10837,1,10,0:0:0:0:
250,169,10933,5,10,0:0:0:0:
250,169,11127,1,10,0:0:0:0:
244,335,11514,5,10,0:0:0:0:
244,335,11708,1,10,0:0:0:0:
406,131,12094,5,10,0:0:0:0:
406,131,12288,1,10,0:0:0:0:
120,77,12675,5,10,0:0:0:0:
120,77,12869,2,0,L|126:168,1,75,4|0,1:3|0:0,0:0:0:0:
96,272,13127,2,0,L|95:247,1,14.9999995422363
96,272,13256,5,2,1:2:0:0:
177,283,13353,1,2,0:2:0:0:
254,255,13449,1,2,0:0:0:0:
291,180,13546,1,2,0:0:0:0:
294,97,13643,2,0,L|293:60,2,20,2|0|0,0:0|0:0|0:0,0:0:0:0:
254,255,13836,2,0,L|245:281,2,20,8|0|0,0:3|0:0|0:0,0:0:0:0:
480,201,14030,6,0,P|372:182|261:182,1,191.250003647804,4|4,1:0|0:0,0:0:0:0:
163,371,14417,2,0,L|180:203,1,150,2|6,1:2|0:0,0:0:0:0:
18,281,14707,1,0,0:0:0:0:
18,281,14804,2,0,P|125:299|189:301,1,127.50000243187,2|4,0:0|0:0,0:0:0:0:
428,247,15094,2,0,L|342:239,1,75,2|0,0:0|1:0,0:0:0:0:
163,371,15385,6,0,P|180:290|178:221,1,150,6|0,0:0|0:0,0:0:0:0:
99,86,15675,1,0,0:0:0:0:
99,86,15772,2,0,L|170:92,1,56.2500021457673,6|0,0:0|0:0,0:0:0:0:
370,136,15965,2,0,L|291:146,1,75,2|0,1:2|0:0,0:0:0:0:
46,275,16159,2,0,L|142:281,1,93.75,6|0,0:0|0:0,0:0:0:0:
372,366,16353,6,0,P|355:285|357:216,1,150,2|4,0:0|0:0,0:0:0:0:
462,159,16643,2,0,L|457:224,1,56.2500021457673,8|2,0:0|1:2,0:0:0:0:
269,279,16836,1,0,0:0:0:0:
303,325,16933,2,0,L|298:268,1,56.2500021457673,12|0,0:0|0:0,0:0:0:0:
465,64,17127,6,0,P|384:81|316:76,1,150,2|6,0:0|0:0,0:0:0:0:
98,54,17417,1,2,0:0:0:0:
211,35,17514,1,2,1:2:0:0:
45,232,17707,1,6,0:0:0:0:
211,35,17901,6,0,P|194:116|198:194,1,150,2|4,0:0|0:0,0:0:0:0:
396,332,18191,2,0,L|400:253,1,75,2|0,0:0|1:0,0:0:0:0:
103,345,18482,6,0,P|120:264|115:188,1,149.62499383564,6|0,0:0|0:0,0:0:0:0:
47,38,18869,1,6,0:0:0:0:
154,134,18965,1,2,0:0:0:0:
190,279,19062,1,2,1:2:0:0:
289,233,19159,1,2,0:0:0:0:
279,124,19256,1,6,0:0:0:0:
171,101,19353,1,2,0:0:0:0:
116,197,19450,1,10,0:0:0:0:
406,338,19643,5,4,0:0:0:0:
406,338,19740,1,0,0:0:0:0:
406,338,19836,1,2,1:2:0:0:
279,296,19933,1,2,0:0:0:0:
279,164,20030,1,6,0:0:0:0:
405,124,20127,1,2,0:0:0:0:
480,230,20224,6,0,P|405:240|331:231,1,149.62499383564,4|6,0:1|0:0,0:0:0:0:
152,277,20611,2,0,L|163:136,1,75,2|0,1:2|0:0,0:0:0:0:
52,313,20804,1,6,0:0:0:0:
406,338,20998,6,0,P|331:327|263:298,1,149.62499383564,2|4,0:0|0:0,0:0:0:0:
157,202,21288,2,0,L|231:196,1,75,2|0,0:0|1:0,0:0:0:0:
53,42,21578,6,0,P|107:51|171:52,1,112.500004291535,6|2,0:0|0:0,0:0:0:0:
407,317,21965,1,6,0:0:0:0:
337,204,22062,1,2,0:0:0:0:
337,70,22159,1,2,1:2:0:0:
407,317,22353,1,6,0:0:0:0:
487,103,22546,6,0,L|487:221,1,99.7499958904268,2|4,0:0|0:0,0:0:0:0:
248,276,22836,1,2,0:0:0:0:
248,142,22933,1,2,1:2:0:0:
407,317,23127,1,4,0:0:0:0:
83,310,23320,6,0,P|92:256|86:153,1,150,2|4,0:0|0:0,0:0:0:0:
411,168,23611,2,0,P|402:222|408:325,1,150,2|0,0:0|0:0,0:0:0:0:
244,350,23901,2,0,L|248:266,1,75,12|0,0:0|0:0,0:0:0:0:
163,83,24094,6,0,P|172:137|166:240,1,150,2|4,0:0|0:0,0:0:0:0:
491,225,24385,2,0,P|482:171|488:68,1,150,2|0,0:0|0:0,0:0:0:0:
324,43,24675,2,0,L|328:127,1,75,12|0,0:0|0:0,0:0:0:0:
480,329,24869,6,0,P|426:320|323:326,1,150,4|6,0:1|0:0,0:0:0:0:
62,293,25159,1,8,0:0:0:0:
166,354,25256,6,0,P|175:300|169:197,1,150,4|4,1:1|0:0,0:0:0:0:
184,64,25546,1,2,1:2:0:0:
38,64,25643,5,4,0:1:0:0:
68,164,25740,1,2,0:0:0:0:
157,216,25836,1,2,0:0:0:0:
260,198,25933,1,2,0:0:0:0:
362,107,26030,5,2,1:2:0:0:
359,121,26127,1,2,1:2:0:0:
356,135,26224,2,0,L|347:170,2,25,2|2|2,0:0|0:0|0:0,0:0:0:0:
341,288,26417,5,10,0:0:0:0:
341,288,26514,2,0,L|335:238,1,37.5,2|4,0:0|0:0,0:0:0:0:
100,283,26707,1,10,1:2:0:0:
100,283,26804,2,0,L|106:233,1,37.5,2|0,0:0|0:0,0:0:0:0:
219,344,26998,2,0,L|220:254,1,75.000002861023,2|0,0:0|0:0,0:0:0:0:
139,105,27191,5,10,0:0:0:0:
139,105,27288,2,0,L|145:155,1,37.5,0|6,0:0|0:0,0:0:0:0:
327,122,27481,1,10,1:2:0:0:
327,122,27578,2,0,L|321:172,1,37.5,2|0,0:0|0:0,0:0:0:0:
472,250,27772,2,0,L|469:343,1,75.000002861023,2|0,0:0|0:0,0:0:0:0:
345,325,27965,5,10,0:0:0:0:
345,325,28062,2,0,L|339:275,1,37.5,2|4,0:0|0:0,0:0:0:0:
43,286,28255,1,10,1:2:0:0:
43,286,28352,2,0,L|49:236,1,37.5,2|0,0:0|0:0,0:0:0:0:
186,356,28546,2,0,L|195:265,1,75,10|0,0:0|0:0,0:0:0:0:
131,86,28740,6,0,L|138:160,1,75,8|0,0:0|0:0,0:0:0:0:
345,313,28933,2,0,L|337:238,2,50,6|2|2,1:2|0:0|0:0,0:0:0:0:
286,45,29127,2,0,L|278:119,1,75,10|0,0:0|0:0,0:0:0:0:
486,324,29320,2,0,L|495:233,1,75,12|0,0:0|0:0,0:0:0:0:
430,26,29514,6,0,L|422:100,1,75,10|0,0:0|0:0,0:0:0:0:
410,341,29707,1,4,1:2:0:0:
390,216,29804,1,10,0:0:0:0:
241,324,29998,1,2,0:0:0:0:
251,268,30094,1,12,0:0:0:0:
73,356,30288,6,0,L|80:281,1,75,10|0,0:0|0:0,0:0:0:0:
93,41,30481,1,4,1:2:0:0:
113,166,30578,1,10,0:0:0:0:
269,79,30772,1,2,0:0:0:0:
279,135,30868,1,12,0:0:0:0:
289,191,30965,1,2,0:0:0:0:
435,314,31062,6,0,P|381:305|278:311,1,150,4|0,0:1|1:0,0:0:0:0:
34,146,31353,2,0,P|108:151|182:141,1,150,4|2,0:1|0:0,0:0:0:0:
457,183,31643,1,2,0:0:0:0:
457,183,31740,1,2,0:0:0:0:
457,183,31836,2,0,P|307:232|336:73,1,375,4|2,1:0|0:0,0:0:0:0:
331,94,32320,5,0,0:0:0:0:
334,112,32417,1,2,0:0:0:0:
337,130,32514,1,2,0:0:0:0:
340,148,32611,1,2,0:0:0:0:
343,166,32998,1,2,0:0:0:0:
347,184,33385,1,2,0:0:0:0:
381,333,33578,1,8,0:3:0:0:
350,202,33772,1,2,0:3:0:0:
353,220,34159,5,4,0:3:0:0:
196,331,34546,1,0,0:0:0:0:
209,296,34740,1,2,0:0:0:0:
209,257,34933,1,10,0:3:0:0:
219,145,35127,1,0,0:0:0:0:
315,101,35320,1,8,0:3:0:0:
391,132,35514,1,8,0:3:0:0:
416,176,35707,5,0,0:0:0:0:
416,176,35804,2,0,P|413:220|400:261,1,75,8|0,0:3|0:0,0:0:0:0:
333,323,36094,1,2,0:3:0:0:
328,316,36191,1,0,0:0:0:0:
325,308,36288,1,2,0:0:0:0:
106,325,36482,6,0,P|119:269|118:212,1,112.5,10|0,0:3|0:0,0:0:0:0:
67,128,36869,1,2,0:0:0:0:
52,101,37062,1,0,0:0:0:0:
44,87,37159,1,0,0:0:0:0:
36,73,37256,6,0,P|89:81|165:74,1,112.5,10|0,0:3|0:0,0:0:0:0:
243,32,37643,1,8,0:3:0:0:
257,28,37836,1,2,0:0:0:0:
230,137,38030,6,0,P|222:190|229:266,1,112.5,10|0,0:3|0:0,0:0:0:0:
271,344,38417,1,0,0:0:0:0:
295,360,38611,1,0,0:0:0:0:
309,364,38707,1,0,0:0:0:0:
323,365,38804,6,0,P|326:308|318:253,1,112.5,10|0,0:3|0:0,0:0:0:0:
332,258,39191,1,8,0:3:0:0:
426,293,39385,1,2,0:0:0:0:
491,92,39578,1,10,0:3:0:0:
343,37,39772,1,0,0:0:0:0:
339,43,39869,1,2,0:3:0:0:
337,50,39965,1,0,0:0:0:0:
259,123,40159,2,0,L|266:151,1,18.75
332,258,40353,6,0,P|275:261|220:253,1,112.5,10|0,0:3|0:0,0:0:0:0:
137,194,40740,1,0,0:0:0:0:
127,205,40933,1,2,0:0:0:0:
58,339,41127,1,10,0:3:0:0:
187,322,41320,1,0,0:0:0:0:
282,205,41514,1,8,0:3:0:0:
222,48,41707,2,0,L|190:47,1,18.75,8|0,0:3|0:0,0:0:0:0:
104,70,41901,5,0,0:0:0:0:
104,70,41998,2,0,L|95:171,1,75,8|0,0:3|0:0,0:0:0:0:
45,233,42288,1,10,0:3:0:0:
47,239,42385,1,0,0:0:0:0:
52,244,42482,1,2,0:0:0:0:
191,333,42675,6,0,P|188:276|196:221,1,112.5,10|0,0:3|0:0,0:0:0:0:
208,228,43062,1,2,0:0:0:0:
302,271,43256,1,0,0:0:0:0:
307,275,43353,1,0,0:0:0:0:
312,280,43449,6,0,P|315:223|307:168,1,112.5,10|0,0:3|0:0,0:0:0:0:
245,89,43836,1,8,0:3:0:0:
232,97,44030,1,2,0:0:0:0:
33,188,44224,2,0,L|114:191,1,75,10|2,0:3|0:0,0:0:0:0:
217,212,44482,5,2,0:0:0:0:
208,207,44546,1,2,0:0:0:0:
199,201,44611,6,0,L|192:270,1,37.5,2|0,1:2|0:0,0:0:0:0:
448,229,44804,2,0,L|452:267,1,37.5,2|0,0:0|0:0,0:0:0:0:
326,354,44998,6,0,P|321:266|329:167,1,150,4|2,1:1|0:0,0:0:0:0:
491,104,45288,2,0,L|398:99,1,75,8|0,0:0|0:0,0:0:0:0:
83,64,45578,1,2,0:0:0:0:
187,55,45675,1,2,0:0:0:0:
291,46,45772,6,0,L|281:122,1,75,8|0,1:2|0:0,0:0:0:0:
182,212,45965,2,0,L|191:140,1,56.2500021457673,10|0,0:0|0:0,0:0:0:0:
39,352,46159,2,0,L|54:236,1,112.5,8|0,0:0|0:0,0:0:0:0:
68,270,46546,6,0,P|149:287|296:271,1,225,4|0,0:1|0:0,0:0:0:0:
500,296,46933,1,4,1:2:0:0:
393,311,47127,1,2,0:0:0:0:
393,311,47224,1,0,0:0:0:0:
393,311,47320,6,0,L|406:223,1,75,6|0,0:2|0:0,0:0:0:0:
278,347,47514,2,0,L|291:259,1,75,10|0,0:0|0:0,0:0:0:0:
61,197,47707,2,0,L|74:285,1,75,6|0,1:2|0:0,0:0:0:0:
246,11,47901,2,0,L|233:99,1,75,10|0,0:0|0:0,0:0:0:0:
167,174,48094,5,4,0:0:0:0:
167,174,48191,2,0,P|184:255|171:391,1,150,2|2,0:0|0:0,0:0:0:0:
19,264,48482,1,6,1:2:0:0:
332,241,48675,1,0,0:0:0:0:
332,241,48772,1,0,0:0:0:0:
332,241,48869,2,0,P|315:167|314:93,1,150,14|2,0:0|0:0,0:0:0:0:
471,99,49159,2,0,L|462:174,1,56.2500021457673,8|4,0:0|1:2,0:0:0:0:
427,340,49449,5,8,0:0:0:0:
427,340,49545,1,0,0:0:0:0:
427,340,49642,2,0,P|352:340|279:357,1,150,6|2,0:0|0:0,0:0:0:0:
66,331,49933,1,8,0:0:0:0:
173,321,50030,1,4,1:2:0:0:
173,321,50224,1,2,0:0:0:0:
173,321,50320,1,0,0:0:0:0:
173,321,50417,6,0,L|182:232,1,75,6|8,0:0|0:3,0:0:0:0:
474,53,50707,1,8,0:3:0:0:
474,53,50804,2,0,L|466:127,1,75,6|0,1:2|0:0,0:0:0:0:
180,120,50998,2,0,L|172:45,1,75
320,52,51191,6,0,P|319:126|302:199,1,150,4|0,0:0|0:0,0:0:0:0:
134,310,51482,1,0,0:0:0:0:
102,205,51578,1,6,1:2:0:0:
102,205,51675,2,0,P|176:206|249:223,1,150,8|2,0:0|0:0,0:0:0:0:
349,328,51965,5,6,0:0:0:0:
349,312,52062,1,0,0:0:0:0:
440,256,52159,1,10,0:0:0:0:
440,240,52256,1,0,0:0:0:0:
343,175,52353,1,6,1:2:0:0:
343,159,52450,1,0,1:0:0:0:
342,144,52546,1,2,0:3:0:0:
341,129,52740,6,0,P|340:203|323:276,1,150,6|2,0:2|0:0,0:0:0:0:
322,276,53030,1,0,0:0:0:0:
322,276,53127,1,6,1:2:0:0:
134,265,53320,1,2,0:0:0:0:
134,265,53417,1,0,0:0:0:0:
134,265,53514,6,0,L|129:186,1,75,6|0,0:0|0:0,0:0:0:0:
345,54,53707,2,0,L|340:133,1,75,10|0,0:0|0:0,0:0:0:0:
397,281,53901,2,0,L|318:276,1,75,6|0,1:2|0:0,0:0:0:0:
54,194,54094,2,0,L|133:189,1,75,2|0,0:0|0:0,0:0:0:0:
477,186,54288,5,12,0:0:0:0:
477,186,54385,2,0,P|404:168|329:167,1,150,8|2,0:3|0:0,0:0:0:0:
170,303,54675,1,6,1:2:0:0:
261,249,54869,1,0,0:0:0:0:
261,249,54965,1,0,0:0:0:0:
261,249,55062,2,0,L|185:156,1,75,6|0,0:0|0:0,0:0:0:0:
138,99,55256,1,8,0:0:0:0:
348,332,55449,2,0,P|365:259|367:180,1,149.62499383564,6|2,1:2|0:0,0:0:0:0:
246,144,55836,5,14,0:0:0:0:
243,163,55932,1,0,0:0:0:0:
244,182,56029,1,0,0:0:0:0:
247,201,56126,1,0,0:0:0:0:
336,270,56224,5,6,1:2:0:0:
357,204,56320,1,8,0:3:0:0:
360,134,56417,1,8,0:3:0:0:
335,68,56514,1,8,0:3:0:0:
246,144,56611,5,6,0:0:0:0:
249,163,56707,1,0,0:0:0:0:
248,182,56804,1,8,0:0:0:0:
207,288,56901,5,8,0:3:0:0:
137,327,56998,1,4,1:2:0:0:
78,274,57094,1,8,0:3:0:0:
111,201,57191,1,8,0:3:0:0:
190,209,57288,1,8,0:3:0:0:
207,288,57385,5,12,0:0:0:0:
214,306,57482,1,0,0:0:0:0:
264,349,57578,5,0,1:0:0:0:
282,357,57675,1,0,0:0:0:0:
301,356,57772,1,8,0:0:0:0:
356,318,57869,5,2,0:0:0:0:
370,305,57965,1,0,0:0:0:0:
389,301,58062,1,0,0:0:0:0:
449,332,58159,6,0,P|462:278|460:227,1,99.7499958904268,8|0,0:0|0:0,0:0:0:0:
355,209,58417,5,2,0:0:0:0:
355,209,58482,1,2,0:0:0:0:
355,209,58546,2,0,P|352:164|359:128,1,75,8|2,1:2|0:0,0:0:0:0:
440,102,58804,5,2,0:0:0:0:
459,87,58869,1,2,0:0:0:0:
464,62,58933,6,0,P|391:45|312:43,1,149.62499383564,4|0,1:1|0:0,0:0:0:0:
110,82,59224,1,8,0:0:0:0:
221,100,59320,1,6,1:2:0:0:
221,100,59514,2,0,L|229:192,1,75,2|0,0:0|0:0,0:0:0:0:
302,343,59707,6,0,P|319:270|321:191,1,149.62499383564,6|2,0:2|0:0,0:0:0:0:
478,338,59998,2,0,L|382:337,1,75,8|6,0:0|1:2,0:0:0:0:
79,234,60288,1,2,0:0:0:0:
79,234,60482,6,0,P|152:251|231:253,1,150,6|2,0:2|0:0,0:0:0:0:
433,214,60772,1,8,0:0:0:0:
322,196,60868,1,6,1:2:0:0:
322,196,61062,2,0,L|304:112,1,75
452,66,61256,6,0,P|449:140|432:213,1,150,6|2,0:2|0:0,0:0:0:0:
372,327,61546,1,8,0:0:0:0:
372,327,61643,2,0,L|401:358,3,37.5,6|0|0|0,1:2|0:0|0:0|0:0,0:0:0:0:
242,348,62030,6,0,P|168:363|93:365,1,150,6|8,0:2|0:0,0:0:0:0:
93,365,62417,1,6,1:2:0:0:
39,188,62611,1,8,0:0:0:0:
39,188,62707,1,2,0:0:0:0:
39,188,62804,2,0,P|112:203|187:205,1,150,12|8,0:2|0:0,0:0:0:0:
406,136,63191,1,6,1:2:0:0:
291,147,63385,1,8,0:0:0:0:
475,338,63578,5,4,0:1:0:0:
233,328,63772,1,2,0:0:0:0:
338,41,63965,5,4,0:1:0:0:
353,297,64159,1,2,0:0:0:0:
25,219,64353,5,4,0:1:0:0:
267,209,64546,1,0,0:0:0:0:
267,209,64643,1,2,0:0:0:0:
215,240,64740,5,2,1:2:0:0:
215,170,64837,1,2,1:2:0:0:
282,149,64934,1,2,0:3:0:0:
323,205,65031,1,2,0:0:0:0:
282,262,65127,6,0,L|223:299,1,49.8749979452134,4|2,0:1|0:0,0:0:0:0:
95,334,65320,1,8,0:0:0:0:
95,334,65417,2,0,P|96:259|112:185,1,150,2|8,0:2|0:0,0:0:0:0:
186,98,65707,1,0,0:0:0:0:
111,185,65901,5,12,0:0:0:0:
111,185,65998,2,0,L|200:190,1,75,2|0,0:0|0:0,0:0:0:0:
341,278,66191,2,0,P|342:203|358:129,1,150,2|0,0:2|0:0,0:0:0:0:
357,129,66482,1,8,0:0:0:0:
455,347,66675,5,6,0:0:0:0:
217,342,66869,1,8,0:0:0:0:
217,342,66965,2,0,P|222:295|232:257,1,75,2|4,0:0|1:2,0:0:0:0:
58,194,67159,1,8,0:0:0:0:
58,194,67256,2,0,P|105:199|143:209,1,75,2|0,0:0|0:0,0:0:0:0:
461,203,67449,6,0,P|386:202|312:186,1,150,12|2,0:2|0:0,0:0:0:0:
148,35,67740,1,2,0:0:0:0:
247,88,67836,1,4,1:1:0:0:
105,308,68030,1,8,0:0:0:0:
460,201,68224,5,4,1:0:0:0:
392,231,68320,1,2,0:0:0:0:
317,219,68417,1,10,0:0:0:0:
262,167,68514,1,2,0:0:0:0:
161,251,68611,5,2,1:2:0:0:
127,175,68707,1,2,0:0:0:0:
141,92,68804,1,10,0:0:0:0:
198,32,68901,1,10,0:0:0:0:
373,79,68998,5,2,1:2:0:0:
375,108,69094,1,0,0:0:0:0:
377,137,69191,1,0,0:0:0:0:
380,166,69288,1,0,1:0:0:0:
380,361,69385,1,0,1:0:0:0:
265,323,69482,1,2,0:0:0:0:
265,203,69578,1,10,0:0:0:0:
380,166,69675,1,10,0:0:0:0:
450,263,69772,5,4,0:1:0:0:
450,263,70062,1,4,0:1:0:0:
450,263,70353,1,4,0:1:0:0:
450,263,70546,1,4,0:1:0:0:
368,337,70933,1,0,0:0:0:0:
36,80,71320,6,0,P|111:81|261:129,1,225,4|8,0:1|0:0,0:0:0:0:
477,133,71707,1,4,1:2:0:0:
477,133,71804,1,2,0:0:0:0:
364,104,71901,2,0,L|359:203,1,56.2500021457673,8|0,0:0|0:0,0:0:0:0:
285,365,72094,6,0,P|284:290|239:157,1,150,6|0,0:2|0:0,0:0:0:0:
47,320,72385,2,0,L|143:313,2,56.2500021457673,8|4|0,0:0|1:2|0:0,0:0:0:0:
266,217,72675,2,0,L|178:209,1,75,8|0,0:0|0:0,0:0:0:0:
383,296,72869,6,0,P|384:221|429:88,1,150,6|2,0:2|0:0,0:0:0:0:
215,48,73159,1,8,0:0:0:0:
330,50,73256,1,4,1:2:0:0:
330,50,73353,1,0,0:0:0:0:
330,50,73449,2,0,L|286:154,1,75,8|0,0:0|0:0,0:0:0:0:
209,317,73643,5,6,0:0:0:0:
322,323,73836,1,2,0:0:0:0:
68,183,74030,1,4,1:2:0:0:
68,183,74224,1,8,0:0:0:0:
68,183,74417,6,0,P|111:183|154:193,1,75,12|0,0:2|0:0,0:0:0:0:
477,227,74611,1,2,0:0:0:0:
477,227,74707,2,0,P|404:209|329:208,1,150,8|2,0:2|0:0,0:0:0:0:
214,376,74998,2,0,L|222:296,1,75,2|0,0:0|0:0,0:0:0:0:
304,24,75191,6,0,L|313:107,1,75,6|0,0:0|0:0,0:0:0:0:
431,277,75385,2,0,L|423:184,1,75,8|0,0:0|0:0,0:0:0:0:
304,24,75578,1,6,1:2:0:0:
412,88,75772,1,2,0:0:0:0:
71,156,75965,6,0,P|144:138|219:137,1,150,12|2,0:2|0:0,0:0:0:0:
316,228,76256,2,0,L|324:154,2,56.2500021457673,10|4|0,0:0|1:2|0:0,0:0:0:0:
301,343,76546,1,8,0:0:0:0:
301,343,76740,5,4,0:1:0:0:
191,319,76836,1,2,0:0:0:0:
191,319,77030,1,2,0:0:0:0:
191,319,77127,2,0,L|199:244,1,75,4|2,0:1|3:2,0:0:0:0:
404,328,77417,5,2,3:0:0:0:
404,328,77514,2,0,P|402:253|384:180,1,150,4|0,0:1|0:0,0:0:0:0:
270,23,77804,1,8,0:0:0:0:
290,80,77901,1,6,1:2:0:0:
285,122,77998,1,0,0:0:0:0:
273,145,78094,2,0,L|185:154,1,56.2500021457673,2|0,0:0|0:0,0:0:0:0:
66,255,78288,6,0,P|67:180|85:107,1,150,12|2,0:2|0:0,0:0:0:0:
85,107,78578,1,8,0:0:0:0:
169,342,78772,1,0,0:0:0:0:
169,342,78869,2,0,L|175:260,1,56.2500021457673,2|0,0:0|0:0,0:0:0:0:
431,314,79062,6,0,P|358:331|283:333,1,150,12|0,0:2|0:0,0:0:0:0:
205,185,79353,1,8,0:0:0:0:
277,185,79449,1,6,1:2:0:0:
321,210,79546,1,0,0:0:0:0:
334,245,79643,2,0,L|329:174,1,56.2500021457673,2|0,0:0|0:0,0:0:0:0:
464,29,79836,5,12,0:0:0:0:
472,138,79933,1,2,0:0:0:0:
472,138,80127,1,2,0:0:0:0:
472,138,80224,2,0,L|389:134,1,56.2500021457673,6|0,1:2|0:0,0:0:0:0:
122,200,80417,2,0,L|192:194,1,56.2500021457673,2|0,0:0|0:0,0:0:0:0:
318,318,80611,6,0,P|300:245|298:170,1,150,12|2,0:2|0:0,0:0:0:0:
298,170,80901,1,2,0:0:0:0:
149,350,81094,1,0,0:0:0:0:
149,350,81191,2,0,L|137:266,1,56.2500021457673,2|0,0:0|0:0,0:0:0:0:
59,46,81385,6,0,P|76:118|78:193,1,150,12|2,0:2|0:0,0:0:0:0:
194,58,81675,2,0,L|205:142,1,75,2|4,0:0|1:2,0:0:0:0:
428,275,81965,2,0,L|437:200,1,75,2|0,0:0|0:0,0:0:0:0:
301,326,82159,5,6,0:0:0:0:
302,310,82353,1,2,0:0:0:0:
190,283,82449,1,10,0:0:0:0:
192,268,82643,1,10,0:0:0:0:
304,294,82740,1,2,0:0:0:0:
194,252,82836,1,10,0:0:0:0:
305,279,82933,1,6,0:0:0:0:
307,263,83030,1,2,0:0:0:0:
413,245,83127,5,2,0:2:0:0:
414,229,83223,1,2,0:2:0:0:
416,213,83320,1,2,0:2:0:0:
417,198,83417,1,2,0:2:0:0:
419,183,83514,2,0,L|329:173,1,56.2500021457673,2|0,0:0|0:0,0:0:0:0:
70,109,83707,6,0,P|144:107|217:90,1,150,4|2,0:1|0:0,0:0:0:0:
461,63,83998,1,8,0:0:0:0:
334,50,84094,1,4,1:2:0:0:
334,50,84191,1,0,0:0:0:0:
334,50,84288,2,0,L|342:134,1,56.2500021457673,2|0,0:0|0:0,0:0:0:0:
237,342,84482,6,0,P|239:268|256:195,1,150,12|0,0:2|0:0,0:0:0:0:
417,291,84772,1,8,0:0:0:0:
417,291,84869,2,0,L|342:281,1,56.2500021457673,4|0,1:2|0:0,0:0:0:0:
124,249,85062,1,8,0:0:0:0:
124,249,85256,6,0,P|128:175|117:100,1,150,12|0,0:2|0:0,0:0:0:0:
417,120,85546,2,0,P|393:191|385:265,1,150,8|0,0:2|0:0,0:0:0:0:
246,345,85836,2,0,L|252:264,1,75,2|0,0:0|0:0,0:0:0:0:
270,69,86030,5,12,0:0:0:0:
271,83,86127,1,0,0:0:0:0:
272,97,86224,1,0,0:0:0:0:
360,140,86320,1,2,0:0:0:0:
360,125,86417,1,6,1:2:0:0:
332,286,86611,1,2,0:0:0:0:
359,111,86804,5,12,0:0:0:0:
71,41,86998,1,2,0:0:0:0:
71,41,87094,2,0,P|88:113|90:188,1,150,8|0,0:2|0:0,0:0:0:0:
218,337,87385,2,0,L|209:252,1,75,2|0,0:0|0:0,0:0:0:0:
185,123,87578,5,12,0:0:0:0:
186,137,87675,1,0,0:0:0:0:
271,169,87772,1,2,0:0:0:0:
272,183,87869,1,0,0:0:0:0:
325,85,87965,5,12,1:2:0:0:
326,99,88062,1,0,0:0:0:0:
411,131,88159,1,2,0:0:0:0:
412,145,88256,1,0,0:0:0:0:
500,80,88353,6,0,P|514:160|516:252,1,150,12|2,0:0|0:0,0:0:0:0:
410,342,88643,1,8,0:0:0:0:
410,342,88740,2,0,L|402:253,1,75,4|0,1:2|0:0,0:0:0:0:
147,142,88933,2,0,L|140:216,1,75,2|0,0:0|0:0,0:0:0:0:
262,351,89127,5,4,0:1:0:0:
357,252,89224,1,10,0:0:0:0:
262,155,89320,1,2,0:0:0:0:
164,253,89417,1,10,0:0:0:0:
271,262,89514,1,2,1:2:0:0:
271,262,89611,1,2,0:2:0:0:
271,262,89707,1,2,0:2:0:0:
271,262,89804,1,0,0:0:0:0:
271,262,89901,6,0,P|267:187|254:113,1,150,12|0,0:0|0:0,0:0:0:0:
64,21,90191,1,8,0:0:0:0:
172,41,90288,1,4,1:2:0:0:
172,41,90385,1,0,0:0:0:0:
172,41,90482,2,0,L|140:110,1,56.2500021457673,2|0,0:0|0:0,0:0:0:0:
379,175,90675,6,0,P|366:249|363:324,1,150,12|2,0:0|0:0,0:0:0:0:
204,353,90965,2,0,L|199:262,1,75,8|4,0:0|1:2,0:0:0:0:
40,351,91256,1,0,0:0:0:0:
40,351,91449,6,0,P|36:276|23:202,1,150,12|2,0:0|0:0,0:0:0:0:
104,28,91740,1,8,0:0:0:0:
98,127,91836,1,4,1:2:0:0:
98,127,91933,1,0,0:0:0:0:
98,127,92030,2,0,L|170:158,1,56.2500021457673,2|0,0:0|0:0,0:0:0:0:
331,208,92224,5,4,0:0:0:0:
222,239,92320,1,10,0:0:0:0:
273,41,92514,1,2,0:0:0:0:
273,41,92611,2,0,L|279:121,1,56.2500021457673,4|0,1:2|0:0,0:0:0:0:
458,317,92804,2,0,L|462:260,1,56.2500021457673,8|0,0:0|0:0,0:0:0:0:
167,98,92998,5,12,1:2:0:0:
358,291,93191,1,2,0:0:0:0:
398,58,93385,5,12,1:2:0:0:
166,287,93578,1,2,0:0:0:0:
136,47,93772,5,12,1:2:0:0:
136,56,93836,1,2,0:0:0:0:
136,66,93901,1,2,0:0:0:0:
136,75,93965,1,2,0:0:0:0:
386,313,94159,5,4,1:0:0:0:
429,38,94353,1,2,0:0:0:0:
386,313,94546,5,12,1:2:0:0:
76,207,94740,1,2,0:0:0:0:
76,207,94836,2,0,P|149:194|224:190,1,150,8|0,1:2|0:0,0:0:0:0:
472,217,95127,1,2,0:0:0:0:
457,219,95224,1,0,0:0:0:0:
442,220,95320,1,4,0:1:0:0:
427,223,95707,1,8,0:3:0:0:
412,226,96094,5,12,0:2:0:0:
281,237,96385,1,2,0:0:0:0:
281,237,96482,2,0,L|293:122,1,112.500004291535,0|2,1:2|0:0,0:0:0:0:
433,325,96869,2,0,P|360:338|254:331,1,168.750006437302,2|2,0:0|0:0,0:0:0:0:
62,350,97256,1,0,1:0:0:0:
166,359,97449,5,0,0:0:0:0:
166,359,97514,1,0,0:0:0:0:
166,359,97578,1,0,0:0:0:0:
166,359,97643,2,0,P|179:286|173:199,1,112.500004291535,2|0,0:2|0:0,0:0:0:0:
238,71,97933,1,2,0:0:0:0:
233,167,98030,1,0,1:0:0:0:
362,256,98224,5,2,0:0:0:0:
363,244,98320,1,0,0:0:0:0:
364,232,98417,2,0,L|368:177,1,37.5,2|0,0:0|0:0,0:0:0:0:
433,324,98611,1,8,0:3:0:0:
443,131,98804,1,0,1:0:0:0:
443,131,98998,1,0,0:0:0:0:
309,106,99191,5,2,0:0:0:0:
309,106,99288,2,0,L|370:110,1,37.5,2|0,0:0|0:0,0:0:0:0:
180,149,99482,2,0,P|193:76|187:-11,1,112.500004291535,8|0,0:3|0:0,0:0:0:0:
346,212,99772,2,0,L|336:279,1,56.2500021457673,2|0,0:0|0:0,0:0:0:0:
203,264,99965,5,2,0:0:0:0:
203,264,100062,2,0,L|135:258,1,56.2500021457673,2|0,0:0|0:0,0:0:0:0:
353,298,100256,2,0,P|366:225|360:138,1,112.500004291535,8|0,0:3|0:0,0:0:0:0:
498,81,100546,2,0,L|492:149,1,56.2500021457673,2|0,0:0|0:0,0:0:0:0:
511,335,100740,6,0,P|438:322|351:328,1,112.500004291535,2|0,0:0|0:0,0:0:0:0:
247,332,101030,2,0,P|248:275|260:220,1,112.500004291535,8|0,0:3|0:0,0:0:0:0:
310,56,101320,2,0,L|316:124,1,56.2500021457673,8|0,0:3|0:0,0:0:0:0:
314,112,101514,1,0,0:0:0:0:
314,112,101611,1,0,0:0:0:0:
314,112,101707,1,2,0:0:0:0:
54,108,101901,5,4,1:1:0:0:
153,341,102288,6,0,P|151:284|124:187,2,150,8|0|2,0:3|1:0|0:0,0:0:0:0:
261,341,103256,1,2,0:0:0:0:
393,191,103449,1,2,1:2:0:0:
288,172,103643,1,2,0:0:0:0:
467,339,103836,6,0,P|468:282|507:170,1,168.750006437302,8|2,0:3|0:0,0:0:0:0:
503,176,104224,1,0,1:1:0:0:
504,187,104417,1,0,0:0:0:0:
504,198,104611,1,4,0:1:0:0:
274,318,104901,5,2,1:2:0:0:
274,318,104998,1,2,1:2:0:0:
255,297,105094,1,2,0:0:0:0:
269,273,105191,1,2,0:0:0:0:
296,278,105288,1,2,0:0:0:0:
299,306,105385,5,8,0:0:0:0:
299,306,105578,1,8,0:0:0:0:
149,281,105772,6,0,L|178:282,1,26.2499991989136
347,273,105965,5,8,0:0:0:0:
305,282,106159,1,8,0:0:0:0:
138,255,106353,6,0,L|167:256,1,26.2499991989136
395,240,106546,5,8,0:0:0:0:
311,258,106740,1,8,0:0:0:0:
123,222,106933,6,0,L|152:223,1,26.2499991989136
443,207,107127,5,10,0:0:0:0:
102,192,107320,1,4,1:0:0:0:
301,194,107514,6,0,L|331:189,2,25,2|2|2,0:0|0:0|0:0,0:0:0:0:
278,208,107707,2,0,P|284:157|269:82,1,112.500004291535,0|2,0:0|0:0,0:0:0:0:
187,43,107998,1,0,0:0:0:0:
144,126,108094,1,0,1:0:0:0:
143,137,108191,1,0,1:0:0:0:
142,148,108288,2,0,L|135:219,1,56.2500021457673,2|0,0:3|0:0,0:0:0:0:
7,154,108482,6,0,P|115:135|236:143,1,225,4|4,1:0|0:0,0:0:0:0:
325,369,108869,2,0,L|308:201,1,150,2|6,1:2|0:0,0:0:0:0:
493,271,109159,1,0,0:0:0:0:
493,271,109256,2,0,P|412:290|331:285,1,112.500004291535,2|4,0:0|0:0,0:0:0:0:
85,247,109546,2,0,L|171:239,1,75,2|0,0:0|1:0,0:0:0:0:
204,317,109837,6,0,P|187:236|189:167,1,150,6|0,0:0|0:0,0:0:0:0:
95,82,110127,1,0,0:0:0:0:
95,82,110224,2,0,L|170:88,1,56.2500021457673,6|0,0:0|0:0,0:0:0:0:
245,303,110417,2,0,L|324:313,1,56.2500021457673,2|0,1:2|0:0,0:0:0:0:
390,139,110611,2,0,L|294:144,1,56.2500021457673,6|0,0:0|0:0,0:0:0:0:
141,366,110805,6,0,P|158:285|156:216,1,150,2|4,0:0|0:0,0:0:0:0:
51,159,111095,2,0,L|56:224,1,56.2500021457673,8|2,0:0|1:2,0:0:0:0:
244,279,111288,1,0,0:0:0:0:
210,325,111385,2,0,L|215:268,1,56.2500021457673,12|0,0:0|0:0,0:0:0:0:
51,159,111579,6,0,P|132:176|200:171,1,150,2|6,0:0|0:0,0:0:0:0:
418,149,111869,1,2,0:0:0:0:
305,130,111966,1,2,1:2:0:0:
471,327,112159,1,6,0:0:0:0:
305,130,112353,6,0,P|322:211|318:289,1,150,2|4,0:0|0:0,0:0:0:0:
117,332,112643,2,0,L|107:322|103:318|99:239,1,75,2|0,0:0|1:0,0:0:0:0:
117,332,112934,6,0,P|100:251|105:175,1,149.62499383564,6|0,0:0|0:0,0:0:0:0:
146,91,113321,1,6,0:0:0:0:
253,187,113417,1,2,0:0:0:0:
289,332,113514,1,2,1:2:0:0:
388,286,113611,1,2,0:0:0:0:
378,177,113708,1,6,0:0:0:0:
270,154,113805,1,2,0:0:0:0:
215,250,113902,1,10,0:0:0:0:
215,250,114095,5,4,0:0:0:0:
215,250,114192,1,0,0:0:0:0:
215,250,114288,1,2,1:2:0:0:
88,208,114385,1,2,0:0:0:0:
88,76,114482,1,6,0:0:0:0:
214,36,114579,1,2,0:0:0:0:
289,142,114676,6,0,P|214:152|140:143,1,149.62499383564,4|6,0:1|0:0,0:0:0:0:
46,35,115063,2,0,L|35:176,1,75,2|0,1:2|0:0,0:0:0:0:
29,226,115256,1,6,0:0:0:0:
29,226,115450,6,0,P|104:215|172:186,1,149.62499383564,2|4,0:0|0:0,0:0:0:0:
366,276,115740,2,0,L|292:270,1,75,2|0,0:0|1:0,0:0:0:0:
468,137,116030,6,0,P|414:146|350:147,1,112.500004291535,6|2,0:0|0:0,0:0:0:0:
106,317,116417,1,6,0:0:0:0:
165,233,116514,1,2,0:0:0:0:
106,317,116611,1,2,1:2:0:0:
197,134,116805,1,6,0:0:0:0:
228,331,116998,6,0,L|228:213,1,99.7499958904268,2|4,0:0|0:0,0:0:0:0:
104,89,117288,1,2,0:0:0:0:
104,223,117385,1,2,1:2:0:0:
294,42,117579,1,4,0:0:0:0:
430,310,117772,6,0,P|421:256|427:153,1,150,2|4,0:0|0:0,0:0:0:0:
102,168,118063,2,0,P|111:222|105:325,1,150,2|0,0:0|0:0,0:0:0:0:
269,350,118353,2,0,L|265:266,1,75,12|0,0:0|0:0,0:0:0:0:
350,83,118546,6,0,P|341:137|347:240,1,150,2|4,0:0|0:0,0:0:0:0:
22,225,118837,2,0,P|31:171|25:68,1,150,2|0,0:0|0:0,0:0:0:0:
189,43,119127,2,0,L|185:127,1,75,12|0,0:0|0:0,0:0:0:0:
33,329,119321,6,0,P|87:320|190:326,1,150,4|6,0:1|0:0,0:0:0:0:
451,293,119611,1,8,0:0:0:0:
347,354,119708,6,0,P|338:300|344:197,1,150,4|4,1:1|0:0,0:0:0:0:
329,64,119998,1,2,1:2:0:0:
475,64,120095,5,4,0:1:0:0:
445,164,120192,1,2,0:0:0:0:
356,216,120288,1,2,0:0:0:0:
253,198,120385,1,2,0:0:0:0:
151,107,120482,5,2,1:2:0:0:
154,121,120579,1,2,1:2:0:0:
157,135,120676,2,0,L|166:170,2,25,2|2|2,0:0|0:0|0:0,0:0:0:0:
172,288,120869,5,10,0:0:0:0:
172,288,120966,2,0,L|178:238,1,37.5,2|4,0:0|0:0,0:0:0:0:
413,283,121159,1,10,1:2:0:0:
413,283,121256,2,0,L|407:233,1,37.5,2|0,0:0|0:0,0:0:0:0:
294,344,121450,2,0,L|293:254,1,75.000002861023,2|0,0:0|0:0,0:0:0:0:
374,105,121643,5,10,0:0:0:0:
374,105,121740,2,0,L|368:155,1,37.5,0|6,0:0|0:0,0:0:0:0:
186,122,121933,1,10,1:2:0:0:
186,122,122030,2,0,L|192:172,1,37.5,2|0,0:0|0:0,0:0:0:0:
41,250,122224,2,0,L|44:343,1,75.000002861023,2|0,0:0|0:0,0:0:0:0:
168,325,122417,5,10,0:0:0:0:
168,325,122514,2,0,L|174:275,1,37.5,2|4,0:0|0:0,0:0:0:0:
470,286,122707,1,10,1:2:0:0:
470,286,122804,2,0,L|464:236,1,37.5,2|0,0:0|0:0,0:0:0:0:
327,356,122998,2,0,L|318:265,1,75,10|0,0:0|0:0,0:0:0:0:
382,86,123192,6,0,L|375:160,1,75,8|0,0:0|0:0,0:0:0:0:
168,313,123385,2,0,L|176:238,2,50,6|2|2,1:2|0:0|0:0,0:0:0:0:
227,45,123579,2,0,L|235:119,1,75,10|0,0:0|0:0,0:0:0:0:
27,324,123772,2,0,L|18:233,1,75,12|0,0:0|0:0,0:0:0:0:
83,26,123966,6,0,L|91:100,1,75,10|0,0:0|0:0,0:0:0:0:
103,341,124159,1,4,1:2:0:0:
123,216,124256,1,10,0:0:0:0:
272,324,124450,1,2,0:0:0:0:
262,268,124546,1,12,0:0:0:0:
440,356,124740,6,0,L|433:281,1,75,10|0,0:0|0:0,0:0:0:0:
420,41,124933,1,4,1:2:0:0:
400,166,125030,1,10,0:0:0:0:
244,79,125224,1,2,0:0:0:0:
234,135,125320,1,12,0:0:0:0:
224,191,125417,1,2,0:0:0:0:
78,314,125514,6,0,P|132:305|235:311,1,150,4|0,0:1|1:0,0:0:0:0:
479,146,125805,2,0,P|405:151|331:141,1,150,4|2,0:1|0:0,0:0:0:0:
56,183,126095,1,2,0:0:0:0:
56,183,126192,1,2,0:0:0:0:
56,183,126288,2,0,P|182:200|120:115,1,300,4|0,1:0|0:0,0:0:0:0:
