osu file format v14

[General]
AudioFilename: audio.mp3
AudioLeadIn: 0
PreviewTime: 65768
Countdown: 0
SampleSet: Soft
StackLeniency: 0.7
Mode: 3
LetterboxInBreaks: 0
SpecialStyle: 0
WidescreenStoryboard: 0

[Editor]
DistanceSpacing: 1
BeatDivisor: 4
GridSize: 8
TimelineZoom: 1.9

[Metadata]
Title:Mew Mew World
TitleUnicode:ミュウミュウワールド
Artist:mitsukiyo (feat.Narae)
ArtistUnicode:ミツキヨ(feat.Narae)
Creator:Damaree
Version:Expert Lv.16
Source:RIDE ZERO
Tags:mew pack game stanya carolyn yuria sera spiny v caro ranne schoolgirl
BeatmapID:1488456
BeatmapSetID:703546

[Difficulty]
HPDrainRate:8
CircleSize:4
OverallDifficulty:8
ApproachRate:5
SliderMultiplier:1.4
SliderTickRate:1

[Events]
//Background and Video events
0,0,"cat ears.jpg",0,0
//Break Periods
//Storyboard Layer 0 (Background)
//Storyboard Layer 1 (Fail)
//Storyboard Layer 2 (Pass)
//Storyboard Layer 3 (Foreground)
//Storyboard Sound Samples

[TimingPoints]
3214,329.67032967033,4,2,0,0,1,0
66510,-100,4,2,0,0,0,1
87527,-100,4,2,0,0,0,0
87609,-100,4,2,0,0,0,1
108708,-100,4,2,0,0,0,0

[HitObjects]
64,192,3214,5,0,0:0:0:0:
320,192,3543,1,0,0:0:0:0:
192,192,3708,1,0,0:0:0:0:
64,192,3873,1,0,0:0:0:0:
448,192,4038,1,0,0:0:0:0:
192,192,4532,1,0,0:0:0:0:
448,192,4697,1,0,0:0:0:0:
320,192,4862,1,0,0:0:0:0:
192,192,5027,1,0,0:0:0:0:
64,192,5521,1,0,0:0:0:0:
320,192,5686,1,0,0:0:0:0:
448,192,5851,1,0,0:0:0:0:
320,192,6016,1,0,0:0:0:0:
192,192,6181,1,0,0:0:0:0:
64,192,6345,1,0,0:0:0:0:
192,192,6675,1,0,0:0:0:0:
448,192,6840,1,0,0:0:0:0:
64,192,7005,1,0,0:0:0:0:
320,192,7334,1,0,0:0:0:0:
192,192,7499,1,0,0:0:0:0:
448,192,8159,128,0,8488:0:0:0:0:
320,192,8159,1,0,0:0:0:0:
64,192,8488,128,0,9807:0:0:0:0:
192,192,8488,1,0,0:0:0:0:
320,192,8983,1,0,0:0:0:0:
192,192,9148,1,0,0:0:0:0:
448,192,9312,1,0,0:0:0:0:
192,192,9807,128,0,10796:0:0:0:0:
448,192,10137,128,0,10301:0:0:0:0:
320,192,10301,128,0,11126:0:0:0:0:
64,192,10796,128,0,11126:0:0:0:0:
448,192,11126,128,0,12444:0:0:0:0:
192,192,11455,1,0,0:0:0:0:
320,192,11785,1,0,0:0:0:0:
64,192,12115,128,0,12279:0:0:0:0:
320,192,12279,128,0,12444:0:0:0:0:
192,192,12444,128,0,13763:0:0:0:0:
64,192,12444,1,0,0:0:0:0:
448,192,12939,1,0,0:0:0:0:
64,192,13433,1,0,0:0:0:0:
448,192,13763,128,0,16400:0:0:0:0:
320,192,13763,1,0,0:0:0:0:
64,192,15082,128,0,16400:0:0:0:0:
192,192,15082,1,0,0:0:0:0:
320,192,16400,1,0,0:0:0:0:
64,192,16895,1,0,0:0:0:0:
320,192,17224,128,0,17554:0:0:0:0:
192,192,17389,128,0,17719:0:0:0:0:
448,192,17554,128,0,17884:0:0:0:0:
64,192,17719,128,0,18049:0:0:0:0:
320,192,17719,1,0,0:0:0:0:
320,192,17884,128,0,18214:0:0:0:0:
192,192,18049,128,0,18378:0:0:0:0:
64,192,18214,128,0,18543:0:0:0:0:
320,192,18378,128,0,18708:0:0:0:0:
448,192,18543,128,0,18873:0:0:0:0:
192,192,18708,128,0,19038:0:0:0:0:
320,192,18873,128,0,19038:0:0:0:0:
64,192,19038,1,0,0:0:0:0:
448,192,19367,1,0,0:0:0:0:
192,192,19532,1,0,0:0:0:0:
448,192,20356,128,0,21016:0:0:0:0:
64,192,20356,128,0,20686:0:0:0:0:
192,192,20686,128,0,21016:0:0:0:0:
64,192,21016,128,0,21675:0:0:0:0:
320,192,21016,128,0,21345:0:0:0:0:
448,192,21345,128,0,21675:0:0:0:0:
192,192,21675,1,0,0:0:0:0:
320,192,22170,1,0,0:0:0:0:
64,192,22664,1,0,0:0:0:0:
448,192,22994,128,0,24312:0:0:0:0:
320,192,22994,1,0,0:0:0:0:
64,192,24312,128,0,24642:0:0:0:0:
320,192,24477,128,0,24807:0:0:0:0:
192,192,24642,128,0,24972:0:0:0:0:
448,192,24807,128,0,25137:0:0:0:0:
64,192,24972,128,0,25301:0:0:0:0:
320,192,25137,128,0,25466:0:0:0:0:
192,192,25301,128,0,25631:0:0:0:0:
448,192,25466,128,0,25796:0:0:0:0:
64,192,25631,128,0,25961:0:0:0:0:
320,192,25796,128,0,26126:0:0:0:0:
192,192,25961,128,0,26290:0:0:0:0:
448,192,26126,128,0,26455:0:0:0:0:
64,192,26290,128,0,26620:0:0:0:0:
320,192,26455,128,0,26785:0:0:0:0:
192,192,26620,128,0,26950:0:0:0:0:
448,192,26785,128,0,26950:0:0:0:0:
64,192,26950,1,0,0:0:0:0:
320,192,27279,1,0,0:0:0:0:
192,192,27444,1,0,0:0:0:0:
64,192,27444,1,0,0:0:0:0:
448,192,27939,128,0,28433:0:0:0:0:
320,192,28433,1,0,0:0:0:0:
64,192,28433,1,0,0:0:0:0:
192,192,28763,1,0,0:0:0:0:
320,192,28928,1,0,0:0:0:0:
448,192,28928,1,0,0:0:0:0:
192,192,29257,1,0,0:0:0:0:
64,192,29257,1,0,0:0:0:0:
448,192,29587,1,0,0:0:0:0:
64,192,29587,1,0,0:0:0:0:
320,192,29917,1,0,0:0:0:0:
192,192,30082,1,0,0:0:0:0:
64,192,30082,1,0,0:0:0:0:
320,192,30411,1,0,0:0:0:0:
448,192,30576,1,0,0:0:0:0:
320,192,30906,1,0,0:0:0:0:
64,192,30906,1,0,0:0:0:0:
320,192,31071,1,0,0:0:0:0:
448,192,31071,1,0,0:0:0:0:
192,192,31071,1,0,0:0:0:0:
448,192,31235,1,0,0:0:0:0:
64,192,31235,1,0,0:0:0:0:
320,192,31400,1,0,0:0:0:0:
448,192,31565,1,0,0:0:0:0:
192,192,31565,1,0,0:0:0:0:
64,192,31565,1,0,0:0:0:0:
320,192,31730,1,0,0:0:0:0:
192,192,31895,1,0,0:0:0:0:
64,192,31895,1,0,0:0:0:0:
448,192,32060,1,0,0:0:0:0:
320,192,32224,1,0,0:0:0:0:
192,192,32224,1,0,0:0:0:0:
64,192,32224,1,0,0:0:0:0:
320,192,32389,1,0,0:0:0:0:
448,192,32554,1,0,0:0:0:0:
192,192,32554,1,0,0:0:0:0:
64,192,32554,1,0,0:0:0:0:
192,192,32719,1,0,0:0:0:0:
64,192,32884,1,0,0:0:0:0:
320,192,32884,1,0,0:0:0:0:
64,192,33049,1,0,0:0:0:0:
448,192,33214,1,0,0:0:0:0:
192,192,33214,1,0,0:0:0:0:
320,192,33214,1,0,0:0:0:0:
64,192,33268,1,0,0:0:0:0:
192,192,33323,1,0,0:0:0:0:
448,192,33378,1,0,0:0:0:0:
320,192,33433,1,0,0:0:0:0:
192,192,33488,1,0,0:0:0:0:
64,192,33543,1,0,0:0:0:0:
448,192,33543,1,0,0:0:0:0:
448,192,33708,1,0,0:0:0:0:
192,192,33873,1,0,0:0:0:0:
64,192,33873,1,0,0:0:0:0:
320,192,33873,1,0,0:0:0:0:
192,192,34038,1,0,0:0:0:0:
64,192,34203,1,0,0:0:0:0:
320,192,34203,1,0,0:0:0:0:
320,192,34367,1,0,0:0:0:0:
64,192,34532,1,0,0:0:0:0:
192,192,34532,1,0,0:0:0:0:
448,192,34532,1,0,0:0:0:0:
64,192,34697,1,0,0:0:0:0:
448,192,34862,1,0,0:0:0:0:
320,192,34862,1,0,0:0:0:0:
320,192,35027,1,0,0:0:0:0:
192,192,35192,1,0,0:0:0:0:
448,192,35192,1,0,0:0:0:0:
64,192,35192,1,0,0:0:0:0:
448,192,35356,1,0,0:0:0:0:
320,192,35521,1,0,0:0:0:0:
192,192,35521,1,0,0:0:0:0:
64,192,35686,128,0,36181:0:0:0:0:
320,192,35686,1,0,0:0:0:0:
448,192,35851,1,0,0:0:0:0:
192,192,35851,1,0,0:0:0:0:
448,192,36016,1,0,0:0:0:0:
192,192,36181,1,0,0:0:0:0:
320,192,36181,128,0,36675:0:0:0:0:
192,192,36345,1,0,0:0:0:0:
64,192,36510,1,0,0:0:0:0:
448,192,36510,1,0,0:0:0:0:
64,192,36675,1,0,0:0:0:0:
448,192,36675,128,0,37170:0:0:0:0:
192,192,36840,1,0,0:0:0:0:
320,192,36840,1,0,0:0:0:0:
192,192,37005,1,0,0:0:0:0:
320,192,37170,1,0,0:0:0:0:
64,192,37170,1,0,0:0:0:0:
320,192,37334,1,0,0:0:0:0:
64,192,37499,1,0,0:0:0:0:
192,192,37499,1,0,0:0:0:0:
64,192,37664,1,0,0:0:0:0:
448,192,37829,1,0,0:0:0:0:
192,192,37829,1,0,0:0:0:0:
320,192,37829,1,0,0:0:0:0:
320,192,37994,1,0,0:0:0:0:
192,192,38159,1,0,0:0:0:0:
448,192,38159,1,0,0:0:0:0:
192,192,38323,1,0,0:0:0:0:
320,192,38323,1,0,0:0:0:0:
64,192,38488,1,0,0:0:0:0:
448,192,38488,1,0,0:0:0:0:
320,192,38488,1,0,0:0:0:0:
64,192,38653,1,0,0:0:0:0:
448,192,38818,1,0,0:0:0:0:
192,192,38818,1,0,0:0:0:0:
448,192,38983,1,0,0:0:0:0:
320,192,39148,1,0,0:0:0:0:
64,192,39148,1,0,0:0:0:0:
192,192,39148,1,0,0:0:0:0:
320,192,39312,1,0,0:0:0:0:
64,192,39477,1,0,0:0:0:0:
448,192,39477,1,0,0:0:0:0:
64,192,39642,1,0,0:0:0:0:
448,192,39807,1,0,0:0:0:0:
320,192,39807,1,0,0:0:0:0:
192,192,39807,1,0,0:0:0:0:
320,192,39972,1,0,0:0:0:0:
448,192,40137,1,0,0:0:0:0:
192,192,40137,1,0,0:0:0:0:
192,192,40301,1,0,0:0:0:0:
64,192,40466,1,0,0:0:0:0:
320,192,40466,1,0,0:0:0:0:
448,192,40466,1,0,0:0:0:0:
64,192,40631,1,0,0:0:0:0:
448,192,40796,1,0,0:0:0:0:
192,192,40796,1,0,0:0:0:0:
448,192,40961,1,0,0:0:0:0:
64,192,41126,1,0,0:0:0:0:
320,192,41126,1,0,0:0:0:0:
192,192,41126,1,0,0:0:0:0:
192,192,41290,1,0,0:0:0:0:
448,192,41455,1,0,0:0:0:0:
320,192,41455,1,0,0:0:0:0:
320,192,41620,1,0,0:0:0:0:
192,192,41785,1,0,0:0:0:0:
64,192,41785,1,0,0:0:0:0:
448,192,41785,1,0,0:0:0:0:
64,192,41950,1,0,0:0:0:0:
320,192,42115,1,0,0:0:0:0:
192,192,42115,1,0,0:0:0:0:
448,192,42279,1,0,0:0:0:0:
320,192,42279,1,0,0:0:0:0:
64,192,42444,1,0,0:0:0:0:
448,192,42444,1,0,0:0:0:0:
192,192,42444,1,0,0:0:0:0:
64,192,42609,1,0,0:0:0:0:
448,192,42774,1,0,0:0:0:0:
192,192,42774,1,0,0:0:0:0:
448,192,42939,1,0,0:0:0:0:
320,192,43104,1,0,0:0:0:0:
64,192,43104,1,0,0:0:0:0:
192,192,43104,1,0,0:0:0:0:
64,192,43268,1,0,0:0:0:0:
448,192,43433,1,0,0:0:0:0:
192,192,43433,1,0,0:0:0:0:
448,192,43598,1,0,0:0:0:0:
320,192,43598,1,0,0:0:0:0:
192,192,43763,1,0,0:0:0:0:
64,192,43763,1,0,0:0:0:0:
320,192,43763,1,0,0:0:0:0:
448,192,43928,1,0,0:0:0:0:
192,192,43928,1,0,0:0:0:0:
320,192,44093,1,0,0:0:0:0:
64,192,44093,1,0,0:0:0:0:
64,192,44257,1,0,0:0:0:0:
448,192,44422,1,0,0:0:0:0:
192,192,44422,1,0,0:0:0:0:
320,192,44422,1,0,0:0:0:0:
448,192,44587,1,0,0:0:0:0:
320,192,44752,1,0,0:0:0:0:
64,192,44752,1,0,0:0:0:0:
64,192,44917,1,0,0:0:0:0:
448,192,44917,1,0,0:0:0:0:
192,192,45082,1,0,0:0:0:0:
448,192,45082,1,0,0:0:0:0:
320,192,45082,1,0,0:0:0:0:
192,192,45246,1,0,0:0:0:0:
448,192,45411,1,0,0:0:0:0:
320,192,45411,1,0,0:0:0:0:
64,192,45411,1,0,0:0:0:0:
192,192,45576,1,0,0:0:0:0:
320,192,45576,1,0,0:0:0:0:
192,192,45741,1,0,0:0:0:0:
64,192,45741,1,0,0:0:0:0:
448,192,45906,1,0,0:0:0:0:
64,192,45906,1,0,0:0:0:0:
320,192,45906,1,0,0:0:0:0:
320,192,46071,1,0,0:0:0:0:
192,192,46071,1,0,0:0:0:0:
192,192,46235,1,0,0:0:0:0:
64,192,46235,1,0,0:0:0:0:
320,192,46400,1,0,0:0:0:0:
64,192,46400,1,0,0:0:0:0:
448,192,46400,1,0,0:0:0:0:
448,192,46895,1,0,0:0:0:0:
192,192,46895,1,0,0:0:0:0:
320,192,47060,1,0,0:0:0:0:
64,192,47060,1,0,0:0:0:0:
192,192,47060,1,0,0:0:0:0:
448,192,47224,1,0,0:0:0:0:
64,192,47389,1,0,0:0:0:0:
192,192,47472,1,0,0:0:0:0:
320,192,47554,1,0,0:0:0:0:
448,192,47554,1,0,0:0:0:0:
192,192,47637,1,0,0:0:0:0:
64,192,47637,1,0,0:0:0:0:
448,192,47719,1,0,0:0:0:0:
320,192,47719,1,0,0:0:0:0:
192,192,47884,1,0,0:0:0:0:
64,192,47884,1,0,0:0:0:0:
320,192,48049,1,0,0:0:0:0:
192,192,48049,1,0,0:0:0:0:
448,192,48049,128,0,50686:0:0:0:0:
192,192,48543,1,0,0:0:0:0:
64,192,48543,1,0,0:0:0:0:
320,192,48708,1,0,0:0:0:0:
64,192,48708,1,0,0:0:0:0:
192,192,48873,1,0,0:0:0:0:
320,192,49203,1,0,0:0:0:0:
192,192,49367,1,0,0:0:0:0:
64,192,49367,1,0,0:0:0:0:
320,192,49532,1,0,0:0:0:0:
64,192,49862,1,0,0:0:0:0:
320,192,50027,1,0,0:0:0:0:
192,192,50027,1,0,0:0:0:0:
192,192,50192,1,0,0:0:0:0:
64,192,50192,1,0,0:0:0:0:
320,192,50356,1,0,0:0:0:0:
64,192,50686,128,0,53323:0:0:0:0:
192,192,50686,1,0,0:0:0:0:
320,192,50686,1,0,0:0:0:0:
320,192,51181,1,0,0:0:0:0:
192,192,51345,1,0,0:0:0:0:
448,192,51345,1,0,0:0:0:0:
448,192,51675,1,0,0:0:0:0:
320,192,51675,1,0,0:0:0:0:
192,192,52005,1,0,0:0:0:0:
320,192,52005,1,0,0:0:0:0:
448,192,52334,1,0,0:0:0:0:
192,192,52334,1,0,0:0:0:0:
448,192,52664,1,0,0:0:0:0:
320,192,52664,1,0,0:0:0:0:
192,192,52829,1,0,0:0:0:0:
448,192,52829,1,0,0:0:0:0:
320,192,52994,1,0,0:0:0:0:
192,192,53159,1,0,0:0:0:0:
448,192,53323,1,0,0:0:0:0:
320,192,53323,1,0,0:0:0:0:
192,192,53323,1,0,0:0:0:0:
64,192,53488,1,0,0:0:0:0:
320,192,53653,1,0,0:0:0:0:
448,192,53818,1,0,0:0:0:0:
192,192,53818,1,0,0:0:0:0:
320,192,53983,1,0,0:0:0:0:
64,192,54148,1,0,0:0:0:0:
320,192,54312,1,0,0:0:0:0:
448,192,54312,1,0,0:0:0:0:
64,192,54477,1,0,0:0:0:0:
320,192,54642,1,0,0:0:0:0:
192,192,54807,1,0,0:0:0:0:
448,192,54972,1,0,0:0:0:0:
64,192,54972,1,0,0:0:0:0:
320,192,55137,1,0,0:0:0:0:
192,192,55301,1,0,0:0:0:0:
64,192,55301,1,0,0:0:0:0:
320,192,55466,1,0,0:0:0:0:
448,192,55631,1,0,0:0:0:0:
64,192,55631,1,0,0:0:0:0:
192,192,55796,1,0,0:0:0:0:
320,192,55961,1,0,0:0:0:0:
64,192,55961,1,0,0:0:0:0:
448,192,56126,1,0,0:0:0:0:
192,192,56290,1,0,0:0:0:0:
320,192,56455,1,0,0:0:0:0:
448,192,56455,1,0,0:0:0:0:
64,192,56620,1,0,0:0:0:0:
448,192,56785,1,0,0:0:0:0:
192,192,56950,1,0,0:0:0:0:
64,192,57115,1,0,0:0:0:0:
320,192,57115,1,0,0:0:0:0:
448,192,57279,1,0,0:0:0:0:
192,192,57444,1,0,0:0:0:0:
320,192,57609,1,0,0:0:0:0:
448,192,57774,1,0,0:0:0:0:
64,192,57774,1,0,0:0:0:0:
192,192,57774,1,0,0:0:0:0:
320,192,58104,1,0,0:0:0:0:
192,192,58268,1,0,0:0:0:0:
64,192,58268,1,0,0:0:0:0:
448,192,58433,1,0,0:0:0:0:
320,192,58598,1,0,0:0:0:0:
64,192,58598,1,0,0:0:0:0:
192,192,58928,1,0,0:0:0:0:
320,192,59093,1,0,0:0:0:0:
448,192,59093,1,0,0:0:0:0:
64,192,59257,1,0,0:0:0:0:
192,192,59422,1,0,0:0:0:0:
320,192,59587,1,0,0:0:0:0:
64,192,59587,1,0,0:0:0:0:
448,192,59587,1,0,0:0:0:0:
192,192,59917,1,0,0:0:0:0:
64,192,60082,1,0,0:0:0:0:
320,192,60082,1,0,0:0:0:0:
448,192,60246,1,0,0:0:0:0:
192,192,60246,1,0,0:0:0:0:
64,192,60411,1,0,0:0:0:0:
320,192,60411,1,0,0:0:0:0:
192,192,60494,1,0,0:0:0:0:
448,192,60576,1,0,0:0:0:0:
320,192,60576,1,0,0:0:0:0:
64,192,60659,1,0,0:0:0:0:
192,192,60741,1,0,0:0:0:0:
448,192,60741,1,0,0:0:0:0:
320,192,60823,1,0,0:0:0:0:
192,192,60906,1,0,0:0:0:0:
64,192,60906,1,0,0:0:0:0:
448,192,60988,1,0,0:0:0:0:
320,192,61071,1,0,0:0:0:0:
192,192,61153,1,0,0:0:0:0:
448,192,61235,1,0,0:0:0:0:
64,192,61235,1,0,0:0:0:0:
320,192,61235,1,0,0:0:0:0:
448,192,61400,1,0,0:0:0:0:
192,192,61565,1,0,0:0:0:0:
64,192,61565,1,0,0:0:0:0:
448,192,61730,1,0,0:0:0:0:
192,192,61895,1,0,0:0:0:0:
64,192,61895,1,0,0:0:0:0:
448,192,62060,1,0,0:0:0:0:
192,192,62224,1,0,0:0:0:0:
64,192,62224,1,0,0:0:0:0:
448,192,62389,1,0,0:0:0:0:
192,192,62554,1,0,0:0:0:0:
64,192,62554,1,0,0:0:0:0:
448,192,62719,1,0,0:0:0:0:
320,192,62719,1,0,0:0:0:0:
64,192,62719,1,0,0:0:0:0:
320,192,62884,1,0,0:0:0:0:
192,192,62884,1,0,0:0:0:0:
64,192,63049,1,0,0:0:0:0:
448,192,63214,1,0,0:0:0:0:
192,192,63214,1,0,0:0:0:0:
320,192,63214,1,0,0:0:0:0:
448,192,63378,1,0,0:0:0:0:
320,192,63543,1,0,0:0:0:0:
64,192,63543,1,0,0:0:0:0:
448,192,63708,1,0,0:0:0:0:
192,192,63708,1,0,0:0:0:0:
448,192,64203,1,0,0:0:0:0:
64,192,64203,1,0,0:0:0:0:
192,192,64203,1,0,0:0:0:0:
320,192,64367,1,0,0:0:0:0:
192,192,64367,1,0,0:0:0:0:
448,192,64532,1,0,0:0:0:0:
320,192,64532,1,0,0:0:0:0:
64,192,64532,1,0,0:0:0:0:
192,192,64697,1,0,0:0:0:0:
320,192,64697,1,0,0:0:0:0:
448,192,64862,1,0,0:0:0:0:
192,192,64862,1,0,0:0:0:0:
64,192,64862,1,0,0:0:0:0:
448,192,65027,1,0,0:0:0:0:
320,192,65027,1,0,0:0:0:0:
320,192,65192,1,0,0:0:0:0:
192,192,65192,1,0,0:0:0:0:
64,192,65192,1,0,0:0:0:0:
320,192,65356,1,0,0:0:0:0:
192,192,65356,1,0,0:0:0:0:
64,192,65356,1,0,0:0:0:0:
64,192,65851,1,0,0:0:0:0:
448,192,65851,1,0,0:0:0:0:
192,192,65933,1,0,0:0:0:0:
448,192,66016,1,0,0:0:0:0:
320,192,66016,1,0,0:0:0:0:
192,192,66098,1,0,0:0:0:0:
64,192,66098,1,0,0:0:0:0:
448,192,66181,1,0,0:0:0:0:
320,192,66181,1,0,0:0:0:0:
192,192,66263,1,0,0:0:0:0:
64,192,66263,1,0,0:0:0:0:
448,192,66345,1,0,0:0:0:0:
320,192,66345,1,0,0:0:0:0:
192,192,66428,1,0,0:0:0:0:
64,192,66428,1,0,0:0:0:0:
448,192,66510,1,0,0:0:0:0:
320,192,66510,1,0,0:0:0:0:
64,192,66510,1,0,0:0:0:0:
192,192,66675,1,0,0:0:0:0:
64,192,66840,1,0,0:0:0:0:
320,192,66840,1,0,0:0:0:0:
448,192,66840,1,0,0:0:0:0:
192,192,67005,1,0,0:0:0:0:
64,192,67170,1,0,0:0:0:0:
448,192,67170,1,0,0:0:0:0:
320,192,67334,1,0,0:0:0:0:
192,192,67334,1,0,0:0:0:0:
448,192,67499,1,0,0:0:0:0:
192,192,67499,1,0,0:0:0:0:
64,192,67499,1,0,0:0:0:0:
320,192,67664,1,0,0:0:0:0:
192,192,67829,1,0,0:0:0:0:
64,192,67829,1,0,0:0:0:0:
448,192,67994,1,0,0:0:0:0:
320,192,68159,1,0,0:0:0:0:
64,192,68159,1,0,0:0:0:0:
192,192,68159,1,0,0:0:0:0:
448,192,68323,1,0,0:0:0:0:
320,192,68488,1,0,0:0:0:0:
64,192,68488,1,0,0:0:0:0:
192,192,68653,1,0,0:0:0:0:
448,192,68653,1,0,0:0:0:0:
320,192,68818,1,0,0:0:0:0:
448,192,68818,1,0,0:0:0:0:
64,192,68818,1,0,0:0:0:0:
192,192,68983,1,0,0:0:0:0:
448,192,69148,1,0,0:0:0:0:
64,192,69148,1,0,0:0:0:0:
320,192,69312,1,0,0:0:0:0:
192,192,69477,1,0,0:0:0:0:
64,192,69477,1,0,0:0:0:0:
448,192,69477,1,0,0:0:0:0:
320,192,69642,1,0,0:0:0:0:
448,192,69807,1,0,0:0:0:0:
192,192,69807,1,0,0:0:0:0:
64,192,69972,1,0,0:0:0:0:
320,192,70137,1,0,0:0:0:0:
448,192,70137,1,0,0:0:0:0:
192,192,70137,1,0,0:0:0:0:
320,192,70301,1,0,0:0:0:0:
64,192,70301,1,0,0:0:0:0:
448,192,70466,1,0,0:0:0:0:
192,192,70466,1,0,0:0:0:0:
320,192,70631,1,0,0:0:0:0:
192,192,70796,1,0,0:0:0:0:
64,192,70796,1,0,0:0:0:0:
448,192,70961,1,0,0:0:0:0:
64,192,71126,1,0,0:0:0:0:
320,192,71126,1,0,0:0:0:0:
192,192,71290,1,0,0:0:0:0:
448,192,71290,1,0,0:0:0:0:
320,192,71455,1,0,0:0:0:0:
448,192,71455,1,0,0:0:0:0:
64,192,71455,1,0,0:0:0:0:
192,192,71620,1,0,0:0:0:0:
320,192,71785,1,0,0:0:0:0:
448,192,71785,1,0,0:0:0:0:
64,192,71785,1,0,0:0:0:0:
192,192,71950,1,0,0:0:0:0:
448,192,71950,1,0,0:0:0:0:
64,192,72115,1,0,0:0:0:0:
320,192,72115,1,0,0:0:0:0:
192,192,72115,1,0,0:0:0:0:
448,192,72279,1,0,0:0:0:0:
320,192,72444,1,0,0:0:0:0:
64,192,72444,1,0,0:0:0:0:
192,192,72609,1,0,0:0:0:0:
448,192,72609,1,0,0:0:0:0:
320,192,72774,1,0,0:0:0:0:
448,192,72774,1,0,0:0:0:0:
64,192,72774,1,0,0:0:0:0:
192,192,72939,1,0,0:0:0:0:
64,192,73104,1,0,0:0:0:0:
448,192,73104,1,0,0:0:0:0:
320,192,73268,1,0,0:0:0:0:
192,192,73433,1,0,0:0:0:0:
64,192,73433,1,0,0:0:0:0:
448,192,73433,1,0,0:0:0:0:
320,192,73598,1,0,0:0:0:0:
448,192,73598,1,0,0:0:0:0:
64,192,73763,1,0,0:0:0:0:
192,192,73763,1,0,0:0:0:0:
320,192,73928,1,0,0:0:0:0:
448,192,74093,1,0,0:0:0:0:
192,192,74093,1,0,0:0:0:0:
64,192,74093,1,0,0:0:0:0:
320,192,74257,1,0,0:0:0:0:
192,192,74257,1,0,0:0:0:0:
448,192,74422,1,0,0:0:0:0:
320,192,74422,1,0,0:0:0:0:
64,192,74422,1,0,0:0:0:0:
192,192,74587,1,0,0:0:0:0:
448,192,74587,1,0,0:0:0:0:
320,192,74752,1,0,0:0:0:0:
192,192,74752,1,0,0:0:0:0:
64,192,74752,1,0,0:0:0:0:
320,192,74917,1,0,0:0:0:0:
448,192,74917,1,0,0:0:0:0:
192,192,75082,1,0,0:0:0:0:
64,192,75082,1,0,0:0:0:0:
448,192,75082,1,0,0:0:0:0:
64,192,75246,1,0,0:0:0:0:
320,192,75246,1,0,0:0:0:0:
448,192,75411,1,0,0:0:0:0:
320,192,75411,1,0,0:0:0:0:
192,192,75411,1,0,0:0:0:0:
192,192,75576,1,0,0:0:0:0:
64,192,75576,1,0,0:0:0:0:
320,192,75906,1,0,0:0:0:0:
64,192,75906,1,0,0:0:0:0:
192,192,76071,1,0,0:0:0:0:
64,192,76071,1,0,0:0:0:0:
448,192,76071,1,0,0:0:0:0:
320,192,76235,1,0,0:0:0:0:
448,192,76400,1,0,0:0:0:0:
192,192,76400,1,0,0:0:0:0:
320,192,76483,1,0,0:0:0:0:
192,192,76565,1,0,0:0:0:0:
64,192,76565,1,0,0:0:0:0:
448,192,76648,1,0,0:0:0:0:
320,192,76648,1,0,0:0:0:0:
192,192,76730,1,0,0:0:0:0:
64,192,76730,1,0,0:0:0:0:
448,192,76812,1,0,0:0:0:0:
320,192,76812,1,0,0:0:0:0:
192,192,76895,1,0,0:0:0:0:
64,192,76895,1,0,0:0:0:0:
448,192,76977,1,0,0:0:0:0:
320,192,76977,1,0,0:0:0:0:
192,192,77060,1,0,0:0:0:0:
64,192,77060,1,0,0:0:0:0:
448,192,77060,1,0,0:0:0:0:
320,192,77224,1,0,0:0:0:0:
192,192,77389,1,0,0:0:0:0:
64,192,77389,1,0,0:0:0:0:
448,192,77389,1,0,0:0:0:0:
320,192,77554,1,0,0:0:0:0:
192,192,77719,1,0,0:0:0:0:
448,192,77719,1,0,0:0:0:0:
64,192,77884,1,0,0:0:0:0:
320,192,77884,1,0,0:0:0:0:
448,192,78049,1,0,0:0:0:0:
192,192,78049,1,0,0:0:0:0:
320,192,78049,1,0,0:0:0:0:
448,192,78214,1,0,0:0:0:0:
64,192,78378,128,0,78873:0:0:0:0:
192,192,78378,1,0,0:0:0:0:
320,192,78378,1,0,0:0:0:0:
448,192,78708,1,0,0:0:0:0:
192,192,78708,1,0,0:0:0:0:
448,192,78873,128,0,79367:0:0:0:0:
320,192,78873,1,0,0:0:0:0:
192,192,78873,1,0,0:0:0:0:
64,192,79203,1,0,0:0:0:0:
320,192,79203,1,0,0:0:0:0:
192,192,79367,1,0,0:0:0:0:
64,192,79367,1,0,0:0:0:0:
320,192,79367,1,0,0:0:0:0:
192,192,79532,1,0,0:0:0:0:
448,192,79532,1,0,0:0:0:0:
320,192,79697,1,0,0:0:0:0:
64,192,79697,1,0,0:0:0:0:
448,192,79697,1,0,0:0:0:0:
192,192,79862,1,0,0:0:0:0:
320,192,80027,1,0,0:0:0:0:
448,192,80027,1,0,0:0:0:0:
64,192,80027,1,0,0:0:0:0:
192,192,80192,1,0,0:0:0:0:
448,192,80356,1,0,0:0:0:0:
64,192,80356,1,0,0:0:0:0:
320,192,80521,1,0,0:0:0:0:
192,192,80686,1,0,0:0:0:0:
64,192,80686,1,0,0:0:0:0:
448,192,80686,1,0,0:0:0:0:
320,192,80851,1,0,0:0:0:0:
192,192,80933,1,0,0:0:0:0:
448,192,81016,128,0,81510:0:0:0:0:
64,192,81016,1,0,0:0:0:0:
320,192,81016,1,0,0:0:0:0:
320,192,81345,1,0,0:0:0:0:
64,192,81345,1,0,0:0:0:0:
64,192,81510,128,0,82005:0:0:0:0:
192,192,81510,1,0,0:0:0:0:
320,192,81510,1,0,0:0:0:0:
448,192,81840,1,0,0:0:0:0:
192,192,81840,1,0,0:0:0:0:
448,192,82005,1,0,0:0:0:0:
320,192,82005,1,0,0:0:0:0:
192,192,82005,1,0,0:0:0:0:
192,192,82170,1,0,0:0:0:0:
64,192,82334,1,0,0:0:0:0:
320,192,82334,1,0,0:0:0:0:
448,192,82334,1,0,0:0:0:0:
192,192,82499,1,0,0:0:0:0:
320,192,82664,1,0,0:0:0:0:
448,192,82664,1,0,0:0:0:0:
64,192,82664,1,0,0:0:0:0:
192,192,82829,1,0,0:0:0:0:
320,192,82994,1,0,0:0:0:0:
448,192,82994,1,0,0:0:0:0:
64,192,83159,1,0,0:0:0:0:
192,192,83159,1,0,0:0:0:0:
448,192,83323,1,0,0:0:0:0:
320,192,83323,1,0,0:0:0:0:
64,192,83323,1,0,0:0:0:0:
192,192,83488,1,0,0:0:0:0:
320,192,83488,1,0,0:0:0:0:
448,192,83653,1,0,0:0:0:0:
192,192,83653,1,0,0:0:0:0:
64,192,83653,1,0,0:0:0:0:
320,192,83818,1,0,0:0:0:0:
192,192,83983,1,0,0:0:0:0:
64,192,83983,1,0,0:0:0:0:
448,192,83983,1,0,0:0:0:0:
320,192,84148,1,0,0:0:0:0:
64,192,84312,1,0,0:0:0:0:
192,192,84312,1,0,0:0:0:0:
448,192,84477,1,0,0:0:0:0:
320,192,84477,1,0,0:0:0:0:
192,192,84642,1,0,0:0:0:0:
448,192,84642,1,0,0:0:0:0:
64,192,84642,1,0,0:0:0:0:
320,192,84807,1,0,0:0:0:0:
64,192,84807,1,0,0:0:0:0:
448,192,84972,1,0,0:0:0:0:
192,192,84972,1,0,0:0:0:0:
64,192,85301,1,0,0:0:0:0:
448,192,85301,1,0,0:0:0:0:
320,192,85301,1,0,0:0:0:0:
320,192,85466,1,0,0:0:0:0:
192,192,85466,1,0,0:0:0:0:
192,192,85631,1,0,0:0:0:0:
448,192,85631,1,0,0:0:0:0:
64,192,85631,1,0,0:0:0:0:
320,192,85796,1,0,0:0:0:0:
64,192,85796,1,0,0:0:0:0:
448,192,85961,1,0,0:0:0:0:
192,192,85961,1,0,0:0:0:0:
192,192,86126,1,0,0:0:0:0:
64,192,86126,1,0,0:0:0:0:
320,192,86208,1,0,0:0:0:0:
448,192,86208,1,0,0:0:0:0:
64,192,86290,1,0,0:0:0:0:
192,192,86290,1,0,0:0:0:0:
448,192,86455,1,0,0:0:0:0:
320,192,86455,1,0,0:0:0:0:
192,192,86620,1,0,0:0:0:0:
64,192,86620,1,0,0:0:0:0:
192,192,86785,1,0,0:0:0:0:
320,192,86785,1,0,0:0:0:0:
448,192,86950,1,0,0:0:0:0:
64,192,86950,1,0,0:0:0:0:
320,192,87032,1,0,0:0:0:0:
192,192,87115,1,0,0:0:0:0:
64,192,87115,1,0,0:0:0:0:
448,192,87197,1,0,0:0:0:0:
320,192,87279,1,0,0:0:0:0:
64,192,87279,1,0,0:0:0:0:
192,192,87362,1,0,0:0:0:0:
448,192,87444,1,0,0:0:0:0:
320,192,87444,1,0,0:0:0:0:
64,192,87527,1,0,0:0:0:0:
192,192,87609,1,0,0:0:0:0:
320,192,87609,1,0,0:0:0:0:
448,192,87609,1,0,0:0:0:0:
192,192,87774,1,0,0:0:0:0:
64,192,87939,1,0,0:0:0:0:
320,192,87939,1,0,0:0:0:0:
448,192,87939,1,0,0:0:0:0:
192,192,88104,1,0,0:0:0:0:
320,192,88268,1,0,0:0:0:0:
64,192,88268,1,0,0:0:0:0:
448,192,88433,1,0,0:0:0:0:
192,192,88433,1,0,0:0:0:0:
448,192,88598,1,0,0:0:0:0:
64,192,88598,1,0,0:0:0:0:
320,192,88598,1,0,0:0:0:0:
192,192,88763,1,0,0:0:0:0:
64,192,88928,1,0,0:0:0:0:
320,192,88928,1,0,0:0:0:0:
448,192,89093,1,0,0:0:0:0:
320,192,89257,1,0,0:0:0:0:
192,192,89257,1,0,0:0:0:0:
64,192,89257,1,0,0:0:0:0:
448,192,89422,1,0,0:0:0:0:
320,192,89587,1,0,0:0:0:0:
64,192,89587,1,0,0:0:0:0:
192,192,89752,1,0,0:0:0:0:
448,192,89752,1,0,0:0:0:0:
320,192,89917,1,0,0:0:0:0:
64,192,89917,1,0,0:0:0:0:
192,192,89917,1,0,0:0:0:0:
448,192,90082,1,0,0:0:0:0:
320,192,90246,1,0,0:0:0:0:
192,192,90246,1,0,0:0:0:0:
64,192,90411,1,0,0:0:0:0:
448,192,90576,1,0,0:0:0:0:
320,192,90576,1,0,0:0:0:0:
192,192,90576,1,0,0:0:0:0:
64,192,90741,1,0,0:0:0:0:
448,192,90906,1,0,0:0:0:0:
192,192,90906,1,0,0:0:0:0:
320,192,91071,1,0,0:0:0:0:
64,192,91071,1,0,0:0:0:0:
192,192,91235,1,0,0:0:0:0:
320,192,91235,1,0,0:0:0:0:
448,192,91235,1,0,0:0:0:0:
64,192,91400,1,0,0:0:0:0:
448,192,91565,1,0,0:0:0:0:
192,192,91565,1,0,0:0:0:0:
320,192,91730,1,0,0:0:0:0:
192,192,91895,1,0,0:0:0:0:
64,192,91895,1,0,0:0:0:0:
448,192,91895,1,0,0:0:0:0:
320,192,92060,1,0,0:0:0:0:
64,192,92224,1,0,0:0:0:0:
448,192,92224,1,0,0:0:0:0:
192,192,92389,1,0,0:0:0:0:
320,192,92389,1,0,0:0:0:0:
192,192,92554,1,0,0:0:0:0:
64,192,92554,1,0,0:0:0:0:
448,192,92554,1,0,0:0:0:0:
320,192,92719,1,0,0:0:0:0:
448,192,92884,1,0,0:0:0:0:
64,192,92884,1,0,0:0:0:0:
192,192,93049,1,0,0:0:0:0:
320,192,93214,1,0,0:0:0:0:
448,192,93214,1,0,0:0:0:0:
64,192,93214,1,0,0:0:0:0:
192,192,93378,1,0,0:0:0:0:
448,192,93543,1,0,0:0:0:0:
320,192,93543,1,0,0:0:0:0:
64,192,93708,1,0,0:0:0:0:
192,192,93708,1,0,0:0:0:0:
448,192,93873,1,0,0:0:0:0:
320,192,93873,1,0,0:0:0:0:
64,192,93873,1,0,0:0:0:0:
192,192,94038,1,0,0:0:0:0:
320,192,94203,1,0,0:0:0:0:
448,192,94203,1,0,0:0:0:0:
64,192,94203,1,0,0:0:0:0:
192,192,94367,1,0,0:0:0:0:
320,192,94532,1,0,0:0:0:0:
64,192,94532,1,0,0:0:0:0:
192,192,94532,1,0,0:0:0:0:
448,192,94697,1,0,0:0:0:0:
320,192,94862,1,0,0:0:0:0:
192,192,94862,1,0,0:0:0:0:
64,192,95027,1,0,0:0:0:0:
448,192,95027,1,0,0:0:0:0:
320,192,95192,1,0,0:0:0:0:
192,192,95192,1,0,0:0:0:0:
64,192,95192,1,0,0:0:0:0:
448,192,95356,1,0,0:0:0:0:
320,192,95356,1,0,0:0:0:0:
64,192,95521,1,0,0:0:0:0:
192,192,95521,1,0,0:0:0:0:
448,192,95521,1,0,0:0:0:0:
320,192,95686,1,0,0:0:0:0:
192,192,95686,1,0,0:0:0:0:
320,192,95851,1,0,0:0:0:0:
448,192,95851,1,0,0:0:0:0:
64,192,95851,1,0,0:0:0:0:
192,192,96016,1,0,0:0:0:0:
64,192,96016,1,0,0:0:0:0:
192,192,96181,1,0,0:0:0:0:
320,192,96181,1,0,0:0:0:0:
448,192,96181,1,0,0:0:0:0:
64,192,96345,1,0,0:0:0:0:
320,192,96345,1,0,0:0:0:0:
192,192,96510,1,0,0:0:0:0:
64,192,96510,1,0,0:0:0:0:
448,192,96510,1,0,0:0:0:0:
448,192,96675,1,0,0:0:0:0:
320,192,96675,1,0,0:0:0:0:
192,192,97005,1,0,0:0:0:0:
448,192,97005,1,0,0:0:0:0:
320,192,97170,1,0,0:0:0:0:
448,192,97170,1,0,0:0:0:0:
64,192,97170,1,0,0:0:0:0:
192,192,97334,1,0,0:0:0:0:
64,192,97499,1,0,0:0:0:0:
320,192,97499,1,0,0:0:0:0:
192,192,97582,1,0,0:0:0:0:
320,192,97664,1,0,0:0:0:0:
448,192,97664,1,0,0:0:0:0:
64,192,97746,1,0,0:0:0:0:
192,192,97746,1,0,0:0:0:0:
320,192,97829,1,0,0:0:0:0:
448,192,97829,1,0,0:0:0:0:
64,192,97911,1,0,0:0:0:0:
192,192,97911,1,0,0:0:0:0:
320,192,97994,1,0,0:0:0:0:
448,192,97994,1,0,0:0:0:0:
64,192,98076,1,0,0:0:0:0:
192,192,98076,1,0,0:0:0:0:
320,192,98159,1,0,0:0:0:0:
448,192,98159,1,0,0:0:0:0:
64,192,98159,1,0,0:0:0:0:
192,192,98323,1,0,0:0:0:0:
320,192,98488,1,0,0:0:0:0:
448,192,98488,1,0,0:0:0:0:
64,192,98488,1,0,0:0:0:0:
192,192,98653,1,0,0:0:0:0:
320,192,98818,1,0,0:0:0:0:
64,192,98818,1,0,0:0:0:0:
448,192,98983,1,0,0:0:0:0:
192,192,98983,1,0,0:0:0:0:
64,192,99148,1,0,0:0:0:0:
320,192,99148,1,0,0:0:0:0:
192,192,99148,1,0,0:0:0:0:
64,192,99312,1,0,0:0:0:0:
448,192,99477,128,0,99972:0:0:0:0:
320,192,99477,1,0,0:0:0:0:
192,192,99477,1,0,0:0:0:0:
64,192,99807,1,0,0:0:0:0:
320,192,99807,1,0,0:0:0:0:
64,192,99972,128,0,100466:0:0:0:0:
192,192,99972,1,0,0:0:0:0:
320,192,99972,1,0,0:0:0:0:
448,192,100301,1,0,0:0:0:0:
192,192,100301,1,0,0:0:0:0:
320,192,100466,1,0,0:0:0:0:
448,192,100466,1,0,0:0:0:0:
192,192,100466,1,0,0:0:0:0:
320,192,100631,1,0,0:0:0:0:
64,192,100631,1,0,0:0:0:0:
192,192,100796,1,0,0:0:0:0:
448,192,100796,1,0,0:0:0:0:
64,192,100796,1,0,0:0:0:0:
320,192,100961,1,0,0:0:0:0:
192,192,101126,1,0,0:0:0:0:
64,192,101126,1,0,0:0:0:0:
448,192,101126,1,0,0:0:0:0:
320,192,101290,1,0,0:0:0:0:
64,192,101455,1,0,0:0:0:0:
448,192,101455,1,0,0:0:0:0:
192,192,101620,1,0,0:0:0:0:
320,192,101785,1,0,0:0:0:0:
448,192,101785,1,0,0:0:0:0:
64,192,101785,1,0,0:0:0:0:
192,192,101950,1,0,0:0:0:0:
320,192,102032,1,0,0:0:0:0:
64,192,102115,128,0,102609:0:0:0:0:
448,192,102115,1,0,0:0:0:0:
192,192,102115,1,0,0:0:0:0:
192,192,102444,1,0,0:0:0:0:
448,192,102444,1,0,0:0:0:0:
448,192,102609,128,0,103104:0:0:0:0:
320,192,102609,1,0,0:0:0:0:
192,192,102609,1,0,0:0:0:0:
64,192,102939,1,0,0:0:0:0:
320,192,102939,1,0,0:0:0:0:
64,192,103104,1,0,0:0:0:0:
192,192,103104,1,0,0:0:0:0:
320,192,103104,1,0,0:0:0:0:
320,192,103268,1,0,0:0:0:0:
448,192,103433,1,0,0:0:0:0:
192,192,103433,1,0,0:0:0:0:
64,192,103433,1,0,0:0:0:0:
320,192,103598,1,0,0:0:0:0:
192,192,103763,1,0,0:0:0:0:
64,192,103763,1,0,0:0:0:0:
448,192,103763,1,0,0:0:0:0:
320,192,103928,1,0,0:0:0:0:
192,192,104093,1,0,0:0:0:0:
64,192,104093,1,0,0:0:0:0:
448,192,104257,1,0,0:0:0:0:
320,192,104257,1,0,0:0:0:0:
64,192,104422,1,0,0:0:0:0:
192,192,104422,1,0,0:0:0:0:
448,192,104422,1,0,0:0:0:0:
320,192,104587,1,0,0:0:0:0:
192,192,104587,1,0,0:0:0:0:
64,192,104752,1,0,0:0:0:0:
320,192,104752,1,0,0:0:0:0:
448,192,104752,1,0,0:0:0:0:
192,192,104917,1,0,0:0:0:0:
320,192,105082,1,0,0:0:0:0:
448,192,105082,1,0,0:0:0:0:
64,192,105082,1,0,0:0:0:0:
192,192,105246,1,0,0:0:0:0:
448,192,105411,1,0,0:0:0:0:
320,192,105411,1,0,0:0:0:0:
64,192,105576,1,0,0:0:0:0:
192,192,105576,1,0,0:0:0:0:
320,192,105741,1,0,0:0:0:0:
64,192,105741,1,0,0:0:0:0:
448,192,105741,1,0,0:0:0:0:
192,192,105906,1,0,0:0:0:0:
448,192,105906,1,0,0:0:0:0:
64,192,106071,1,0,0:0:0:0:
320,192,106071,1,0,0:0:0:0:
448,192,106400,1,0,0:0:0:0:
64,192,106400,1,0,0:0:0:0:
192,192,106400,1,0,0:0:0:0:
192,192,106565,1,0,0:0:0:0:
320,192,106565,1,0,0:0:0:0:
320,192,106730,1,0,0:0:0:0:
64,192,106730,1,0,0:0:0:0:
448,192,106730,1,0,0:0:0:0:
192,192,106895,1,0,0:0:0:0:
448,192,106895,1,0,0:0:0:0:
64,192,107060,1,0,0:0:0:0:
320,192,107060,1,0,0:0:0:0:
448,192,107224,1,0,0:0:0:0:
320,192,107224,1,0,0:0:0:0:
192,192,107307,1,0,0:0:0:0:
64,192,107307,1,0,0:0:0:0:
320,192,107389,1,0,0:0:0:0:
448,192,107389,128,0,108049:0:0:0:0:
192,192,107884,1,0,0:0:0:0:
64,192,107884,1,0,0:0:0:0:
192,192,108214,1,0,0:0:0:0:
320,192,108214,1,0,0:0:0:0:
448,192,108378,1,0,0:0:0:0:
64,192,108543,1,0,0:0:0:0:
448,192,108708,1,0,0:0:0:0:
192,192,108708,1,0,0:0:0:0:
320,192,109038,1,0,0:0:0:0:
192,192,109203,1,0,0:0:0:0:
64,192,109203,1,0,0:0:0:0:
448,192,109367,1,0,0:0:0:0:
192,192,109697,1,0,0:0:0:0:
320,192,109862,1,0,0:0:0:0:
448,192,109862,1,0,0:0:0:0:
64,192,110027,1,0,0:0:0:0:
192,192,110027,1,0,0:0:0:0:
320,192,110356,1,0,0:0:0:0:
64,192,110521,1,0,0:0:0:0:
448,192,110686,1,0,0:0:0:0:
192,192,111016,1,0,0:0:0:0:
320,192,111181,1,0,0:0:0:0:
448,192,111345,1,0,0:0:0:0:
64,192,111345,128,0,112005:0:0:0:0:
192,192,111675,1,0,0:0:0:0:
448,192,111840,1,0,0:0:0:0:
320,192,112005,1,0,0:0:0:0:
64,192,112170,1,0,0:0:0:0:
192,192,112334,1,0,0:0:0:0:
320,192,112499,1,0,0:0:0:0:
448,192,112499,128,0,112829:0:0:0:0:
192,192,112829,1,0,0:0:0:0:
64,192,112994,128,0,113323:0:0:0:0:
320,192,112994,1,0,0:0:0:0:
448,192,113323,1,0,0:0:0:0:
64,192,113653,128,0,113983:0:0:0:0:
320,192,113653,1,0,0:0:0:0:
448,192,113653,1,0,0:0:0:0:
448,192,113983,128,0,115301:0:0:0:0:
192,192,113983,1,0,0:0:0:0:
192,192,114477,1,0,0:0:0:0:
320,192,114642,1,0,0:0:0:0:
64,192,114807,1,0,0:0:0:0:
320,192,115301,128,0,116290:0:0:0:0:
64,192,115301,1,0,0:0:0:0:
64,192,115631,128,0,115796:0:0:0:0:
192,192,115796,128,0,116620:0:0:0:0:
64,192,116126,1,0,0:0:0:0:
448,192,116290,128,0,116620:0:0:0:0:
64,192,116620,128,0,117939:0:0:0:0:
320,192,116620,1,0,0:0:0:0:
320,192,116950,1,0,0:0:0:0:
192,192,117279,1,0,0:0:0:0:
448,192,117609,128,0,117774:0:0:0:0:
192,192,117774,128,0,117939:0:0:0:0:
320,192,117939,128,0,119257:0:0:0:0:
448,192,117939,1,0,0:0:0:0:
64,192,118433,1,0,0:0:0:0:
448,192,118928,1,0,0:0:0:0:
64,192,119257,128,0,124532:0:0:0:0:
192,192,119257,1,0,0:0:0:0:
320,192,120549,1,0,0:0:0:0:
192,192,120576,128,0,124532:0:0:0:0:
448,192,121867,1,0,0:0:0:0:
320,192,121895,128,0,124532:0:0:0:0:
