osu file format v14

[General]
AudioFilename: audio.mp3
AudioLeadIn: 0
PreviewTime: 40519
Countdown: 0
SampleSet: Drum
StackLeniency: 0.2
Mode: 0
LetterboxInBreaks: 0
WidescreenStoryboard: 1

[Editor]
DistanceSpacing: 1.9
BeatDivisor: 4
GridSize: 4
TimelineZoom: 1

[Metadata]
Title:white lies (TV Size)
TitleUnicode:white lies (TV Size)
Artist:mito
ArtistUnicode:ミト
Creator:Arf
Version:warpy's extreme
Source:〈物語〉シリーズ セカンドシーズン
Tags:rfandomization warpyc 鬼物語 monogatari onimonogatari shinobu time series second season meg rock 日向めぐみ megumi hinata orchestral violin chanting anime english
BeatmapID:1724594
BeatmapSetID:817394

[Difficulty]
HPDrainRate:6
CircleSize:4
OverallDifficulty:8
ApproachRate:9
SliderMultiplier:2
SliderTickRate:1

[Events]
//Background and Video events
0,0,"samurai run.jpg",0,0
//Break Periods
//Storyboard Layer 0 (Background)
//Storyboard Layer 1 (Fail)
//Storyboard Layer 2 (Pass)
//Storyboard Layer 3 (Foreground)
//Storyboard Layer 4 (Overlay)
//Storyboard Sound Samples

[TimingPoints]
401,369.230769230769,4,3,4,20,1,0
401,-200,4,3,4,20,0,0
1785,-200,4,3,4,5,0,0
1877,376.175548589342,4,3,4,20,1,0
1877,-200,4,3,4,20,0,0
3286,-200,4,3,4,5,0,0
3381,379.746835443038,4,3,4,20,1,0
3381,-200,4,3,4,20,0,0
4805,-200,4,3,4,5,0,0
4899,344.827586206897,4,3,4,20,1,0
4899,-200,4,3,4,20,0,0
6192,-200,4,3,4,5,0,0
6326,372.670807453416,4,3,5,70,1,0
6326,-100,4,3,5,70,0,0
6698,-50,4,3,4,75,0,0
25704,-100,4,3,5,75,0,0
25798,-100,4,3,4,10,0,0
26450,-76.9230769230769,4,3,5,75,0,0
26543,-100,4,3,4,10,0,0
27195,-62.5,4,3,5,75,0,0
27288,-100,4,3,4,10,0,0
27847,-100,4,3,4,55,0,0
27940,-100,4,3,0,60,0,0
28686,-90.9090909090908,4,3,0,50,0,0
29058,-76.9230769230769,4,3,4,55,0,0
29431,-100,4,2,4,65,0,0
29990,-76.9230769230769,4,3,4,60,0,0
30176,-100,4,2,4,65,0,0
30735,-100,4,3,0,50,0,0
31294,-100,4,2,4,65,0,0
32226,-100,4,3,0,50,0,0
32786,-100,4,2,4,65,0,0
32971,-76.9230769230769,4,3,4,60,0,0
33158,-100,4,2,4,65,0,0
34462,-100,4,3,0,40,0,0
34648,-100,4,3,0,50,0,0
35021,-76.9230769230769,4,3,4,55,0,0
35394,-100,4,2,4,65,0,0
35953,-76.9230769230769,4,3,4,55,0,0
36139,-100,4,2,4,65,0,0
36698,-100,4,3,0,40,0,0
37071,-100,4,2,4,65,0,0
37444,-100,4,3,0,50,0,0
37816,-100,4,2,4,60,0,0
38003,-100,4,2,4,55,0,0
38934,-76.9230769230769,4,3,4,55,0,0
39121,-100,4,2,4,60,0,0
39680,-90.9090909090909,4,3,0,50,0,0
39960,-90.9090909090909,4,3,0,40,0,0
40425,-90.9090909090909,4,3,4,65,0,0
40611,-71.4285714285714,4,3,4,80,0,1
41357,-71.4285714285714,4,1,0,60,0,1
41450,-71.4285714285714,4,3,4,80,0,1
42847,-71.4285714285714,4,1,0,60,0,1
42940,-71.4285714285714,4,3,4,80,0,1
44338,-71.4285714285714,4,1,0,60,0,1
44431,-71.4285714285714,4,3,4,80,0,1
45829,-71.4285714285714,4,1,0,60,0,1
45922,-71.4285714285714,4,3,4,80,0,1
47319,-71.4285714285714,4,1,0,60,0,1
47412,-71.4285714285714,4,3,4,80,0,1
48810,-71.4285714285714,4,1,0,60,0,1
48903,-71.4285714285714,4,3,4,80,0,1
49183,-71.4285714285714,4,1,0,60,0,1
49276,-71.4285714285714,4,3,4,80,0,1
49555,-62.5,4,1,0,60,0,1
49648,-62.5,4,2,0,35,0,1
49928,-62.5,4,2,0,40,0,1
50301,-62.5,4,1,0,60,0,1
50394,-62.5,4,2,0,45,0,1
50673,-62.5,4,2,0,50,0,1
51046,-71.4285714285714,4,1,0,60,0,1
51139,-71.4285714285714,4,2,0,55,0,1
51419,-71.4285714285714,4,3,4,80,0,1
51885,-71.4285714285714,4,1,0,60,0,1
52444,-71.4285714285714,4,1,0,60,0,0

[Colours]
Combo1 : 186,10,89
Combo2 : 173,255,95
Combo3 : 254,114,117
Combo4 : 255,122,89
Combo5 : 17,254,176
Combo6 : 125,125,125
Combo7 : 253,253,97

[HitObjects]
61,115,401,70,0,P|164:109|73:260,1,375
45,329,1877,2,0,B|219:405|221:215|413:303,1,375
461,359,3381,2,0,B|534:292|532:166|476:126|476:126|434:153|419:183|423:234,1,375
332,183,4899,2,0,B|312:238|345:281|345:281|245:171|397:125|325:17,1,375
238,76,6326,37,4,0:0:0:0:
0,290,6698,2,0,P|97:314|213:245,1,200,0|4,2:0|0:0,0:0:0:0:
283,380,7257,2,0,P|352:307|350:173,1,200,0|4,2:3|0:0,0:0:0:0:
502,179,7816,2,0,P|474:82|356:17,1,200,8|8,2:3|0:0,0:0:0:0:
51,94,8375,2,0,B|147:67|147:67|262:77,1,200,8|8,2:3|0:3,2:3:0:0:
246,75,8934,2,0,B|150:102|150:102|35:92,1,200,4|8,2:3|0:3,2:3:0:0:
305,191,9680,6,0,P|344:296|330:402,1,200,4|4,2:3|0:3,2:3:0:0:
263,123,10239,2,0,P|334:35|433:-4,1,200,8|4,2:3|0:3,2:3:0:0:
226,194,10798,2,0,P|115:176|30:110,1,200,8|4,2:3|0:3,2:3:0:0:
387,184,11357,2,0,P|456:203|380:220,1,200,8|8,2:3|0:3,2:3:0:0:
382,226,11916,2,0,P|313:207|389:190,1,200,8|8,2:3|0:3,2:3:0:0:
107,293,12661,6,0,P|167:193|155:100,1,200,8|4,2:3|0:3,2:3:0:0:
301,187,13220,2,0,P|241:87|253:-6,1,200,8|4,2:3|0:3,2:3:0:0:
22,86,13779,5,8,2:3:0:0:
29,326,13965,1,8,2:3:0:0:
29,326,14058,1,8,2:3:0:0:
29,326,14152,2,0,P|127:298|181:220,1,200,4|8,2:3|2:3,0:0:0:0:
138,92,14524,1,4,2:1:0:0:
404,98,14711,2,0,P|330:27|236:19,1,200,4|8,2:3|2:3,0:0:0:0:
236,19,14990,1,8,2:3:0:0:
236,19,15083,1,8,2:3:0:0:
262,350,15270,54,0,P|297:224|271:146,1,200,4|8,2:1|2:3,0:0:0:0:
154,242,15642,1,8,2:3:0:0:
49,0,15829,2,0,P|14:126|40:204,1,200,8|4,2:3|2:3,0:0:0:0:
157,108,16201,1,4,2:3:0:0:
427,121,16388,2,0,P|335:27|254:11,1,200,8|8,2:3|2:3,0:0:0:0:
279,160,16760,5,4,2:1:0:0:
19,279,16947,1,8,2:3:0:0:
19,279,17040,1,8,2:3:0:0:
19,279,17133,2,0,P|112:315|214:276,1,200,4|8,2:3|2:3,0:0:0:0:
203,284,17412,1,8,2:3:0:0:
203,284,17506,1,8,2:3:0:0:
211,11,17692,2,0,P|133:73|116:181,1,200,4|8,2:3|2:3,0:0:0:0:
113,167,17971,1,8,2:3:0:0:
113,167,18065,1,8,2:3:0:0:
406,178,18251,6,0,P|301:114|207:134,1,200,4|8,2:1|2:3,0:0:0:0:
467,301,18624,1,8,2:3:0:0:
467,301,18717,1,8,2:3:0:0:
467,301,18810,2,0,P|368:304|290:246,1,200,4|4,2:3|2:3,0:0:0:0:
406,178,19183,1,4,2:3:0:0:
214,364,19369,2,0,P|161:279|173:183,1,200,8|8,2:3|2:3,0:0:0:0:
313,78,19742,5,4,2:1:0:0:
78,33,19928,1,8,2:3:0:0:
78,33,20021,1,8,2:3:0:0:
78,33,20114,2,0,P|98:140|74:241,1,200,4|8,2:3|2:3,0:0:0:0:
79,227,20394,1,8,2:3:0:0:
79,227,20487,1,8,2:3:0:0:
296,356,20673,2,0,P|276:249|300:148,1,200,8|4,2:3|2:3,0:0:0:0:
294,161,20953,1,4,2:3:0:0:
294,161,21046,1,4,2:3:0:0:
512,29,21232,54,0,P|402:68|293:35,1,200,4|8,2:3|2:3,0:0:0:0:
151,189,21605,2,0,P|189:317|163:414,1,200,4|8,2:3|2:3,0:0:0:0:
177,380,21885,1,8,2:3:0:0:
177,380,21978,1,8,2:3:0:0:
0,152,22164,2,0,P|91:55|188:29,1,200,4|8,2:3|2:3,0:0:0:0:
152,33,22444,1,8,2:3:0:0:
152,33,22537,1,4,2:3:0:0:
444,115,22723,6,0,P|326:146|236:116,1,200,4|8,2:1|2:3,0:0:0:0:
338,9,23096,1,4,2:3:0:0:
267,301,23282,2,0,P|181:214|162:121,1,200,8|4,2:3|2:3,0:0:0:0:
338,9,23655,1,4,2:3:0:0:
17,240,23841,2,0,P|49:122|120:59,1,200,8|8,2:3|2:3,0:0:0:0:
253,125,24214,5,4,2:3:0:0:
168,335,24400,1,8,2:3:0:0:
168,335,24493,1,8,2:3:0:0:
168,335,24586,2,0,P|286:355|373:315,1,200,4|8,2:3|2:3,0:0:0:0:
357,326,24866,1,8,2:3:0:0:
357,326,24959,1,4,2:3:0:0:
445,62,25145,2,0,P|397:170|428:278,1,200,4|8,2:3|2:3,0:0:0:0:
410,247,25425,1,8,2:3:0:0:
410,247,25518,1,4,2:3:0:0:
125,227,25704,6,0,P|243:213|107:160,1,350,4|8,0:0|0:0,0:0:0:0:
125,227,26450,54,0,B|220:293|326:178|326:178|212:59|112:134,1,454.999979171754,4|0,0:3|0:0,0:0:0:0:
125,227,27195,6,0,B|224:264|224:264|377:179|377:179|226:91|226:91|120:126,1,560,4|4,0:3|0:3,0:0:0:0:
23,276,27940,5,8,2:3:0:0:
75,313,28034,1,8,2:3:0:0:
136,335,28127,1,8,2:3:0:0:
201,338,28220,1,8,2:3:0:0:
264,324,28313,2,0,P|287:317|324:313,1,50,4|0,0:3|0:3,0:3:0:0:
464,225,28499,2,0,P|441:232|404:236,1,50,4|0,0:3|0:3,0:3:0:0:
238,168,28686,5,4,0:3:0:0:
173,111,28779,1,4,0:3:0:0:
206,31,28872,1,4,0:3:0:0:
292,40,28965,1,4,0:3:0:0:
311,123,29058,2,0,B|335:250|335:250|303:377,1,259.999988098145,2|8,3:1|0:3,3:0:0:0:
150,238,29617,1,8,0:3:0:0:
0,373,29804,1,4,0:3:0:0:
93,61,29990,54,0,P|103:116|72:210,1,129.999994049073,2|8,0:1|0:3,0:0:0:0:
9,0,30363,1,8,0:3:0:0:
197,174,30549,1,4,0:3:0:0:
367,0,30735,1,8,0:3:0:0:
430,27,30829,1,8,0:3:0:0:
464,89,30922,1,8,0:3:0:0:
454,157,31015,1,8,0:3:0:0:
403,207,31108,1,4,0:3:0:0:
181,345,31294,2,0,P|215:308|282:287,1,100,4|8,0:3|0:3,0:0:0:0:
471,372,31667,5,8,0:3:0:0:
317,214,31853,1,8,0:3:0:0:
110,294,32040,1,4,0:3:0:0:
219,35,32226,1,8,0:3:0:0:
257,94,32319,1,8,0:3:0:0:
262,164,32412,1,8,0:3:0:0:
232,228,32506,1,8,0:3:0:0:
175,270,32599,1,4,0:3:0:0:
33,88,32785,1,4,0:3:0:0:
14,353,32971,6,0,P|7:285|28:220,1,129.999994049073,2|8,0:1|0:3,0:0:0:0:
167,80,33344,1,8,0:3:0:0:
375,205,33530,2,0,P|327:219|264:201,1,100,4|8,0:3|0:3,0:0:0:0:
271,26,33903,1,8,0:3:0:0:
189,265,34089,1,8,0:3:0:0:
371,77,34276,1,4,0:3:0:0:
93,204,34462,1,8,0:3:0:0:
140,157,34555,1,8,0:3:0:0:
205,152,34648,5,4,0:3:0:0:
271,208,34742,1,4,0:3:0:0:
357,218,34835,1,4,0:3:0:0:
434,178,34928,1,4,0:3:0:0:
476,102,35021,2,0,P|388:30|238:37,1,259.999988098145,6|8,0:1|0:3,0:0:0:0:
155,190,35580,1,8,0:3:0:0:
52,1,35766,1,4,0:3:0:0:
28,270,35953,54,0,P|2:199|7:125,1,129.999994049073,2|8,0:1|0:3,0:0:0:0:
133,32,36325,1,8,0:3:0:0:
228,206,36512,1,4,0:3:0:0:
440,118,36698,1,8,0:3:0:0:
465,163,36791,1,8,0:3:0:0:
455,216,36885,1,4,0:3:0:0:
258,64,37071,1,8,0:3:0:0:
329,294,37257,1,4,0:3:0:0:
82,134,37444,5,4,0:3:0:0:
167,152,37537,1,4,0:3:0:0:
200,234,37630,1,4,0:3:0:0:
144,0,37816,1,8,0:3:0:0:
379,53,38003,2,0,P|314:56|265:87,1,100,6|8,0:1|0:3,0:0:0:0:
311,288,38375,1,8,0:3:0:0:
427,119,38562,1,8,0:3:0:0:
512,307,38748,1,4,0:3:0:0:
216,224,38934,6,0,P|273:178|349:176,1,129.999994049073,2|8,0:1|0:3,0:0:0:0:
406,365,39307,1,8,0:3:0:0:
512,207,39493,1,4,0:3:0:0:
230,336,39680,5,4,0:3:0:0:
282,265,39773,1,4,0:3:0:0:
277,176,39866,53,4,0:3:0:0:
212,178,39959,1,8,0:3:0:0:
158,215,40052,1,8,0:3:0:0:
133,275,40145,1,8,0:3:0:0:
144,339,40239,1,8,0:3:0:0:
440,227,40425,1,8,0:0:0:0:
440,227,40518,1,8,0:0:0:0:
440,227,40611,69,2,0:1:0:0:
452,196,40704,1,8,0:3:0:0:
446,164,40798,1,8,0:3:0:0:
424,140,40891,1,8,0:3:0:0:
393,132,40984,1,8,0:3:0:0:
362,141,41077,1,8,0:3:0:0:
340,166,41170,1,8,0:3:0:0:
332,198,41263,1,4,0:3:0:0:
340,230,41357,6,0,P|355:261|366:313,1,69.9999978637696,4|8,0:1|0:3,0:3:0:0:
199,368,41543,2,0,P|218:339|257:303,1,69.9999978637696,4|8,0:3|0:3,0:3:0:0:
75,230,41729,2,0,P|109:233|159:249,1,69.9999978637696,4|8,0:3|0:3,0:3:0:0:
132,54,41916,2,0,P|147:85|158:137,1,69.9999978637696,4|8,0:3|0:3,0:3:0:0:
276,244,42102,85,2,0:1:0:0:
249,212,42195,1,8,0:3:0:0:
211,193,42288,1,8,0:3:0:0:
169,191,42381,1,8,0:3:0:0:
130,206,42475,1,8,0:3:0:0:
101,235,42568,1,8,0:3:0:0:
85,274,42661,1,8,0:3:0:0:
86,316,42754,1,4,0:3:0:0:
109,351,42847,6,0,P|139:357|190:353,1,69.9999978637696,4|8,0:1|0:3,0:3:0:0:
311,226,43034,2,0,P|281:220|230:224,1,69.9999978637696,4|8,0:3|0:3,0:3:0:0:
325,384,43220,2,0,P|345:361|367:314,1,69.9999978637696,4|8,0:3|0:3,0:3:0:0:
415,90,43406,2,0,P|394:112|372:159,1,69.9999978637696,4|8,0:3|0:3,0:3:0:0:
484,324,43593,85,2,0:1:0:0:
450,288,43686,1,8,0:3:0:0:
410,260,43779,1,8,0:3:0:0:
363,247,43872,1,8,0:3:0:0:
315,255,43965,1,8,0:3:0:0:
268,270,44058,1,8,0:3:0:0:
220,277,44152,1,8,0:3:0:0:
173,265,44245,1,4,0:3:0:0:
127,245,44338,6,0,P|100:217|80:170,1,69.9999978637696,4|8,0:1|0:3,0:3:0:0:
228,55,44524,2,0,P|217:92|186:133,1,69.9999978637696,4|8,0:3|0:3,0:3:0:0:
11,72,44711,2,0,P|48:62|99:68,1,69.9999978637696,4|8,0:3|0:3,0:3:0:0:
318,185,44897,2,0,P|280:194|229:188,1,69.9999978637696,4|8,0:3|0:3,0:3:0:0:
394,63,45083,85,2,0:1:0:0:
443,87,45177,1,8,0:3:0:0:
478,131,45270,1,8,0:3:0:0:
491,185,45363,1,8,0:3:0:0:
480,239,45456,1,8,0:3:0:0:
448,284,45549,1,8,0:3:0:0:
399,311,45642,1,8,0:3:0:0:
344,315,45735,1,4,0:3:0:0:
291,296,45829,6,0,P|235:278|192:281,1,69.9999978637696,4|8,0:1|0:3,0:3:0:0:
4,235,46015,2,0,P|60:217|103:220,1,69.9999978637696,4|8,0:3|0:3,0:3:0:0:
285,127,46201,2,0,P|230:149|199:179,1,69.9999978637696,4|8,0:3|0:3,0:3:0:0:
10,66,46388,2,0,P|64:88|95:118,1,69.9999978637696,4|8,0:3|0:3,0:3:0:0:
155,338,46574,85,2,0:1:0:0:
146,277,46667,1,8,0:3:0:0:
179,224,46760,1,8,0:3:0:0:
238,206,46853,1,8,0:3:0:0:
296,227,46947,1,8,0:3:0:0:
349,260,47040,1,8,0:3:0:0:
411,263,47133,1,8,0:3:0:0:
466,234,47226,1,4,0:3:0:0:
495,177,47319,6,0,P|504:138|505:94,1,69.9999978637696,4|8,0:1|0:3,0:3:0:0:
343,0,47506,2,0,P|334:39|333:83,1,69.9999978637696,4|8,0:3|0:3,0:3:0:0:
196,134,47692,2,0,P|225:161|262:184,1,69.9999978637696,4|8,0:3|0:3,0:3:0:0:
238,328,47878,2,0,P|276:316|314:295,1,69.9999978637696,4|8,0:3|0:3,0:3:0:0:
430,129,48065,85,2,0:1:0:0:
380,80,48158,1,8,0:3:0:0:
316,53,48251,1,8,0:3:0:0:
246,51,48344,1,8,0:3:0:0:
181,74,48437,1,8,0:3:0:0:
128,119,48530,1,8,0:3:0:0:
95,181,48624,1,8,0:3:0:0:
86,251,48717,1,4,0:3:0:0:
103,318,48810,6,0,P|124:346|161:374,1,69.9999978637696,4|8,0:1|0:3,0:3:0:0:
225,169,48996,2,0,P|204:141|167:113,1,69.9999978637696,4|8,0:3|0:3,0:3:0:0:
263,364,49183,2,0,P|294:340|326:297,1,69.9999978637696,4|8,0:1|0:3,0:3:0:0:
65,123,49369,2,0,P|33:146|1:189,1,69.9999978637696,4|8,0:3|0:3,0:3:0:0:
323,180,49555,86,0,L|310:71,1,80,4|0,0:1|0:3,0:0:0:0:
176,255,49742,2,0,L|189:146,1,80,2|0,0:3|0:3,0:0:0:0:
380,144,49928,2,0,L|288:83,1,80,2|0,0:3|0:3,0:0:0:0:
119,220,50114,2,0,L|210:159,1,80,2|0,0:3|0:3,0:0:0:0:
389,223,50301,2,0,L|380:144,1,80,4|0,0:1|0:3,0:0:0:0:
109,299,50487,2,0,L|118:219,1,80,2|0,0:3|0:3,0:0:0:0:
389,224,50673,2,0,L|323:180,1,80,2|0,0:3|0:3,0:0:0:0:
109,299,50860,2,0,L|175:254,1,80,2|0,0:3|0:3,0:0:0:0:
221,22,51046,6,0,L|226:101,1,69.9999978637696,4|0,0:1|0:3,0:0:0:0:
281,348,51232,2,0,L|276:269,1,69.9999978637696,2|0,0:3|0:3,0:0:0:0:
310,84,51419,85,8,0:3:0:0:
367,60,51512,1,4,0:3:0:0:
429,77,51605,1,8,0:3:0:0:
466,136,51698,1,4,0:3:0:0:
451,208,51791,1,12,0:3:0:0:
387,249,51885,1,4,0:3:0:0:
310,224,51978,1,4,0:3:0:0:
251,162,52071,1,4,0:3:0:0:
165,141,52164,1,4,0:3:0:0:
82,179,52257,1,4,0:3:0:0:
42,267,52350,1,4,0:3:0:0:
70,363,52444,1,4,0:3:0:0:
