osu file format v14

[General]
AudioFilename: audio.mp3
AudioLeadIn: 0
PreviewTime: 40519
Countdown: 0
SampleSet: Drum
StackLeniency: 0.3
Mode: 0
LetterboxInBreaks: 0
WidescreenStoryboard: 1

[Editor]
DistanceSpacing: 1.2
BeatDivisor: 4
GridSize: 4
TimelineZoom: 1.5

[Metadata]
Title:white lies (TV Size)
TitleUnicode:white lies (TV Size)
Artist:mito
ArtistUnicode:ミト
Creator:Arf
Version:insane
Source:〈物語〉シリーズ セカンドシーズン
Tags:rfandomization warpyc 鬼物語 monogatari onimonogatari shinobu time series second season meg rock 日向めぐみ megumi hinata orchestral violin chanting anime english
BeatmapID:1714274
BeatmapSetID:817394

[Difficulty]
HPDrainRate:5
CircleSize:4.2
OverallDifficulty:8
ApproachRate:9
SliderMultiplier:1.5
SliderTickRate:1

[Events]
//Background and Video events
0,0,"samurai run.jpg",0,0
//Break Periods
//Storyboard Layer 0 (Background)
//Storyboard Layer 1 (Fail)
//Storyboard Layer 2 (Pass)
//Storyboard Layer 3 (Foreground)
//Storyboard Layer 4 (Overlay)
//Storyboard Sound Samples

[TimingPoints]
401,369.230769230769,4,3,4,20,1,0
401,-200,4,3,4,20,0,0
1693,-200,4,3,4,5,0,0
1877,376.175548589342,4,3,4,20,1,0
1877,-200,4,3,4,20,0,0
3193,-200,4,3,4,5,0,0
3381,379.746835443038,4,3,4,20,1,0
3381,-200,4,3,4,20,0,0
4710,-200,4,3,4,5,0,0
4899,344.827586206897,4,3,4,20,1,0
4899,-200,4,3,4,20,0,0
6105,-200,4,3,4,5,0,0
6326,372.670807453416,4,3,5,70,1,0
6326,-111.111111111111,4,3,5,70,0,0
6605,-111.111111111111,4,3,5,70,0,0
6698,-111.111111111111,4,3,4,70,0,0
25704,-111.111111111111,4,3,4,70,0,0
27568,-111.111111111111,4,3,4,50,0,0
28686,-90.9090909090908,4,3,0,50,0,0
29058,-90.9090909090908,4,3,4,50,0,0
29338,-90.9090909090908,4,2,0,20,0,0
29431,-90.9090909090908,4,3,0,50,0,0
29990,-90.9090909090908,4,3,4,50,0,0
30176,-90.9090909090908,4,3,0,50,0,0
30456,-90.9090909090908,4,2,0,20,0,0
30549,-90.9090909090908,4,3,0,50,0,0
32971,-90.9090909090908,4,3,4,50,0,0
33158,-90.9090909090908,4,3,0,50,0,0
33437,-90.9090909090908,4,2,0,20,0,0
33530,-90.9090909090908,4,3,0,50,0,0
35021,-90.9090909090908,4,3,4,50,0,0
35301,-90.9090909090908,4,2,0,20,0,0
35394,-90.9090909090908,4,3,0,50,0,0
35953,-90.9090909090908,4,3,4,50,0,0
36139,-90.9090909090908,4,3,0,50,0,0
36419,-90.9090909090908,4,2,0,20,0,0
36512,-90.9090909090908,4,3,0,50,0,0
37909,-90.9090909090908,4,2,0,20,0,0
38003,-90.9090909090908,4,3,4,50,0,0
38189,-90.9090909090908,4,3,0,50,0,0
38934,-90.9090909090908,4,3,4,50,0,0
39121,-90.9090909090908,4,3,0,50,0,0
39400,-90.9090909090908,4,2,0,20,0,0
39493,-90.9090909090908,4,3,0,50,0,0
40611,-90.9090909090908,4,3,4,80,0,1
40891,-90.9090909090908,4,2,0,20,0,1
40984,-90.9090909090908,4,3,4,80,0,1
41357,-90.9090909090908,4,1,0,60,0,1
41543,-90.9090909090908,4,3,4,80,0,1
42381,-90.9090909090908,4,2,0,20,0,1
42475,-90.9090909090908,4,3,4,80,0,1
42847,-90.9090909090908,4,1,0,60,0,1
43034,-90.9090909090908,4,3,4,80,0,1
43872,-90.9090909090908,4,2,0,20,0,1
43965,-90.9090909090908,4,3,4,80,0,1
44338,-90.9090909090908,4,1,0,60,0,1
44524,-90.9090909090908,4,3,4,80,0,1
45363,-90.9090909090908,4,2,0,20,0,1
45456,-90.9090909090908,4,3,4,80,0,1
45829,-90.9090909090908,4,1,0,60,0,1
46015,-90.9090909090908,4,3,4,80,0,1
46853,-90.9090909090908,4,2,0,20,0,1
46947,-90.9090909090908,4,3,4,80,0,1
47319,-90.9090909090908,4,1,0,60,0,1
47506,-90.9090909090908,4,3,4,80,0,1
48344,-90.9090909090908,4,2,0,20,0,1
48437,-90.9090909090908,4,3,4,80,0,1
48810,-90.9090909090908,4,1,0,60,0,1
48996,-90.9090909090908,4,3,4,80,0,1
49183,-90.9090909090908,4,1,0,60,0,1
49369,-90.9090909090908,4,3,4,80,0,1
49555,-90.9090909090908,4,1,0,60,0,1
49648,-90.9090909090908,4,2,0,35,0,1
49929,-90.9090909090908,4,2,0,40,0,1
50301,-90.9090909090908,4,1,0,60,0,1
50487,-90.9090909090908,4,2,0,45,0,1
50674,-90.9090909090908,4,2,0,50,0,1
51046,-90.9090909090908,4,1,0,60,0,1
51232,-90.9090909090908,4,2,0,55,0,1
51419,-90.9090909090908,4,3,4,75,0,1
51885,-90.9090909090908,4,1,0,60,0,1
52444,-90.9090909090909,4,1,0,60,0,0

[Colours]
Combo1 : 186,10,89
Combo2 : 173,255,95
Combo3 : 254,114,117
Combo4 : 255,122,89
Combo5 : 17,254,176
Combo6 : 253,253,97

[HitObjects]
256,192,401,12,0,1693,0:0:0:0:
256,192,1877,12,0,3193,0:0:0:0:
256,192,3381,12,0,4710,0:0:0:0:
256,192,4899,12,0,6105,0:0:0:0:
74,57,6326,6,0,P|107:96|119:166,1,101.249996910095,4|0,2:3|2:3,0:0:0:0:
109,175,6698,1,8,2:3:0:0:
218,191,6885,1,4,2:3:0:0:
135,270,7071,2,0,P|122:299|119:338,1,67.4999979400635,4|8,2:3|2:3,0:0:0:0:
218,191,7444,2,0,P|215:157|201:126,1,67.4999979400635,4|8,2:3|2:3,0:0:0:0:
347,154,7816,6,0,P|416:160|466:144,1,101.249996910095,8|0,2:3|0:0,0:0:0:0:
475,134,8189,1,4,2:3:0:0:
354,31,8375,1,8,2:3:0:0:
354,31,8468,1,8,2:3:0:0:
354,31,8562,2,0,P|285:25|235:41,1,101.249996910095,8|0,2:3|0:0,0:0:0:0:
224,48,8934,1,4,2:3:0:0:
359,343,9307,6,0,P|373:291|356:225,1,101.249996910095,4|0,2:3|0:0,0:0:0:0:
341,221,9680,2,0,L|267:216,1,67.4999979400635,8|4,2:3|2:3,0:0:0:0:
194,168,10052,1,4,2:3:0:0:
333,143,10239,2,0,L|259:138,1,67.4999979400635,8|4,2:3|2:3,0:0:0:0:
186,90,10611,1,8,2:3:0:0:
406,173,10798,6,0,P|374:210|314:219,1,101.249996910095,8|0,2:3|0:0,0:0:0:0:
293,219,11170,1,4,2:3:0:0:
59,333,11543,1,8,2:3:0:0:
115,283,11729,1,4,2:3:0:0:
182,313,11916,1,4,2:3:0:0:
99,211,12102,1,8,2:3:0:0:
99,211,12195,1,8,2:3:0:0:
99,211,12288,38,0,P|104:158|132:115,1,101.249996910095,4|0,2:3|0:0,0:0:0:0:
158,111,12661,1,4,2:3:0:0:
231,70,12847,1,4,2:3:0:0:
45,112,13034,2,0,P|87:57|122:40,1,101.249996910095,4|0,2:3|0:0,0:0:0:0:
144,39,13406,2,0,B|197:38|197:38|249:18,1,101.249996910095,4|8,2:3|2:3,0:0:0:0:
285,36,13779,6,0,P|278:68|293:118,1,67.4999979400635,4|8,2:3|2:3,0:0:0:0:
296,129,14058,1,8,0:0:0:0:
317,150,14152,1,4,2:3:0:0:
426,216,14338,1,8,2:3:0:0:
252,271,14524,2,0,P|284:266|331:276,1,67.4999979400635,4|4,2:3|2:3,0:0:0:0:
383,150,14897,2,0,P|351:155|304:145,1,67.4999979400635,8|8,2:3|2:3,0:0:0:0:
148,205,15270,6,0,P|140:253|163:301,1,101.249996910095,4|8,2:3|2:3,0:0:0:0:
185,318,15642,1,8,2:3:0:0:
48,241,15829,1,8,2:3:0:0:
53,210,15922,1,8,2:3:0:0:
59,179,16015,1,4,2:3:0:0:
29,85,16201,1,4,2:3:0:0:
175,45,16388,1,8,2:3:0:0:
175,45,16481,1,8,2:3:0:0:
175,45,16574,1,8,2:3:0:0:
245,186,16760,6,0,P|193:197|132:169,1,101.249996910095,4|0,2:3|0:0,0:0:0:0:
124,163,17133,1,4,2:3:0:0:
68,264,17319,1,8,2:3:0:0:
68,264,17412,1,8,2:3:0:0:
68,264,17506,2,0,L|73:312,1,33.7499989700318,8|0,2:3|0:0,0:0:0:0:
143,349,17692,1,4,2:3:0:0:
205,286,17878,1,8,2:3:0:0:
205,286,17971,1,8,2:3:0:0:
205,286,18065,2,0,L|200:238,1,33.7499989700318,8|0,2:3|0:0,0:0:0:0:
252,119,18251,38,0,P|303:116|352:139,1,101.249996910095,4|0,2:3|0:0,0:0:0:0:
368,158,18624,1,8,2:3:0:0:
394,174,18717,1,8,2:3:0:0:
422,184,18810,1,4,2:3:0:0:
452,185,18903,1,4,2:3:0:0:
482,180,18996,1,4,2:3:0:0:
442,65,19183,1,4,2:3:0:0:
375,165,19369,1,8,2:3:0:0:
375,165,19462,1,8,2:3:0:0:
375,165,19555,1,8,2:3:0:0:
203,56,19742,6,0,B|213:103|213:103|196:170,1,101.249996910095,4|8,2:3|2:3,0:0:0:0:
177,175,20114,1,4,2:3:0:0:
113,269,20301,1,8,2:3:0:0:
113,269,20394,1,8,2:3:0:0:
113,269,20487,1,8,2:3:0:0:
257,314,20673,1,8,2:3:0:0:
237,291,20766,1,4,2:3:0:0:
232,261,20860,1,4,2:3:0:0:
232,230,20953,1,4,2:3:0:0:
246,203,21046,1,4,2:3:0:0:
185,76,21232,6,0,L|75:84,1,101.249996910095,4|0,2:3|0:0,0:0:0:0:
59,101,21605,1,4,2:3:0:0:
95,192,21791,1,8,2:3:0:0:
95,192,21885,1,8,2:3:0:0:
95,192,21978,2,0,P|120:226|130:257,1,67.4999979400635,8|4,2:3|2:3,0:0:0:0:
23,357,22350,2,0,P|35:325|56:299,1,67.4999979400635,8|4,2:3|2:3,0:0:0:0:
259,248,22723,6,0,P|245:198|202:154,1,101.249996910095,4|0,2:3|0:0,0:0:0:0:
185,149,23096,1,4,2:3:0:0:
278,74,23282,1,8,2:3:0:0:
278,74,23375,1,8,2:3:0:0:
278,74,23468,1,4,2:3:0:0:
355,151,23655,1,4,2:3:0:0:
457,87,23841,1,8,2:3:0:0:
454,117,23934,1,8,2:3:0:0:
451,147,24027,1,12,2:3:0:0:
448,177,24121,1,8,2:3:0:0:
444,207,24214,38,0,B|396:217|396:217|346:258,1,101.249996910095,4|0,2:3|0:0,0:0:0:0:
342,277,24586,1,4,2:3:0:0:
263,180,24773,1,8,2:3:0:0:
263,180,24866,1,8,2:3:0:0:
263,180,24959,1,4,2:3:0:0:
200,300,25145,1,4,2:3:0:0:
327,126,25332,1,8,2:3:0:0:
300,110,25425,1,8,2:3:0:0:
270,101,25518,1,4,2:3:0:0:
239,101,25611,1,0,0:0:0:0:
211,112,25704,6,0,P|143:120|103:103,1,101.249996910095,4|0,2:3|0:0,0:0:0:0:
90,88,26077,1,4,2:3:0:0:
102,219,26263,1,8,2:3:0:0:
102,219,26357,1,8,2:3:0:0:
102,219,26450,1,4,2:3:0:0:
235,199,26636,1,8,2:3:0:0:
90,88,26822,1,4,2:3:0:0:
243,18,27009,1,8,2:3:0:0:
122,219,27195,5,4,2:3:0:0:
317,136,27381,1,4,2:3:0:0:
143,8,27568,2,0,P|164:50|168:111,1,101.249996910095,2|4,2:1|0:3,0:0:0:0:
180,146,27940,6,0,L|229:138,1,33.7499989700318,8|8,0:3|0:3,0:0:0:0:
338,109,28127,2,0,L|389:113,1,33.7499989700318,8|8,0:3|0:3,0:0:0:0:
272,210,28313,1,8,0:3:0:0:
269,240,28406,1,0,0:3:0:0:
266,270,28499,1,4,0:3:0:0:
59,294,28686,37,12,0:3:0:0:
108,288,28780,1,4,0:3:0:0:
155,299,28872,1,12,0:3:0:0:
195,327,28965,1,12,0:3:0:0:
233,357,29058,2,0,P|296:365|353:321,1,123.75000377655,2|0,3:1|3:3,0:0:0:0:
365,288,29431,1,8,0:3:0:0:
243,208,29617,1,8,0:3:0:0:
446,160,29804,1,4,0:3:0:0:
324,80,29990,1,2,3:1:0:0:
365,288,30176,6,0,P|350:224|375:157,1,123.75000377655,8|8,0:3|0:3,0:0:0:0:
400,133,30549,1,4,0:3:0:0:
338,21,30735,2,0,L|386:16,1,41.2500012588501,8|8,0:3|0:3,0:0:0:0:
232,58,30922,1,8,0:3:0:0:
212,103,31015,1,8,0:3:0:0:
216,152,31108,1,4,0:3:0:0:
320,223,31294,1,4,3:3:0:0:
340,268,31388,1,0,0:0:0:0:
336,317,31481,1,0,0:0:0:0:
305,356,31574,1,0,0:3:0:0:
256,364,31667,6,0,P|207:348|127:361,1,123.75000377655,8|0,0:3|0:0,0:0:0:0:
88,369,32040,1,4,3:3:0:0:
157,256,32226,1,8,0:3:0:0:
197,227,32319,1,0,0:3:0:0:
218,182,32412,1,8,0:3:0:0:
213,132,32506,1,8,0:3:0:0:
182,92,32599,1,8,0:3:0:0:
305,190,32785,1,4,0:3:0:0:
81,161,32971,1,2,0:1:0:0:
311,24,33158,6,0,P|269:63|248:130,1,123.75000377655,8|0,0:3|2:0,0:0:0:0:
258,173,33530,1,4,0:3:0:0:
410,88,33717,1,8,0:3:0:0:
359,289,33903,1,8,0:3:0:0:
317,62,34089,1,8,0:3:0:0:
266,263,34276,1,4,0:3:0:0:
468,166,34462,1,8,0:3:0:0:
468,166,34555,1,8,0:3:0:0:
468,166,34648,37,4,0:3:0:0:
421,150,34742,1,4,0:3:0:0:
371,154,34835,1,4,0:3:0:0:
329,180,34928,1,4,0:3:0:0:
303,222,35021,2,0,P|260:247|164:232,1,123.75000377655,2|0,0:1|0:0,0:0:0:0:
142,222,35394,1,8,0:3:0:0:
186,347,35580,1,8,0:3:0:0:
261,154,35766,1,4,0:3:0:0:
136,198,35953,1,2,0:1:0:0:
335,219,36139,6,0,P|359:160|343:98,1,123.75000377655,8|0,0:3|0:0,0:0:0:0:
311,67,36512,1,4,0:3:0:0:
466,237,36791,1,8,0:3:0:0:
466,237,36885,1,4,0:3:0:0:
282,279,37071,1,8,0:3:0:0:
353,169,37257,1,4,0:3:0:0:
390,355,37444,1,8,0:3:0:0:
390,355,37537,1,8,0:3:0:0:
390,355,37630,6,0,B|370:290|370:290|387:232,1,123.75000377655,8|0,0:3|0:0,0:0:0:0:
418,199,38003,1,2,0:1:0:0:
382,77,38189,1,8,0:3:0:0:
332,81,38283,1,0,0:0:0:0:
282,85,38375,1,8,0:3:0:0:
232,89,38468,1,0,0:0:0:0:
182,93,38562,1,8,0:3:0:0:
99,192,38748,1,4,0:3:0:0:
257,8,38934,1,2,0:1:0:0:
21,73,39121,6,0,B|110:56|110:56|154:65,1,123.75000377655,8|0,0:3|0:0,0:0:0:0:
182,93,39493,1,4,0:3:0:0:
241,212,39680,1,8,0:3:0:0:
222,257,39773,1,8,0:3:0:0:
232,305,39866,1,4,0:3:0:0:
265,341,39959,1,4,0:3:0:0:
312,354,40052,1,4,0:3:0:0:
360,342,40145,1,4,0:3:0:0:
393,305,40239,1,4,0:3:0:0:
247,128,40425,2,0,L|188:124,1,41.2500012588501,8|0,0:3|0:0,0:0:0:0:
392,86,40611,6,0,B|422:76|422:76|406:184,1,123.75000377655,2|0,0:1|0:3,0:0:0:0:
389,213,40984,1,8,0:3:0:0:
389,213,41077,1,8,0:3:0:0:
389,213,41170,1,8,0:3:0:0:
389,213,41263,1,4,0:3:0:0:
389,213,41357,1,4,3:1:0:0:
280,264,41543,1,4,0:3:0:0:
280,264,41636,1,8,0:3:0:0:
280,264,41729,1,4,0:3:0:0:
280,264,41822,1,8,0:3:0:0:
280,264,41916,1,4,0:3:0:0:
120,86,42102,6,0,B|90:76|90:76|106:184,1,123.75000377655,2|0,0:1|0:3,0:0:0:0:
142,214,42475,1,8,0:3:0:0:
142,214,42568,1,8,0:3:0:0:
142,214,42661,1,8,0:3:0:0:
142,214,42754,1,4,0:3:0:0:
142,214,42847,1,4,3:1:0:0:
208,275,43034,1,4,0:3:0:0:
208,275,43127,1,8,0:3:0:0:
290,230,43313,1,8,0:3:0:0:
290,230,43406,1,4,0:3:0:0:
163,338,43593,70,0,B|94:307|94:307|33:315,1,123.75000377655,2|0,0:1|0:3,0:0:0:0:
64,272,43965,1,8,0:3:0:0:
64,272,44058,1,8,0:3:0:0:
64,272,44152,1,8,0:3:0:0:
64,272,44245,1,4,0:3:0:0:
64,272,44338,1,4,3:1:0:0:
29,146,44524,1,4,0:3:0:0:
29,146,44617,1,8,0:3:0:0:
29,146,44711,1,4,0:3:0:0:
29,146,44804,1,8,0:3:0:0:
29,146,44897,1,4,0:3:0:0:
148,7,45083,6,0,B|68:27|68:27|34:55,1,123.75000377655,2|0,0:1|0:3,0:0:0:0:
70,110,45456,1,8,0:3:0:0:
70,110,45549,1,8,0:3:0:0:
70,110,45642,1,8,0:3:0:0:
70,110,45735,1,4,0:3:0:0:
70,110,45829,1,4,3:1:0:0:
43,213,46015,1,4,0:3:0:0:
92,207,46108,1,8,0:3:0:0:
139,221,46201,1,4,0:3:0:0:
179,248,46294,1,8,0:3:0:0:
208,287,46388,1,4,0:3:0:0:
249,314,46481,1,8,0:3:0:0:
295,330,46574,70,0,P|355:337|420:295,1,123.75000377655,2|0,0:1|0:3,0:0:0:0:
434,265,46947,2,0,L|442:221,1,41.2500012588501,8|8,0:3|0:3,0:0:0:0:
348,177,47133,2,0,L|340:133,1,41.2500012588501,8|4,0:3|0:3,0:0:0:0:
444,62,47319,1,4,3:1:0:0:
247,36,47506,1,4,0:3:0:0:
215,74,47599,1,8,0:3:0:0:
212,123,47692,1,4,0:3:0:0:
233,167,47785,1,8,0:3:0:0:
272,197,47878,1,4,0:3:0:0:
294,240,47971,1,8,0:3:0:0:
294,289,48065,6,0,P|275:343|199:370,1,123.75000377655,2|0,0:1|0:0,0:0:0:0:
169,360,48437,1,8,0:3:0:0:
368,315,48624,1,8,0:3:0:0:
181,213,48810,1,4,3:1:0:0:
313,380,48996,1,4,0:3:0:0:
313,380,49089,1,8,0:3:0:0:
313,380,49183,1,4,3:1:0:0:
329,178,49369,2,0,L|333:136,1,41.2500012588501,4|8,0:3|0:3,0:0:0:0:
160,294,49555,70,0,B|201:288,1,41.2500012588501,4|0,3:1|0:3,0:0:0:0:
53,356,49742,2,0,B|13:363,1,41.2500012588501,2|0,0:3|0:3,0:0:0:0:
46,248,49928,1,2,0:3:0:0:
75,208,50021,1,0,0:3:0:0:
87,160,50114,1,2,0:3:0:0:
81,110,50207,1,0,0:3:0:0:
50,71,50301,1,4,3:1:0:0:
266,33,50487,1,2,0:3:0:0:
194,234,50673,1,2,0:3:0:0:
194,234,50860,1,2,0:3:0:0:
453,155,51046,5,4,3:1:0:0:
237,117,51232,1,2,0:3:0:0:
309,318,51419,1,8,0:3:0:0:
309,318,51605,1,8,0:3:0:0:
354,106,51791,70,0,L|410:100,1,41.2500012588501,12|4,0:3|0:3,0:0:0:0:
169,186,51978,2,0,L|113:180,1,41.2500012588501,4|4,0:3|0:3,0:0:0:0:
370,252,52164,2,0,L|426:246,1,41.2500012588501,4|4,0:3|0:3,0:0:0:0:
163,322,52350,2,0,L|107:316,1,41.2500012588501,4|4,0:3|0:3,0:0:0:0:
