osu file format v14

[General]
AudioFilename: audio.mp3
AudioLeadIn: 0
PreviewTime: 40519
Countdown: 0
SampleSet: Drum
StackLeniency: 0.3
Mode: 0
LetterboxInBreaks: 0
WidescreenStoryboard: 1

[Editor]
DistanceSpacing: 1.4
BeatDivisor: 4
GridSize: 4
TimelineZoom: 1

[Metadata]
Title:white lies (TV Size)
TitleUnicode:white lies (TV Size)
Artist:mito
ArtistUnicode:ミト
Creator:Arf
Version:advanced
Source:〈物語〉シリーズ セカンドシーズン
Tags:rfandomization warpyc 鬼物語 monogatari onimonogatari shinobu time series second season meg rock 日向めぐみ megumi hinata orchestral violin chanting anime english
BeatmapID:1724593
BeatmapSetID:817394

[Difficulty]
HPDrainRate:3
CircleSize:3.5
OverallDifficulty:5
ApproachRate:6
SliderMultiplier:1.25
SliderTickRate:1

[Events]
//Background and Video events
0,0,"samurai run.jpg",0,0
//Break Periods
//Storyboard Layer 0 (Background)
//Storyboard Layer 1 (Fail)
//Storyboard Layer 2 (Pass)
//Storyboard Layer 3 (Foreground)
//Storyboard Layer 4 (Overlay)
//Storyboard Sound Samples

[TimingPoints]
401,369.230769230769,4,3,4,20,1,0
401,-200,4,3,4,20,0,0
1877,376.175548589342,4,3,4,20,1,0
3381,379.746835443038,4,3,4,20,1,0
4899,344.827586206897,4,3,4,20,1,0
5588,-200,4,3,4,5,0,0
6326,372.670807453416,4,3,5,70,1,0
6326,-100,4,3,5,70,0,0
6698,-100,4,3,4,70,0,0
25704,-100,4,3,4,70,0,0
27195,-100,4,3,4,70,0,0
27568,-100,4,3,4,50,0,0
27754,-100,4,3,4,50,0,0
28686,-100,4,3,0,50,0,0
29058,-100,4,3,4,50,0,0
29431,-100,4,3,0,50,0,0
29990,-100,4,3,4,50,0,0
30176,-100,4,3,0,50,0,0
32971,-100,4,3,4,50,0,0
33158,-100,4,3,0,50,0,0
35021,-100,4,3,4,50,0,0
35394,-100,4,3,0,50,0,0
35953,-100,4,3,4,50,0,0
36139,-100,4,3,0,50,0,0
38003,-100,4,3,4,50,0,0
38375,-100,4,3,0,50,0,0
38934,-100,4,3,4,50,0,0
39121,-100,4,3,0,50,0,0
40611,-100,4,3,4,80,0,1
41357,-100,4,1,0,60,0,1
41729,-100,4,3,4,80,0,1
42847,-100,4,1,0,60,0,1
43220,-100,4,3,4,80,0,1
44338,-100,4,1,0,60,0,1
44711,-100,4,3,4,80,0,1
45829,-100,4,1,0,60,0,1
46201,-100,4,3,4,80,0,1
47319,-100,4,1,0,60,0,1
47506,-100,4,3,4,80,0,1
48810,-100,4,1,0,60,0,1
48996,-100,4,3,4,80,0,1
49183,-100,4,1,0,60,0,1
49369,-100,4,3,4,80,0,1
49555,-100,4,1,0,60,0,1
49835,-100,4,2,0,35,0,1
49928,-100,4,2,0,40,0,1
50301,-100,4,1,0,60,0,1
50487,-100,4,2,0,45,0,1
50673,-100,4,2,0,50,0,1
51046,-100,4,1,0,60,0,1
51325,-100,4,2,0,55,0,1
51419,-100,4,3,4,75,0,1
51885,-100,4,1,0,60,0,1
52444,-100,4,1,0,60,0,0

[Colours]
Combo1 : 186,10,89
Combo2 : 173,255,95
Combo3 : 254,114,117
Combo4 : 255,122,89
Combo5 : 17,254,176
Combo6 : 253,253,97

[HitObjects]
256,192,401,12,0,5588,0:0:0:0:
121,54,6326,6,0,P|102:115|129:177,1,125,4|8,2:3|2:3,0:0:0:0:
189,236,6885,1,4,2:3:0:0:
189,236,7072,2,0,P|193:269|182:312,1,62.5,4|8,2:3|2:3,0:0:0:0:
108,333,7444,2,0,P|102:302|106:271,1,62.5,4|8,2:3|2:3,0:0:0:0:
189,236,7817,6,0,L|338:220,1,125,8|4,2:3|2:3,0:0:0:0:
343,140,8376,1,0,2:3:0:0:
343,140,8562,2,0,L|218:153,1,125,8|4,2:3|2:3,0:0:0:0:
218,153,9308,6,0,B|213:199|213:199|190:232|208:281,1,125,4|8,2:3|2:3,0:0:0:0:
246,352,9867,1,4,2:3:0:0:
296,280,10053,1,4,2:3:0:0:
296,280,10239,1,8,2:3:0:0:
205,274,10426,1,4,2:3:0:0:
363,201,10798,6,0,P|425:199|479:241,1,125,8|4,2:3|2:3,0:0:0:0:
454,319,11357,1,8,2:3:0:0:
454,319,11544,2,0,P|392:321|338:279,1,125,8|4,2:3|2:3,0:0:0:0:
282,221,12103,1,8,2:3:0:0:
282,221,12288,38,0,P|220:219|166:261,1,125,4|4,2:3|2:3,0:0:0:0:
192,338,12848,1,4,2:3:0:0:
192,338,13035,2,0,P|254:340|308:298,1,125,4|0,2:3|0:0,0:0:0:0:
303,305,13780,6,0,B|307:238|307:238|332:211|334:182,1,125,4|4,2:3|2:3,0:0:0:0:
333,102,14339,1,8,2:3:0:0:
333,102,14525,2,0,L|250:98,1,62.5,4|4,2:3|2:3,0:0:0:0:
224,24,14898,2,0,L|307:20,1,62.5,8|0,2:3|0:0,0:0:0:0:
373,27,15270,6,0,P|412:75|409:137,1,125,4|8,2:3|2:3,0:0:0:0:
335,182,15829,1,8,2:3:0:0:
335,182,16016,2,0,P|332:243|371:290,1,125,4|8,2:3|2:3,0:0:0:0:
371,290,16761,6,0,B|306:290|306:290|239:316,1,125,4|4,2:3|2:3,0:0:0:0:
176,359,17320,1,8,2:3:0:0:
173,276,17506,1,8,2:3:0:0:
173,276,17693,1,4,2:3:0:0:
250,311,17879,1,8,2:3:0:0:
175,152,18252,38,0,L|47:148,1,125,4|8,2:3|2:3,0:0:0:0:
28,68,18811,1,4,2:3:0:0:
28,68,18997,2,0,L|152:71,1,125,4|8,2:3|2:3,0:0:0:0:
243,91,19556,1,8,2:3:0:0:
243,91,19742,6,0,P|263:154|229:218,1,125,4|4,2:3|2:3,0:0:0:0:
280,291,20301,1,8,2:3:0:0:
280,291,20488,2,0,P|343:271|407:305,1,125,8|4,2:3|2:3,0:0:0:0:
395,292,21233,6,0,B|380:206|380:206|393:167,1,125,4|4,2:3|2:3,0:0:0:0:
439,96,21792,1,8,2:3:0:0:
439,96,21978,2,0,B|364:81,1,62.5,8|4,2:3|2:3,0:0:0:0:
317,148,22351,2,0,B|242:133,1,62.5,8|4,2:3|2:3,0:0:0:0:
178,93,22724,6,0,P|205:156|189:220,1,125,4|4,2:3|2:3,0:0:0:0:
111,226,23283,1,8,2:3:0:0:
111,226,23469,2,0,P|84:163|100:99,1,125,4|8,2:3|2:3,0:0:0:0:
94,109,24214,38,0,B|188:98|188:98|222:79,1,125,4|4,2:3|2:3,0:0:0:0:
290,39,24773,1,8,2:3:0:0:
287,130,24960,1,4,2:3:0:0:
287,130,25146,1,4,2:3:0:0:
214,83,25332,1,8,2:3:0:0:
385,117,25705,6,0,L|376:247,1,125,4|4,2:3|2:3,0:0:0:0:
291,265,26264,1,8,2:3:0:0:
291,265,26450,2,0,L|299:140,1,125,4|4,2:3|2:3,0:0:0:0:
213,163,27009,1,8,2:3:0:0:
213,163,27195,6,0,L|205:288,1,125,4|2,2:3|2:1,0:0:0:0:
126,327,27755,1,8,0:3:0:0:
126,327,27941,2,0,L|51:323,1,62.5,8|8,0:3|0:3,0:0:0:0:
17,249,28314,2,0,L|79:245,1,62.5,8|0,0:3|0:0,0:0:0:0:
159,211,28686,6,0,L|150:143,1,62.5,12|12,0:3|0:3,0:0:0:0:
176,65,29059,2,0,P|135:103|53:103,1,125,2|8,3:1|0:3,0:0:0:0:
33,189,29618,1,8,0:3:0:0:
64,270,29804,1,4,0:3:0:0:
144,304,29991,1,2,3:1:0:0:
230,293,30177,38,0,B|285:259|285:259|317:208,1,125,8|4,0:3|0:3,0:0:0:0:
330,125,30736,1,8,0:3:0:0:
330,125,30923,2,0,L|459:117,1,125,8|0,0:3|0:0,0:0:0:0:
487,35,31482,1,0,0:0:0:0:
487,35,31667,6,0,L|358:43,1,125,8|4,0:3|3:3,0:0:0:0:
279,70,32227,1,8,0:3:0:0:
279,70,32413,2,0,L|285:138,1,62.5,8|8,0:3|0:3,0:0:0:0:
318,213,32786,1,4,0:3:0:0:
372,144,32972,1,2,0:1:0:0:
284,132,33159,6,0,P|227:134|178:177,1,125,8|0,0:3|0:0,0:0:0:0:
211,258,33718,1,8,0:3:0:0:
211,258,33904,2,0,P|272:254|317:212,1,125,8|4,0:3|0:3,0:0:0:0:
373,144,34463,1,8,0:3:0:0:
444,194,34649,6,0,L|496:199,2,31.25,4|4|4,0:3|0:3|0:3,0:0:0:0:
383,257,35022,2,0,L|373:381,1,125,2|8,0:1|0:3,0:0:0:0:
290,351,35581,2,0,L|210:357,2,62.5,8|0|2,0:3|0:0|0:1,0:0:0:0:
301,263,36140,38,0,L|311:139,1,125,8|4,0:3|0:3,0:0:0:0:
243,82,36699,1,8,0:3:0:0:
243,82,36885,2,0,L|177:75,1,62.5,4|8,0:3|0:3,0:0:0:0:
132,148,37258,2,0,L|194:154,1,62.5,4|8,0:3|0:3,0:0:0:0:
270,197,37631,6,0,P|216:241|147:228,1,125,8|2,0:3|0:1,0:0:0:0:
164,237,38376,1,8,0:3:0:0:
93,287,38562,2,0,L|20:278,1,62.5,8|4,0:3|0:3,0:0:0:0:
19,366,38935,1,2,0:1:0:0:
106,370,39121,6,0,L|242:362,1,125,8|4,0:3|0:3,0:0:0:0:
295,303,39680,2,0,L|331:308,2,31.25,8|8|4,0:3|0:3|0:3,0:0:0:0:
218,259,40053,2,0,L|182:264,2,31.25,4|0|4,0:3|0:0|0:3,0:0:0:0:
379,190,40612,22,0,P|397:131|372:75,1,125,2|8,0:1|0:3,0:0:0:0:
288,79,41171,1,8,0:3:0:0:
288,79,41357,2,0,P|270:138|295:194,1,125,4|4,3:1|0:3,0:0:0:0:
126,243,42103,6,0,P|143:301|119:357,1,125,2|8,0:1|0:3,0:0:0:0:
35,355,42662,1,8,0:3:0:0:
35,355,42848,2,0,P|16:296|41:240,1,125,4|0,3:1|0:0,0:0:0:0:
126,243,43407,1,4,0:3:0:0:
198,291,43593,70,0,L|333:286,1,125,2|8,0:1|0:3,0:0:0:0:
353,203,44152,1,8,0:3:0:0:
353,203,44339,2,0,L|228:207,1,125,4|4,3:1|0:3,0:0:0:0:
77,117,45084,6,0,L|201:121,1,125,2|8,0:1|0:3,0:0:0:0:
173,38,45643,1,8,0:3:0:0:
173,38,45830,2,0,L|48:33,1,125,4|0,3:1|0:0,0:0:0:0:
27,119,46388,1,4,0:3:0:0:
78,190,46575,70,0,P|98:252|85:298,1,93.75,2|0,0:1|0:0,0:0:0:0:
71,316,46947,1,8,0:3:0:0:
150,353,47134,1,8,0:3:0:0:
236,338,47320,2,0,L|302:339,1,62.5,4|4,3:1|0:3,0:0:0:0:
371,290,47693,1,4,0:3:0:0:
305,232,47879,1,4,0:3:0:0:
220,252,48065,6,0,B|207:157|207:157|217:124,1,125,2|8,0:1|0:3,0:0:0:0:
297,97,48624,1,8,0:3:0:0:
379,60,48811,1,4,3:1:0:0:
435,126,48997,1,4,0:3:0:0:
391,202,49183,1,4,3:1:0:0:
307,182,49370,1,4,0:3:0:0:
297,97,49556,70,0,B|250:86|250:86|192:91,1,93.75,4|0,3:1|0:3,0:0:0:0:
162,103,49929,1,2,0:3:0:0:
133,185,50115,1,2,0:3:0:0:
189,251,50301,1,4,3:1:0:0:
275,234,50488,1,2,0:3:0:0:
303,151,50674,1,2,0:3:0:0:
244,85,50860,1,2,0:3:0:0:
329,65,51047,6,0,L|429:69,1,93.75,4|0,3:1|0:3,0:0:0:0:
456,96,51419,1,8,0:3:0:0:
448,182,51606,1,8,0:3:0:0:
373,227,51792,2,0,L|324:221,3,31.25,12|4|4|4,0:3|0:3|0:3|0:3,0:0:0:0:
316,259,52165,2,0,L|267:253,3,31.25,4|0|0|4,0:3|0:0|0:0|0:3,0:0:0:0:
