osu file format v14

[General]
AudioFilename: audio.mp3
AudioLeadIn: 0
PreviewTime: 40519
Countdown: 0
SampleSet: Drum
StackLeniency: 0.3
Mode: 0
LetterboxInBreaks: 0
WidescreenStoryboard: 1

[Editor]
DistanceSpacing: 0.8
BeatDivisor: 4
GridSize: 4
TimelineZoom: 1

[Metadata]
Title:white lies (TV Size)
TitleUnicode:white lies (TV Size)
Artist:mito
ArtistUnicode:ミト
Creator:Arf
Version:normal
Source:〈物語〉シリーズ セカンドシーズン
Tags:rfandomization warpyc 鬼物語 monogatari onimonogatari shinobu time series second season meg rock 日向めぐみ megumi hinata orchestral violin chanting anime english
BeatmapID:1722475
BeatmapSetID:817394

[Difficulty]
HPDrainRate:2
CircleSize:3.3
OverallDifficulty:4
ApproachRate:4
SliderMultiplier:1.15
SliderTickRate:1

[Events]
//Background and Video events
0,0,"samurai run.jpg",0,0
//Break Periods
//Storyboard Layer 0 (Background)
//Storyboard Layer 1 (Fail)
//Storyboard Layer 2 (Pass)
//Storyboard Layer 3 (Foreground)
//Storyboard Layer 4 (Overlay)
//Storyboard Sound Samples

[TimingPoints]
401,369.230769230769,4,3,4,20,1,0
401,-200,4,3,4,20,0,0
1877,376.175548589342,4,3,4,20,1,0
3381,379.746835443038,4,3,4,20,1,0
4899,344.827586206897,4,3,4,5,1,0
6326,372.670807453416,4,3,5,70,1,0
6326,-100,4,3,5,70,0,0
6698,-100,4,3,4,70,0,0
25704,-100,4,3,4,70,0,0
27195,-100,4,3,4,70,0,0
27568,-100,4,3,4,50,0,0
27940,-100,4,3,4,50,0,0
28686,-100,4,3,0,50,0,0
29058,-100,4,3,4,50,0,0
29431,-100,4,3,0,50,0,0
29990,-100,4,3,4,50,0,0
30176,-100,4,3,0,50,0,0
32971,-100,4,3,4,50,0,0
33158,-100,4,3,0,50,0,0
35021,-100,4,3,4,50,0,0
35394,-100,4,3,0,50,0,0
35953,-100,4,3,4,50,0,0
36139,-100,4,3,0,50,0,0
38003,-100,4,3,4,50,0,0
38375,-100,4,3,0,50,0,0
38934,-100,4,3,4,50,0,0
39121,-100,4,3,0,50,0,0
40611,-100,4,3,4,80,0,1
41357,-100,4,1,0,60,0,1
41729,-100,4,3,4,80,0,1
42847,-100,4,1,0,60,0,1
43220,-100,4,3,4,80,0,1
44338,-100,4,1,0,60,0,1
44711,-100,4,3,4,80,0,1
45829,-100,4,1,0,60,0,1
46201,-100,4,3,4,80,0,1
47319,-100,4,1,0,60,0,1
47692,-100,4,3,4,80,0,1
48810,-100,4,1,0,60,0,1
48996,-100,4,3,4,80,0,1
49183,-100,4,1,0,60,0,1
49369,-100,4,3,4,80,0,1
49555,-100,4,1,0,60,0,1
49928,-100,4,2,0,40,0,1
50301,-100,4,1,0,60,0,1
50487,-100,4,2,0,45,0,1
50673,-100,4,2,0,50,0,1
51046,-100,4,1,0,60,0,1
51232,-100,4,3,4,75,0,1
51885,-100,4,1,0,60,0,1
52350,-100,4,1,0,60,0,0

[Colours]
Combo1 : 186,10,89
Combo2 : 173,255,95
Combo3 : 254,114,117
Combo4 : 255,122,89
Combo5 : 17,254,176
Combo6 : 253,253,97

[HitObjects]
256,192,401,12,0,4899,0:0:0:0:
81,115,6326,6,0,P|133:129|198:120,1,115,4|8,2:3|2:3,0:0:0:0:
281,95,7072,1,4,2:3:0:0:
258,184,7444,1,4,2:3:0:0:
323,248,7817,6,0,P|318:303|263:357,1,115,8|4,2:3|2:3,0:0:0:0:
235,353,8376,1,0,2:3:0:0:
189,360,8562,2,0,L|70:351,1,115,8|4,2:3|2:3,0:0:0:0:
53,261,9308,6,0,L|167:269,1,115,4|8,2:3|2:3,0:0:0:0:
254,240,10053,1,4,2:3:0:0:
239,196,10239,1,8,2:3:0:0:
224,152,10426,1,4,2:3:0:0:
276,76,10798,6,0,L|410:63,1,115,8|4,2:3|2:3,0:0:0:0:
422,151,11544,2,0,L|307:162,1,115,8|4,2:3|2:3,0:0:0:0:
223,199,12289,38,0,P|213:256|256:314,1,115,4|4,2:3|2:3,0:0:0:0:
330,284,13034,2,0,P|340:227|297:169,1,115,4|4,2:3|2:3,0:0:0:0:
241,120,13780,6,0,P|124:106|124:106,1,115,4|4,2:3|2:3,0:0:0:0:
38,132,14525,1,4,2:3:0:0:
57,42,14898,1,8,2:3:0:0:
127,107,15270,6,0,P|126:162|86:215,1,115,4|8,2:3|2:3,0:0:0:0:
122,297,16016,2,0,P|177:298|230:338,1,115,4|8,2:3|2:3,0:0:0:0:
309,294,16761,5,4,2:3:0:0:
313,202,17134,1,4,2:3:0:0:
393,245,17506,1,8,2:3:0:0:
433,266,17693,1,4,2:3:0:0:
473,287,17879,1,8,2:3:0:0:
490,196,18252,38,0,P|447:156|429:99,1,115,4|8,2:3|2:3,0:0:0:0:
429,57,18811,1,4,2:3:0:0:
452,17,18997,1,4,2:3:0:0:
360,4,19370,1,8,2:3:0:0:
302,75,19742,6,0,L|315:199,1,115,4|4,2:3|2:3,0:0:0:0:
232,232,20488,2,0,L|220:117,1,115,8|4,2:3|2:3,0:0:0:0:
164,44,21233,6,0,P|107:45|54:90,1,115,4|4,2:3|2:3,0:0:0:0:
53,169,21978,1,8,2:3:0:0:
138,133,22351,1,8,2:3:0:0:
126,224,22724,6,0,B|119:280|119:280|143:335,1,115,4|4,2:3|2:3,0:0:0:0:
184,352,23283,1,8,2:3:0:0:
225,331,23469,2,0,B|248:277|248:277|241:221,1,115,4|8,2:3|2:3,0:0:0:0:
214,133,24214,37,4,2:3:0:0:
301,103,24587,1,4,2:3:0:0:
372,160,24960,1,4,2:3:0:0:
363,205,25146,1,4,2:3:0:0:
354,250,25332,1,8,2:3:0:0:
287,313,25705,6,0,L|158:330,1,115,4|4,2:3|2:3,0:0:0:0:
119,253,26450,2,0,L|233:237,1,115,4|4,2:3|2:3,0:0:0:0:
261,150,27196,6,0,L|132:167,1,115,4|2,2:3|2:1,0:0:0:0:
55,175,27941,1,8,0:3:0:0:
90,90,28314,1,8,0:3:0:0:
174,55,28686,6,0,B|230:46|230:46|309:63,1,115,12|2,0:3|3:1,0:0:0:0:
376,79,29432,1,8,0:3:0:0:
424,156,29804,1,4,0:3:0:0:
390,187,29990,38,0,P|335:192|285:232,1,115,2|8,3:1|0:3,0:0:0:0:
255,259,30549,1,4,0:3:0:0:
197,185,30923,2,0,B|142:171|142:171|72:178,1,115,8|0,0:3|0:0,0:0:0:0:
76,268,31668,6,0,B|131:282|131:282|201:275,1,115,8|4,0:3|3:3,0:0:0:0:
280,268,32413,2,0,L|289:327,1,57.5,8|8,0:3|0:3,0:0:0:0:
327,349,32786,1,4,0:3:0:0:
372,345,32972,1,2,0:1:0:0:
417,341,33159,6,0,B|426:282|426:282|411:224,1,115,8|0,0:3|0:0,0:0:0:0:
383,140,33904,2,0,L|391:80,1,57.5,8|0,0:3|0:0,0:0:0:0:
361,49,34277,1,4,0:3:0:0:
317,39,34463,1,8,0:3:0:0:
273,29,34649,5,4,0:3:0:0:
187,63,35022,2,0,B|202:122|202:122|186:190,1,115,2|8,0:1|0:3,0:0:0:0:
111,223,35767,1,4,0:3:0:0:
65,228,35954,1,2,0:1:0:0:
19,233,36140,38,0,B|4:174|4:174|16:121,1,115,8|4,0:3|0:3,0:0:0:0:
59,39,36885,2,0,L|-9:18,2,57.5,4|8|4,0:3|0:3|0:3,0:0:0:0:
102,53,37444,1,8,0:3:0:0:
146,64,37631,6,0,P|166:119|152:176,1,115,8|2,0:3|0:1,0:0:0:0:
142,263,38376,2,0,L|64:271,2,57.5,8|8|4,0:3|0:3|0:3,0:0:0:0:
188,261,38935,1,2,0:1:0:0:
233,257,39121,6,0,B|257:203|257:203|247:146,1,115,8|4,0:3|0:3,0:0:0:0:
158,124,39867,2,0,B|189:75|189:75|249:50,1,115,4|4,0:3|0:3,0:0:0:0:
324,12,40612,22,0,L|447:8,1,115,2|8,0:1|0:3,0:0:0:0:
477,34,41171,1,8,0:3:0:0:
491,77,41357,1,4,3:1:0:0:
430,146,41730,2,0,L|371:142,1,57.5,4|4,0:3|0:3,0:0:0:0:
329,158,42103,6,0,P|317:216|343:277,1,115,2|8,0:1|0:3,0:0:0:0:
367,300,42662,1,8,0:3:0:0:
408,319,42848,1,4,3:1:0:0:
337,378,43221,2,0,L|274:374,1,57.5,0|0,0:0|0:0,0:0:0:0:
235,360,43593,70,0,P|253:306|241:250,1,115,2|8,0:1|0:3,0:0:0:0:
202,224,44152,1,8,0:3:0:0:
157,213,44339,1,4,3:1:0:0:
117,130,44711,2,0,L|185:123,1,57.5,4|4,0:3|0:3,0:0:0:0:
220,120,45084,6,0,B|275:130|275:130|322:166,1,115,2|8,0:1|0:3,0:0:0:0:
351,201,45643,1,8,0:3:0:0:
338,245,45829,1,4,3:1:0:0:
404,308,46202,1,4,0:3:0:0:
445,288,46388,1,4,0:3:0:0:
486,268,46575,70,0,L|471:146,1,115,2|8,0:1|0:3,0:0:0:0:
450,113,47134,1,8,0:3:0:0:
410,88,47320,2,0,L|283:78,1,115,4|4,3:1|0:3,0:0:0:0:
204,96,48065,6,0,P|220:155|197:210,1,115,2|8,0:1|0:3,0:0:0:0:
171,238,48624,1,8,0:3:0:0:
138,270,48811,2,0,L|72:262,2,57.5,4|0|4,3:1|0:0|3:1,0:0:0:0:
213,323,49556,70,0,B|301:301|301:301|334:304,1,115,4|2,3:1|0:3,0:0:0:0:
370,309,50115,1,2,0:3:0:0:
415,315,50301,2,0,L|431:382,2,57.5,4|2|2,3:1|0:3|0:3,0:0:0:0:
382,228,51047,5,4,3:1:0:0:
366,184,51233,1,2,0:3:0:0:
387,143,51419,1,8,0:3:0:0:
475,116,51792,1,12,0:3:0:0:
484,71,51978,1,4,0:3:0:0:
456,33,52165,2,0,L|385:21,1,57.5,4|0,0:3|0:0,0:0:0:0:
